#TITLE:잘가라;
#SUBTITLE:;
#ARTIST:Red Pulse;
#TITLETRANSLIT:Go Hell;
#SUBTITLETRANSLIT:;
#ARTISTTRANSLIT:Red Pulse;
#GENRE:;
#CREDIT:DJSuperNOVA;
#MUSIC:Go Hell.ogg;
#BANNER:Go Hell.png;
#BACKGROUND:Go Hell-bg.png;
#CDTITLE:;
#SAMPLESTART:61.269;
#SAMPLELENGTH:14.897;
#SELECTABLE:YES;
#OFFSET:-0.028;
#BPMS:0.000=145.000
,256.000=72.500
,256.250=145.000
,256.500=290.000
,257.000=145.000
,272.000=72.500
,272.250=145.000
,272.500=290.000
,273.000=145.000
;
#STOPS:;
#DISPLAYBPM:145.000;
#BGCHANGES:;
#FGCHANGES:;

//--------------- dance-single - DJSuperNOVA ----------------
#NOTES:
     dance-single:
     DJSuperNOVA:
     Beginner:
     2:
     0,0,0,0,0:
0000
0000
0000
0000
,
1000
0000
0000
0001
0000
0000
0000
0000
,
0000
0020
0000
0030
,
0100
0000
0000
0000
,
0100
0000
0000
0000
,
0010
0000
0000
0000
,
0010
0000
1001
0000
,
1000
0000
0000
0000
,
0001
0000
0000
0000
,
0200
0000
0000
0300
,
0010
0000
0000
0000
,
1001
0000
0000
0000
,
0001
0000
0000
0000
,
1000
0000
0000
0000
,
0010
0000
0100
0000
,
1001
0000
0000
0000
,
0001
0000
0000
0000
,
0100
0000
0000
0000
,
1000
0000
0100
0000
,
0001
0000
1000
0000
,
2002
0000
0000
3003
,
1000
0000
1000
0000
,
0001
0000
0000
0000
,
0001
0000
0001
0000
,
1000
0000
0000
0000
,
0010
0000
0100
0000
,
0010
0000
0100
0000
,
0001
0000
1000
0000
,
0001
0000
0000
0000
,
0010
0000
0010
0000
,
0100
0000
0000
0000
,
0100
0000
0100
0000
,
0010
0000
0000
0000
,
0100
0000
0010
0000
,
0100
0000
0010
0000
,
1000
0000
0001
0000
,
1000
0000
0000
0000
,
1000
0000
0000
0000
,
0001
0000
0000
0000
,
1000
0000
1000
0000
,
0001
0000
0001
0000
,
1001
0000
0000
0000
,
0010
0000
0000
0000
,
0100
0000
0000
0000
,
0010
0000
0010
0000
,
0100
0000
0100
0000
,
0010
0000
1000
0000
,
0001
0000
0001
0000
,
1000
0000
1000
0000
,
0010
0000
0010
0000
,
0100
0000
0100
0000
,
0001
0000
0001
0000
,
1000
0000
0001
0000
,
0100
0000
0010
0000
,
1001
0000
0000
0000
,
2000
0000
0000
0000
,
3001
0000
0000
0000
,
0002
0000
0000
0000
,
1003
0000
0000
0000
,
0200
0000
0000
0000
,
0310
0000
0000
0000
,
0020
0000
0000
0000
,
0130
0000
0000
0000
,
1000
1000
0001
0001
,
1001
0000
0000
0000
,
1000
0000
0000
0000
,
0001
0000
0000
0000
,
0100
0000
0010
0000
,
0110
0000
0000
0000
,
1000
0000
0000
0000
,
0001
0000
0000
0000
,
1000
0000
0001
0000
,
1001
0000
1000
0000
,
1001
0000
0000
0000
,
1000
0000
0000
0000
,
0001
0000
0000
0000
,
0100
0000
0000
0000
,
0010
0000
0000
0000
,
1000
0000
0100
0000
,
0001
0000
0100
0000
,
1000
0000
0100
0000
,
0001
0000
0100
0000
,
1000
1000
0001
0001
,
1001
0000
0000
0000
;

//--------------- dance-single - DJSuperNOVA ----------------
#NOTES:
     dance-single:
     DJSuperNOVA:
     Easy:
     6:
     0,0,0,0,0:
0000
0000
0000
0000
,
1000
0000
0000
0001
0000
0000
0000
0000
,
0000
0000
0020
0000
0000
0000
0000
0030
,
0100
0100
0000
0000
0000
0000
0000
0010
,
0010
0010
0000
0000
0000
0000
0000
0001
,
0001
0001
0000
0000
0000
0000
0000
1000
,
1000
1000
0000
0000
2002
0000
3003
0000
,
1000
0000
0100
0000
0001
0000
0100
0100
,
0100
0000
1000
0000
0100
0000
0010
0010
,
0010
0000
0100
0000
1000
0000
0001
0001
,
0001
0100
1000
0001
,
1010
0001
0100
0010
,
0100
0100
0001
0001
,
1000
0010
1000
0100
,
0001
0010
1000
1000
,
1001
0001
0100
0010
,
1000
1000
0001
0001
,
0100
0010
1000
0100
,
0010
0010
0001
0001
,
1000
0100
1000
0000
0001
0100
0001
0000
,
2002
0000
0000
3003
,
1000
0110
1000
0110
,
0001
0000
0100
0000
1000
1000
1000
0000
,
0001
0110
0001
0110
,
1000
0000
0100
0000
0001
0001
0001
0000
,
1000
0001
1000
0001
,
0100
0010
0100
0010
,
1000
0010
0100
0001
,
1000
0010
1000
0000
0001
0010
0001
0000
,
0100
1001
0100
1001
,
0100
0000
0010
0000
0100
0100
0100
0000
,
0010
1001
0010
1001
,
0010
0000
0100
0000
0010
0010
0010
0000
,
0100
0010
0100
0010
,
1000
0001
1000
0001
,
0100
0001
1000
0010
,
2000
0000
0002
3003
,
1000
0101
0100
1000
,
0001
1100
0100
0001
,
1000
1010
0010
0001
,
0001
0011
0100
1000
,
1001
1000
0001
0110
,
1000
0100
0001
1001
,
0010
0100
1000
0110
,
0001
0010
0100
0010
,
1001
0001
1000
1000
,
0001
0000
0100
0000
1000
0100
0001
0000
,
0100
0000
0001
0000
1000
0100
0001
0000
,
0100
0000
1000
0000
0100
0001
0100
0000
,
1000
0000
0100
0000
0001
0100
1000
0000
,
1001
0000
0100
0000
0001
0100
1000
0000
,
0100
0000
0001
0000
1000
0100
0001
0000
,
0100
0000
1000
0000
0001
0100
1000
0000
,
0100
0000
0010
0000
0001
0100
1000
0000
,
0010
0100
0010
0100
,
1000
0100
0020
0000
0000
0000
0030
0000
,
1001
0100
0100
0100
,
0001
0100
0020
0000
0000
0000
0030
0000
,
1001
0010
0010
0010
,
0100
0001
2000
0000
0000
0000
3000
0000
,
0101
0010
0010
0010
,
0100
1000
0002
0000
0000
0000
0003
0000
,
1000
0100
0100
0100
,
0010
0100
0010
0100
,
1001
0100
0100
1000
,
0001
1100
0100
0001
,
1000
1010
0010
0001
,
0001
0011
0100
1000
,
1001
1000
0001
0110
,
1000
0100
0001
1001
,
0010
0100
1000
0110
,
0001
0010
0100
0010
,
1001
0001
1000
1000
,
0220
0000
0000
0330
,
1010
0000
0001
0000
0010
0010
0010
0000
,
0100
0000
0100
0000
0001
0001
0001
0000
,
1000
0000
0010
0000
1000
1000
1000
0000
,
0001
0000
0010
0000
0100
0100
0100
0000
,
1001
0000
0001
0000
0100
0100
0010
0000
,
1000
0000
0001
0000
1000
1000
0001
0000
,
0100
0000
0010
0000
1000
1000
0100
0000
,
0010
0000
0001
0000
0010
0010
0001
0000
,
1000
0100
1000
0000
0001
0100
0001
0000
,
1001
0000
0000
0000
;

//--------------- dance-single - DJSuperNOVA ----------------
#NOTES:
     dance-single:
     DJSuperNOVA:
     Medium:
     9:
     0,0,0,0,0:
0000
0000
0000
0000
,
1000
0000
0000
0001
0000
0000
0000
0000
,
0000
0000
0020
0000
0000
0000
0000
0030
,
0100
0001
0000
0000
0000
0000
0000
0010
,
0100
0010
0000
0000
0000
0000
0000
0001
,
1000
0001
0000
0000
0000
0000
0000
1000
,
0001
1000
0000
0000
1000
0100
0001
0000
,
1000
0010
0100
0010
1000
0010
0100
0100
,
0100
0010
1000
0010
0100
0001
0010
0010
,
0010
0001
0100
0010
0100
0001
0010
0100
,
0010
0000
0100
0000
0000
1000
0000
0000
0100
0000
0010
0000
0001
0000
2000
0000
,
0000
3100
0010
0100
0010
0100
0010
0200
,
0000
0310
0001
0010
0001
0010
0100
2000
,
0000
3100
0010
1000
0010
1000
0010
0200
,
0000
0301
0100
0001
0100
0001
0100
0020
,
0000
0130
0100
0010
0010
0100
0010
2000
,
0000
3010
0010
1000
1000
0010
1000
0200
,
0000
0310
0010
0100
0100
0010
0100
0002
,
0000
1003
0100
0010
0001
0010
0100
1000
,
0001
0100
0001
0000
1000
0100
1000
0000
,
2002
0000
0000
3003
,
1000
0110
1000
0110
,
0001
0000
0100
0000
1000
0000
0000
1000
0000
0000
1000
0000
0000
0000
0100
0000
,
0001
0110
0001
0110
,
1000
0000
0000
0000
0100
0000
0000
0001
0000
0000
0001
0000
0000
0000
0001
0000
,
1000
0100
0001
0000
1000
0100
0001
0000
,
0100
1000
0010
0000
0100
0001
0010
0000
,
1000
0100
0010
0000
0100
1000
0001
0000
,
1000
0010
1000
0010
0001
0010
0001
0100
,
0010
1001
0100
1001
,
0100
0000
0000
0000
0010
0000
0000
0100
0000
0000
0100
0000
0000
0000
0100
0000
,
0010
1001
0010
1001
,
0010
0000
0000
0000
0100
0000
0000
0010
0000
0000
0010
0000
0000
0000
1000
0000
,
0100
1000
0010
0000
0100
0001
0010
0000
,
1000
0010
0001
0000
1000
0100
0001
0000
,
0200
0001
1000
0310
,
2002
0000
0000
3003
,
1000
0000
0101
0000
0100
0010
1000
0000
,
0001
0000
1100
0000
0100
0010
0001
0000
,
1000
0000
1010
0000
0010
0100
0001
0000
,
0001
0000
0011
0000
0100
0010
1000
0000
,
1001
0000
1000
0000
0001
0100
0010
0000
,
1010
0000
0100
0000
0001
0100
1000
0000
,
0110
0000
0100
0000
1000
0010
0100
0000
,
0011
0000
0010
0000
0100
1000
0010
0000
,
1001
0001
0001
0000
1000
1000
1000
0000
,
0001
0000
0000
0000
0100
0000
0000
0000
0010
0000
0000
0100
0000
0000
0001
0000
,
0100
0000
0000
0000
0001
0000
0000
0000
1000
0000
0000
0100
0000
0000
0001
0000
,
0100
0000
0000
0000
1000
0000
0000
0000
0100
0000
0000
0001
0000
0000
0100
0000
,
0010
0000
0000
0000
0100
0000
0000
0000
0001
0000
0000
0100
0000
0000
1000
0000
,
1001
0000
0000
0000
0100
0000
0000
0000
0001
0000
0000
0100
0000
0000
1000
0000
,
0100
0000
0000
0000
0001
0000
0000
0000
1000
0000
0000
0100
0000
0000
0001
0000
,
0100
0000
0000
0000
1000
0000
0000
0000
0001
0000
0000
0100
0000
0000
1000
0000
,
0100
0000
0000
0000
0010
0000
0000
0000
0001
0000
0000
0100
0000
0000
1000
0000
,
0010
0000
0100
0000
0010
0000
0000
0000
0100
0000
0000
0010
0000
0000
0100
0000
,
0001
0100
0020
0000
0030
1000
0010
1000
,
0010
0010
0000
0010
0000
0010
0000
0000
,
0001
0100
0020
0000
0000
1030
0010
1000
,
0001
0001
0000
0001
0000
0001
0000
0000
,
0100
0001
2000
0000
3000
1000
0010
1000
,
0100
0100
0000
0100
0000
0100
0000
0000
,
0100
1000
0002
0000
0003
0001
0100
0001
,
0010
0010
0000
0010
0000
0010
0000
0100
,
0010
0010
0100
0100
,
1001
0000
0100
0010
0100
0010
1000
0000
,
0101
0000
0100
0001
0100
0001
1000
0000
,
1100
0000
0010
0100
0010
0100
0001
0000
,
0011
0000
0001
0100
0001
0100
1000
0000
,
1001
0000
0010
0100
0001
0100
0010
0000
,
1100
0000
0100
0010
0001
0010
0001
0000
,
1010
0000
0100
0010
1000
0010
0100
0000
,
1001
0000
0010
0100
0010
0100
0010
0000
,
1001
0001
1000
1000
,
1001
0000
0000
0100
0000
0000
0010
0000
0100
0000
0000
0010
0000
0000
0002
0000
,
0000
0103
0010
0100
0010
0100
0010
0200
,
0000
0310
1000
0010
1000
0010
0100
0002
,
0000
0103
0010
0001
0010
0001
0010
0200
,
0000
1300
0100
1000
0100
1000
0100
0020
,
0000
0130
0100
0010
0010
0100
0010
0002
,
0000
0013
0010
0001
0001
0010
0001
0200
,
0000
0310
0010
0100
0100
0010
0100
2000
,
0000
3001
0100
0010
1000
0010
0100
0001
,
1000
0100
1000
0000
0001
0100
0001
0000
,
1001
0000
0000
0000
;

//--------------- dance-single - DJSuperNOVA ----------------
#NOTES:
     dance-single:
     DJSuperNOVA:
     Hard:
     15:
     0,0,0,0,0:
0000
0000
0000
0000
,
1000
0000
0000
0001
0000
0000
0000
0000
,
0000
0000
0220
0000
0000
0000
0000
0330
,
1000
0001
0000
0001
0000
0001
0000
0001
,
0100
0010
0000
0010
0000
0010
0000
0010
,
1000
0100
0000
0100
0000
0100
0000
0100
,
0001
1000
0000
1000
0010
0010
0100
0000
,
1000
0000
0010
0000
0100
0001
0000
0010
0001
0000
0100
0001
0000
1000
0001
0000
,
0100
0000
0010
0000
1000
0010
0000
0100
0010
0000
1000
0010
0000
0100
0010
0000
,
2000
0000
0001
0000
0000
0010
0000
0000
0100
0000
0000
0010
0000
0000
3001
0000
,
1001
0000
1000
0000
0100
0010
0000
0001
0100
0000
0010
1000
0000
0010
0200
0000
,
0000
0301
0101
0010
0100
1000
0100
1200
,
0000
0310
0001
0100
0010
1000
0010
0210
,
0000
0301
1000
0001
0100
0001
0010
0012
,
0000
1003
0010
1000
0100
0001
0100
0210
,
0010
0000
0301
0100
0001
0000
1000
0100
1000
0000
0001
0100
0001
0000
0102
0000
,
0000
0000
1003
0010
1000
0000
0001
0010
0001
0000
1000
0010
1000
0000
1020
0000
,
0000
0000
0130
0010
1000
0000
0010
0100
0001
0000
0100
0010
1000
0000
2010
0000
,
0000
0000
3100
0010
0001
0000
0001
0100
0010
0000
0010
0000
1000
0000
0100
0000
,
0110
0001
0010
0100
0110
0100
1000
0100
,
2002
0000
0000
3003
,
1100
1001
1100
1001
,
0100
0000
0010
0000
0001
0000
0100
0001
0000
0100
0001
0000
0100
0000
0010
0000
,
0110
0101
0110
0101
,
0010
0000
0100
0000
0010
0000
0100
0010
0000
0100
0010
0000
1000
0000
0100
0000
,
0010
0001
0010
0001
0100
0010
0100
0010
,
1000
0100
1000
0100
0010
1000
0010
1000
,
0001
0100
0001
0100
0010
0100
0010
0100
,
0001
0010
0100
1000
0010
0100
0001
0010
,
1100
1001
0101
1001
,
1000
0000
0100
0000
0001
0000
0100
0001
0000
0100
0001
0000
0100
0000
1000
0000
,
0011
1001
1010
1001
,
0001
0000
0010
0000
1000
0000
0010
1000
0000
0010
1000
0000
0100
0000
0001
0000
,
1000
0010
0001
0010
1000
0010
0001
0010
,
1000
0100
0001
0100
1000
0100
0001
0100
,
0020
1000
0001
1030
,
0100
0000
0010
0000
0001
0000
1000
0100
0000
0010
0001
0000
2002
0000
3003
0000
,
1000
0001
1001
0100
0010
0100
0010
0001
,
0000
0100
0110
0001
0010
0100
1100
0100
,
0000
0100
0101
0100
1000
0100
0110
0001
,
0000
0001
0110
0010
1000
0100
0110
0010
,
1001
0100
0110
0010
0100
0001
0101
0100
,
0000
0100
1100
1000
0100
0010
0110
0001
,
0000
0100
1100
1000
0010
1000
0110
0010
,
0000
0100
0001
0100
0001
0010
0100
1000
,
1001
1000
0100
0010
1001
0001
0010
0100
,
1000
0000
0010
0000
0100
0001
0000
0010
0001
0000
0100
0010
0000
1000
0100
0000
,
0001
0000
0100
0000
0010
1000
0000
0001
0100
0000
0010
0100
0000
0001
1000
0000
,
0100
0000
0001
0000
1000
0010
0000
0100
0010
0000
1000
0001
0000
0100
0010
0000
,
1000
0000
0100
0000
0010
0001
0000
0100
0001
0000
0010
0001
0000
1000
0100
0000
,
1000
0000
0001
0000
0100
0010
0000
0100
1000
0000
0100
0010
0000
0100
0001
0000
,
0010
0000
1000
0000
0010
0001
0000
0010
1000
0000
0010
0001
0000
0010
1000
0000
,
0100
0000
0001
0000
1000
0100
0000
0001
0010
0000
1000
0010
0000
0001
0100
0000
,
1000
0000
0001
0000
1000
0001
0000
0100
0010
0000
0100
1000
0000
0010
0001
0000
,
1000
0000
0100
0000
1000
0010
0000
1000
0001
0000
1000
0010
0000
1000
0100
0000
,
2000
3200
0320
0000
0000
0001
1000
0100
,
0031
0000
0001
0000
1000
0000
0001
0010
0100
1000
0001
0000
1000
0000
0100
0000
,
0002
0203
0320
0000
0000
1000
0001
0100
,
1030
0000
0001
0000
0100
0000
0001
0100
0010
1000
0001
0000
1000
0000
0100
0010
,
2000
3200
0320
0000
0000
0001
1000
0001
,
0130
0000
0100
0000
0001
0000
0100
0010
1000
0001
0100
0000
0010
0000
0100
0000
,
0002
0203
0320
0000
0000
0001
0100
0001
,
1030
0000
0100
0000
0010
0000
1000
0010
0100
0001
1000
0000
0001
0000
1000
0000
,
0110
1001
0110
1001
,
0220
0330
0000
0000
0110
0000
0100
0000
0010
0000
1000
0000
0001
0000
0010
0000
,
0000
0001
0100
0010
0100
0001
1000
0100
,
0000
0010
0011
0010
1000
0100
1100
0010
,
0000
0100
0001
0101
0100
1000
1100
0010
,
0220
0330
0000
0000
1001
0000
0100
0000
0001
0000
1000
0000
0010
0000
0001
0000
,
0000
0100
1000
0001
0010
1000
0010
0100
,
0000
0001
0101
0010
0100
1000
1100
0100
,
0000
0100
0001
0100
0110
0010
1000
0010
,
0110
0010
1000
0001
1001
1000
0010
0100
,
0120
0000
0000
0100
0000
0000
0100
0000
0100
0000
0000
0100
0000
0000
0230
0000
,
0000
0301
0101
0010
0100
1000
0100
1200
,
0000
0310
0001
0100
0010
1000
0010
0210
,
0000
0301
1000
0001
0100
0001
0010
0012
,
0000
0000
1003
0000
0010
0100
1000
0000
0100
0000
0001
0010
0100
0000
0210
0000
,
0010
0000
0301
0100
0001
0000
1000
0100
1000
0000
0001
0100
0001
0000
0102
0000
,
0000
0000
1003
0010
1000
0000
0001
0010
0001
0000
1000
0010
1000
0000
1020
0000
,
0000
0000
0130
0010
1000
0000
0010
0100
0001
0000
0100
0010
1000
0000
2010
0000
,
0000
0000
3100
0010
0001
0000
0001
0100
0010
0000
0010
0001
0100
0010
1000
0000
,
0110
0001
0010
0100
0110
0100
0001
1000
,
0110
0000
0000
0000
;
