#TITLE:날아라 까치야;
#SUBTITLE:;
#ARTIST:BeautifulDay;
#TITLETRANSLIT:Fly Magpie!;
#SUBTITLETRANSLIT:;
#ARTISTTRANSLIT:BeautifulDay;
#GENRE:;
#CREDIT:DJSuperNOVA;
#MUSIC:Fly Magpie.ogg;
#BANNER:Fly Magpie.png;
#BACKGROUND:Fly Magpie-bg.png;
#CDTITLE:;
#SAMPLESTART:18.952;
#SAMPLELENGTH:14.769;
#SELECTABLE:YES;
#OFFSET:1.817;
#BPMS:0.000=130.000
,138.000=141.000
,139.000=160.000
,192.000=130.000
;
#STOPS:;
#BGCHANGES:;
#FGCHANGES:;

//--------------- dance-single - DJSuperNOVA ----------------
#NOTES:
     dance-single:
     DJSuperNOVA:
     Beginner:
     3:
     0,0,0,0,0:
0000
0000
0000
0000
,
0100
0000
0000
0000
,
0010
0000
0000
0000
,
0001
0000
0000
0000
,
1000
0000
0000
0000
,
1001
0000
0000
0000
,
0010
0000
0000
0000
,
0001
0000
0000
0001
0000
0000
0000
0000
,
1000
0000
0000
1000
0000
0000
0000
0000
,
0000
0000
0000
0000
1000
0000
0000
1000
0000
0000
1000
0000
0000
0000
0000
0000
,
0000
0000
0000
0000
0001
0000
0000
0001
0000
0000
0002
0000
0000
0000
0000
0000
,
0003
0100
0000
0100
,
0000
0010
0000
0010
,
0000
1000
0000
0001
,
0000
0200
0000
0000
,
0300
0010
0000
0001
,
0000
0100
0000
1000
,
0000
0110
0000
1001
,
0000
2002
0000
0000
,
3003
0000
0100
0000
0000
0100
0000
0000
,
0000
0000
0001
0000
0000
0001
0000
0000
,
0000
0000
1000
0000
0000
1000
0000
0000
,
0000
0000
0010
0000
0000
0010
0000
0000
,
0000
0000
1000
0000
0000
1000
0000
0000
,
0000
0000
0001
0000
0000
0001
0000
0000
,
0000
0000
1000
0000
0000
1000
0000
0000
,
0000
0110
0000
0000
,
0010
1001
0000
0000
,
0000
0000
1000
0000
0000
0020
0000
0000
,
0030
0000
0000
0000
,
0000
0000
0000
0000
,
0000
0000
0000
0000
,
0000
0000
0000
0000
,
0000
0000
0000
0000
,
0000
0000
0000
0000
,
0000
0000
0000
0000
,
0100
0000
0100
0000
,
0001
0000
0001
0000
,
0010
0000
0010
0000
,
1000
0000
1000
0000
,
0010
0000
0000
1001
,
0000
0100
0000
1001
,
0010
0000
0010
0000
,
1000
1000
0001
0001
,
0100
0000
0001
0000
,
1000
0000
0010
0010
,
1000
0000
0001
0000
,
0010
0000
1000
1000
,
0010
0000
0000
0020
0000
0000
0030
0000
,
0100
0000
0000
0200
0000
0000
0300
0000
,
0001
0000
0000
0002
0000
0000
0003
0000
,
1000
1000
0001
0001
,
1001
0000
0000
0000
,
1001
0000
0010
0010
,
0100
0000
0100
0000
,
0001
0000
0000
0002
0000
0000
0003
0000
,
1000
0000
1000
0000
,
0010
0000
0010
0000
,
1000
0000
1000
0000
,
0001
0001
1000
1000
,
0010
0000
0010
0000
,
0100
0000
0100
0000
,
1000
0000
0000
0000
,
0001
0000
0000
0000
,
1001
0000
2002
0000
,
3003
0000
0000
0000
;

//--------------- dance-single - DJSuperNOVA ----------------
#NOTES:
     dance-single:
     DJSuperNOVA:
     Easy:
     5:
     0,0,0,0,0:
0000
0000
0000
0000
,
0100
0000
0000
0100
0000
0000
0100
0000
0000
0000
0000
0000
0001
0000
0000
0000
,
0010
0000
0000
0010
0000
0000
0010
0000
0000
0000
0000
0000
0100
0000
0000
0000
,
0001
0000
0000
0100
0000
0000
0010
0000
0000
0000
0000
0000
0010
0000
0000
0000
,
1000
0000
0000
1000
0000
0000
2000
0000
0000
0000
3000
0000
0000
0000
0000
0000
,
0010
0000
0000
0010
0000
0000
0100
0000
0000
0000
0000
0000
0100
0000
0000
0000
,
0010
0000
0000
0010
0000
0000
0010
0000
0000
0000
0000
0000
1000
0000
0000
0000
,
0001
0000
0000
0001
0000
0000
0001
0000
0000
0000
0000
0000
0010
0000
0000
0000
,
1000
0000
0000
1000
0000
0000
1000
0000
0000
0000
0100
0000
0010
0000
0000
0000
,
0000
0000
0000
0000
0001
0000
0000
1000
0000
0000
0001
0000
0000
0000
0000
0000
,
0000
0000
0000
0000
1000
0000
0000
0100
0000
0000
0002
0000
0000
0000
0000
0000
,
0003
0000
0100
0000
0000
0010
0100
0000
,
0100
0010
0001
0010
,
0000
1000
0000
0001
,
1000
0200
0000
0000
,
0300
0000
0010
0000
0000
1000
0001
0000
,
0001
0100
0010
1000
,
0000
0110
0001
1001
,
1000
2002
0000
0000
,
3003
0000
0000
0000
0100
0000
0000
0100
0000
0000
0100
0000
0000
0000
0010
0000
,
0010
0000
0000
0000
0001
0000
0000
0001
0000
0000
0001
0000
0000
0000
1000
0000
,
1000
0000
0000
0000
1000
0000
0000
1000
0000
0000
1000
0000
0000
0000
0010
0000
,
0010
0000
0000
0000
0010
0000
0000
0010
0000
0000
0010
0000
0000
0000
0100
0000
,
0100
0000
0000
0000
1000
0000
0000
0100
0000
0000
1000
0000
0000
0000
0010
0000
,
0010
0000
0000
0000
0001
0000
0000
0100
0000
0000
0001
0000
0000
0000
0010
0000
,
0010
0000
0000
0000
1000
0000
0000
0100
0000
0000
1000
0000
0000
0000
0001
0000
,
0001
0000
0000
0000
1000
0000
0000
0100
0000
0000
0010
0000
0000
0001
0000
0000
,
0010
0000
0000
0000
1000
0000
0000
0001
0000
0000
1000
0000
0000
0000
0000
0000
,
0000
0000
0000
0000
0001
0000
0000
1000
0000
0000
0020
0000
0000
0000
0000
0000
,
0030
0000
0000
0000
,
0000
0000
0000
0000
,
0000
0000
0000
0000
,
0000
0000
0000
0000
,
0000
0000
0000
0000
,
0000
0000
0000
0000
,
0000
0000
0000
0000
0000
0000
0000
0000
0000
0000
0000
0000
0000
0000
0000
0000
0000
0000
0000
0000
0000
0000
0000
0000
0000
0100
0000
0000
0000
0000
0000
0000
0100
0000
0000
0000
0000
0000
0000
0000
0000
0000
0000
0000
0000
0000
0000
0000
0100
0000
0000
0000
0000
0000
0000
0000
0000
0000
0000
0000
0000
0000
0000
0000
,
1001
0100
0001
0100
,
0000
0010
0001
1000
,
0000
1000
0010
0001
,
0010
1000
0100
0001
,
0000
1000
0001
1001
,
0000
0001
1000
1001
,
0010
0000
0010
0000
,
1000
1000
0001
0001
,
1000
0100
0001
0100
,
1000
0100
0010
0010
,
1000
0010
0001
0010
,
1000
0010
0001
0001
,
0010
0000
0000
0000
0000
0010
0000
0000
0000
0000
0000
0000
0020
0000
0000
0000
0000
0000
0000
0000
0000
0000
0000
0000
0030
0000
0000
0000
0000
0000
0000
0000
,
0100
0000
0000
0100
0000
0000
0200
0000
0000
0000
0000
0000
0300
0000
0000
0000
,
0001
0000
0000
0001
0000
0000
0002
0000
0000
0000
0000
0000
0003
0000
0000
0000
,
1000
1000
0001
0001
,
1001
0000
0000
0000
,
1001
0000
0010
0010
,
0100
0010
0001
1000
,
0001
0000
0000
1000
0000
0000
0002
0000
0000
0000
0000
0000
0003
0000
0000
0000
,
1000
0000
1000
0001
,
0010
0010
0010
0000
,
1000
0001
0010
0100
,
1000
0001
1000
0001
,
1001
0000
0110
0000
,
0001
0000
0000
1000
0000
0000
0001
0000
0100
0000
0000
0000
0000
0000
0000
0000
,
1000
0000
0000
1000
0000
0000
1000
0000
0000
0000
0001
0000
0001
0000
0000
0000
,
0100
0000
0000
0100
0000
0000
0100
0000
0000
0000
0000
0000
0010
0000
0010
0000
,
0010
0000
2002
0000
,
3003
0000
0000
0000
;

//--------------- dance-single - DJSuperNOVA ----------------
#NOTES:
     dance-single:
     DJSuperNOVA:
     Medium:
     9:
     0,0,0,0,0:
0000
0000
0000
0000
,
0100
0000
0000
0010
0000
0000
0001
0000
0000
0000
0001
0000
0200
0000
0000
0000
,
1300
0000
0000
1000
0000
0000
1000
0000
0000
0000
0100
0000
2000
0000
0000
0000
,
3001
0000
0000
0100
0000
0000
1000
0000
0000
0000
1000
0000
0002
0000
0000
0000
,
0013
0000
0000
0010
0000
0000
0010
0000
0000
0000
0000
0000
1000
0000
0100
0000
,
0001
0000
0000
0001
0000
0000
0100
0000
0000
0000
0010
0000
0010
1000
0000
0000
,
0100
0000
0000
0100
0000
0000
0020
0000
0000
0000
1030
0000
0100
0010
0000
0000
,
0001
0000
0000
0001
0000
0000
0010
0000
0000
0000
0010
0000
0001
1000
0000
0000
,
0100
0000
0000
0100
0000
0000
0020
0000
0000
0000
1030
0000
1000
0001
0000
0000
,
0000
0000
0000
0000
1001
0000
0000
1001
0000
0000
1001
0000
0000
0000
0000
0000
,
0000
0000
0000
0000
0110
0000
0000
0110
0000
0000
2002
0000
0000
0000
0000
0000
,
3003
0000
0000
0000
2000
0000
0000
3000
0100
0000
0100
0000
0010
0000
0000
0000
,
0001
0000
0200
0000
0310
0001
2000
0000
,
3010
0000
0200
0000
0000
0301
0010
0100
,
1000
0010
2000
0000
3010
0001
0100
0001
,
0100
0000
0010
0000
2000
0000
0000
3000
0100
0000
0100
0000
0010
0000
0000
0000
,
0001
0000
0200
0000
0301
0010
0200
0000
,
0300
0101
1010
0011
,
1100
0000
0010
0100
0010
0100
1000
0001
,
1000
0000
0001
0000
0010
0000
0000
0010
0000
0000
0002
0000
0000
0000
1003
0000
,
1000
0000
0000
0000
0001
0000
0000
0100
0000
0000
0002
0000
0000
0000
0103
0000
,
0100
0000
0000
0000
0010
0000
0000
0100
0000
0000
0200
0000
0000
0000
0310
0000
,
0010
0000
0000
0000
0100
0000
0000
0100
0000
0000
0100
0000
0000
0000
0010
0000
,
0001
0000
0000
0000
1000
0000
0001
0010
0000
0001
0200
0000
0000
0000
0310
0000
,
1010
0000
0000
0000
0100
0000
0010
1000
0000
0100
2000
0000
0000
0000
3010
0000
,
0110
0000
0000
0000
1000
0000
0010
0001
0000
1000
0200
0000
0000
0000
0310
0000
,
1010
0000
0000
0000
0001
0000
0000
0100
0000
0000
0010
0000
0000
0100
0000
0000
,
0010
0000
0000
0000
0110
0000
0000
1001
0000
0000
0110
0000
0000
0000
0000
0000
,
0000
0000
0000
0000
1001
0000
0000
0110
0000
0000
2002
0000
0000
0000
0000
0000
,
3003
0000
0000
0000
,
0000
0000
0000
0000
,
0000
0000
0000
0000
,
0000
0000
0000
0000
,
0000
0000
0000
0000
,
0000
0000
0000
0000
,
0000
0000
0000
0000
0000
0000
0000
0000
0000
0000
0000
0000
0000
0000
0000
0000
0000
0000
0000
0000
0000
0000
0000
0000
0000
0010
0000
0000
0100
0000
0000
0000
0010
0000
0000
0000
0000
0000
0000
0000
0000
0000
0000
0000
0000
0000
0000
0000
0110
0000
0000
0000
0000
0000
0000
0000
0000
0000
0000
0000
0000
0000
0000
0000
,
1000
0001
0100
0010
0100
0000
1010
0000
,
0100
0001
0010
1000
0100
0001
0100
0000
,
0001
0010
0100
1000
0100
0010
0001
0200
,
0000
0301
0100
0001
0100
0100
0010
0000
,
1000
0100
0010
0001
1000
0000
1001
0000
,
0001
0010
0100
1000
0001
1000
0001
1000
,
0110
1001
1010
1001
,
0001
0100
0010
1000
0001
0100
0010
1000
,
0000
0100
0010
0000
0100
1000
0000
0010
,
0000
0010
0001
0100
1010
0000
1010
0000
,
0000
0001
1000
0000
1000
0010
0000
0001
,
0000
0001
0100
0001
0101
0000
0101
0000
,
0100
0000
0000
0000
0000
0010
0000
0000
0000
0000
0000
0000
2020
0000
0000
0000
0000
0000
0000
0000
3030
0000
0000
0000
1010
0000
0000
0000
0000
0000
0000
0000
,
0001
0000
0000
0100
0000
0000
2002
0000
0000
0000
3003
0000
1001
0000
0000
0000
,
1000
0000
0000
0010
0000
0000
2002
0000
0000
0000
3003
0000
0100
0010
0000
0000
,
0101
1010
0011
1100
,
1010
0010
0100
0010
0000
0100
0010
0001
,
0101
0100
0011
0101
,
1000
0010
1000
0010
1000
0001
1000
0000
,
0010
0000
0000
0010
0000
0000
0100
0000
0001
0000
0001
0000
0001
0000
0001
0000
,
1000
0000
0000
1000
0001
0000
0100
0000
0000
0000
0100
0000
0010
0000
0000
0000
,
1000
0000
0001
0010
0200
0000
0300
0000
,
1100
1010
0110
0101
,
1000
0100
1000
0100
0010
0001
0010
0001
,
1000
1000
0000
0000
0001
0001
0000
0000
,
0001
0000
0000
1000
0000
0000
0010
0000
1001
0000
0000
0000
0110
0000
0000
0000
,
0001
0000
0000
0100
0000
0000
1000
0000
0000
0000
0100
0000
0100
0010
0000
0000
,
0100
0000
0000
0010
0000
0000
0101
0000
0000
0000
0000
0000
0100
0010
0100
0010
,
0100
0000
0000
0000
2002
0000
0000
3003
,
0110
0000
0000
0000
;

//--------------- dance-single - DJSuperNOVA ----------------
#NOTES:
     dance-single:
     DJSuperNOVA:
     Hard:
     11:
     0,0,0,0,0:
0000
0000
0000
0000
,
0100
0000
0000
0010
0000
0000
0001
0000
0000
0000
0001
0000
0100
0020
0000
0000
,
1030
0000
0000
1000
0000
0000
1000
0000
0000
0000
0100
0000
1000
0020
0000
0000
,
0031
0000
0000
0100
0000
0000
1000
0000
0000
0000
1000
0000
0001
0200
0000
0000
,
0310
0000
0000
0010
0000
0000
0020
0000
0000
0000
0030
0000
1000
0000
0100
0000
,
0001
0000
0000
0001
0000
0000
0100
0000
0000
0000
0010
0000
0010
1000
0000
0000
,
0100
0000
0000
0100
0000
0000
0020
0000
0000
0000
1030
0000
0100
0010
0000
0000
,
0001
0000
0000
0001
0000
0000
0010
0000
0000
0000
0010
0000
0001
1000
0000
0000
,
0100
0000
0000
0100
0000
0000
0020
0000
0000
0000
1030
0000
1000
0001
0000
0000
,
0000
0000
0000
0000
1001
0000
0000
0110
0000
0000
1001
0000
0000
0000
0000
0000
,
0000
0000
0000
0000
1001
0000
0000
0110
0000
0000
2002
0000
0000
0000
0000
0000
,
3003
0000
0000
0000
2000
0000
0000
3000
0100
0000
0100
0000
0010
0000
0000
0000
,
0001
0000
0200
0000
0310
0001
2000
3100
,
0010
0001
0200
0000
0000
0301
0010
0100
,
1000
0010
1000
0100
0010
0001
0100
0001
,
0100
0000
0010
0000
2000
0000
0000
3000
0100
0000
0100
0000
0010
0000
0000
0000
,
0001
0000
0200
0000
0301
0010
0200
0000
,
0300
0101
1010
0011
,
1100
0000
0010
0010
0010
0010
0100
0100
,
0100
0000
0100
0000
0001
0000
1000
0001
0000
1000
0002
0000
0000
0000
0013
0000
,
1010
0000
0000
0000
0001
0000
0100
0001
0000
0100
0002
0000
0000
0000
0103
0000
,
0101
0000
0000
0000
0010
0000
1000
0100
0000
1000
0200
0000
0000
0000
0310
0000
,
0110
0000
0000
0000
0100
0000
0001
0100
0000
0001
0100
0000
1000
0000
0010
0000
,
0001
0000
0010
0000
1000
0000
0001
0010
0000
0001
0100
0000
1000
0000
0010
0000
,
1010
0000
0000
0000
0100
0000
0010
1000
0000
0100
1000
0000
0100
0000
0001
0000
,
0110
0000
0000
0000
1000
0000
0010
0001
0000
1000
0100
0000
0001
0000
1000
0000
,
1010
0000
0000
0000
1000
0000
0000
0100
0000
0000
0010
0000
0000
0001
0000
0000
,
1000
0000
0000
0000
0110
0000
0000
1001
0000
0000
0110
0000
0000
0000
0000
0000
,
0000
0000
0000
0000
1001
0000
0000
0110
0000
0000
2002
0000
0000
0000
0000
0000
,
3003
0000
0000
0000
,
0000
0000
0000
0000
,
0000
0000
0000
0000
,
0000
0000
0000
0000
,
0000
0000
0000
0000
,
0000
0000
0000
0000
,
0000
0000
0000
0000
0000
0000
0000
0000
0000
0000
0000
0000
0000
0000
0000
0000
0000
0000
0000
0000
0000
0000
0000
0000
0000
0010
0000
0000
0100
0000
0000
0000
0010
0000
0000
0000
0000
0000
0000
0000
0010
0000
0000
0000
0000
0000
0000
0000
0010
0000
0000
0000
1000
0000
0000
0000
0010
0000
0000
0000
0000
0000
0000
0000
,
1010
1000
0100
0010
0101
0000
1010
0000
,
0100
0001
0010
1000
0100
0001
0100
0001
,
1000
0010
0100
1000
0100
0010
0001
0200
,
0000
0301
0100
0001
0100
0100
0010
0000
,
1000
0100
0010
0001
1000
0000
1001
0000
,
0001
0010
0100
1000
0001
1000
0001
1000
,
0110
1001
1010
1001
,
0001
0100
0010
1000
0001
0100
0010
1000
,
0001
0100
0010
1000
0100
0010
0001
1000
,
0000
1000
0001
0100
0010
1000
0001
0100
,
0000
0001
1000
0000
1000
0100
0010
0001
,
0000
0001
0100
0001
1000
0010
1000
0100
,
1001
0000
0000
0000
0000
0110
0000
0000
0000
0000
0000
0000
2020
0000
0000
0000
0000
0000
0030
0000
3100
0000
0000
0000
0001
0000
0000
0000
0000
0000
0000
0000
,
0101
0000
0000
0110
0000
0000
2002
0000
3000
0000
1003
0000
0100
0000
0000
0000
,
1001
0000
0000
0110
0000
0000
2002
0000
0000
0000
3003
0000
0100
0010
0000
0000
,
0101
1010
0011
1100
,
1001
1000
0100
0010
0000
0100
0010
0001
,
1010
0000
0100
1000
0011
0000
0101
0000
,
1000
0010
1000
0010
1000
0100
1000
0100
,
0010
0000
0000
0010
0000
0000
0020
0000
0001
0000
0001
0000
0001
0000
0031
0000
,
1000
0000
0001
1000
0001
0000
0100
0000
0000
0000
0100
0000
0010
0000
0000
0000
,
1000
0000
0001
0010
0200
0000
0300
0000
,
1100
1010
0110
0101
,
1000
0100
1000
0100
0010
0001
0010
0001
,
1000
1010
0000
0000
0001
0101
0000
0000
,
0011
0000
0000
1100
0000
0000
0010
0000
1001
0000
0000
0000
0110
0000
0000
0000
,
0101
0000
0000
1000
0000
0000
1010
0000
0000
0000
0100
0000
0100
0010
0000
0000
,
0110
0000
0000
0001
0000
0000
0101
0000
0000
0000
0000
0000
0100
0010
0001
0100
,
0001
0000
0000
0000
2002
0000
0000
3003
,
0110
0000
0000
0000
;
