#TITLE:Feel The O2Jam;
#SUBTITLE:;
#ARTIST:BeautifulDay;
#TITLETRANSLIT:;
#SUBTITLETRANSLIT:;
#ARTISTTRANSLIT:;
#GENRE:;
#CREDIT:DJSuperNOVA;
#MUSIC:Feel The O2Jam.ogg;
#BANNER:Feel The O2Jam.png;
#BACKGROUND:Feel The O2Jam-bg.png;
#CDTITLE:;
#SAMPLESTART:60.967;
#SAMPLELENGTH:13.714;
#SELECTABLE:YES;
#OFFSET:-0.110;
#BPMS:0.000=140.000;
#STOPS:;
#BGCHANGES:;
#FGCHANGES:;

//--------------- dance-single - DJSuperNOVA ----------------
#NOTES:
     dance-single:
     DJSuperNOVA:
     Beginner:
     2:
     0,0,0,0,0:
0000
0000
0000
0000
,
0000
0000
0000
0000
,
0000
0000
0000
0000
,
0000
0000
0000
0000
,
0100
0000
0000
0000
0100
0000
0000
0100
,
0000
0000
0000
0000
,
0010
0000
0000
0000
0010
0000
0000
0010
,
0000
0000
0000
0000
,
1000
0000
0000
0000
1000
0000
0000
1000
,
0000
0000
0000
0000
,
0001
0000
0000
0000
0001
0000
0000
0001
,
0000
0000
0000
0000
,
1000
0000
0000
0000
,
0001
0000
0000
0000
,
1000
0000
0000
0000
,
0001
0000
0000
0000
,
0100
0000
0000
0000
,
0010
0000
0000
0000
,
0100
0000
0000
0000
,
0010
0000
0000
0000
,
1000
0000
1000
0000
,
1000
0000
0000
0000
,
0001
0000
0001
0000
,
0001
0000
0000
0000
,
1000
0000
1000
0000
,
1000
0000
0000
0000
,
0001
0000
0001
0000
,
0001
0000
0000
0000
,
1001
0000
0000
0000
,
0100
0000
0100
0000
,
0010
0000
0000
0000
,
0010
0000
0010
0000
,
0100
0000
0000
0000
,
0001
0000
0001
0000
,
1000
0000
0000
0000
,
1001
0000
0000
0000
,
1000
0000
0001
0000
,
1000
0000
0010
0000
,
1000
0000
0001
0000
,
0100
0000
0001
0000
,
1000
0000
0001
0000
,
1000
0000
0001
0000
,
0010
0000
0100
0000
,
1001
0000
0000
0000
,
0001
0000
0000
0000
,
1000
0000
0000
0000
,
0001
0000
0000
0000
,
1000
0000
0000
0000
,
0010
0010
0010
0000
,
0100
0100
0100
0000
,
0001
0001
0001
0000
,
1000
0000
0001
0000
,
1001
0000
0000
0000
,
0001
0000
1000
0000
,
0001
0000
0000
0000
,
1000
0000
0001
0000
,
1000
0000
0000
0000
,
0010
0000
0100
0000
,
0010
0000
0000
0000
,
1001
0000
0000
0000
,
1000
0000
0001
0000
,
1000
0000
0100
0000
,
1000
0000
0001
0000
,
0100
0000
0001
0000
,
1000
0000
0100
0000
,
1000
0000
0001
0000
,
0100
0000
0010
0000
,
0100
0000
0001
0000
,
1000
0000
0001
0000
,
1000
1000
1000
0000
,
0001
0001
0001
0000
,
0100
0100
0100
0000
,
0010
0010
0010
0000
,
1000
0000
0001
0000
,
1000
0000
0001
0000
,
0100
0000
0010
0010
,
0010
0000
0000
0000
;

//--------------- dance-single - DJSuperNOVA ----------------
#NOTES:
     dance-single:
     DJSuperNOVA:
     Easy:
     6:
     0,0,0,0,0:
0000
0000
0000
0000
,
0000
0000
0000
0000
,
0000
0000
0000
0000
,
0000
0000
0000
0000
,
0100
0000
0000
0000
0100
0000
0000
0100
,
0000
0000
0000
0000
,
0010
0000
0000
0000
0010
0000
0000
0010
,
0000
0000
0000
0000
,
1000
0000
0000
0000
1000
0000
0000
1000
,
0000
0000
0000
0000
,
0001
0000
0000
0000
0001
0000
0000
0001
,
0000
0000
0000
0000
,
1000
1000
0001
0001
,
1001
0000
0000
0000
,
0010
0010
0100
0100
,
0110
0000
0000
0000
,
1000
0100
1000
0100
,
1100
0000
0000
0000
,
0001
0100
0001
0100
,
0101
0000
0000
0000
,
1000
0000
0100
0000
,
0001
0000
0100
0000
,
1000
0000
0100
0000
,
1000
0000
0100
0000
,
0010
0000
0001
0000
,
0010
0000
1000
0000
,
0010
0000
0001
0000
,
0010
0000
0001
0000
,
1001
0100
0001
0001
,
1000
1000
0001
0001
,
1001
0100
1000
0100
,
0001
0010
0100
1000
,
1001
0010
0100
1000
,
0100
0100
0001
0001
,
1000
0100
0010
0001
,
1001
0000
0000
0000
,
1000
1000
0001
0001
,
1000
0001
1000
0001
,
0100
0100
0010
0010
,
0100
0010
0100
0010
,
0001
0010
0001
0010
,
0100
1000
0100
1000
,
0010
0010
0100
0100
,
1001
0000
0000
0000
,
0020
0000
0000
0130
,
2000
0000
0000
3001
,
2000
0000
0000
3001
,
0200
0000
0000
0310
,
0010
0010
0100
0100
,
0001
1000
0001
1000
,
0100
0100
0010
0010
,
0001
1000
0001
1000
,
1001
0100
0001
0100
,
0001
0001
1000
1000
,
1001
0010
0100
1000
,
0001
0100
0001
0100
,
1001
0100
1000
0100
,
0010
0010
0010
0010
,
1000
0100
0010
0001
,
1001
0010
0010
0100
,
1001
0100
1000
1000
,
0001
0001
0100
0010
,
1001
0010
0100
1000
,
1000
0100
0010
0010
,
0101
0010
0100
1000
,
1100
0100
0010
0001
,
1001
0010
0110
0100
,
1001
0000
0100
0010
,
1001
0000
0110
0000
,
1000
1000
0001
0001
,
1000
0100
1000
0100
,
1000
1000
0001
0001
,
0010
0001
0010
0001
,
0100
0100
0010
0010
,
1000
0001
1000
0001
,
0010
0010
0100
0100
,
2002
0000
0000
0000
,
3003
0000
0000
0000
;

//--------------- dance-single - DJSuperNOVA ----------------
#NOTES:
     dance-single:
     DJSuperNOVA:
     Medium:
     8:
     0,0,0,0,0:
0000
0000
0000
0000
,
0000
0000
0000
0000
,
0000
0000
0000
0000
,
0000
0000
0000
0000
,
1000
0000
0000
0000
1000
0000
0000
0000
0001
0000
0000
0001
0000
0000
0001
0000
,
0000
0000
0000
0000
,
0100
0000
0000
0000
0100
0000
0000
0000
0001
0000
0000
0001
0000
0000
0001
0000
,
0000
0000
0000
0000
,
0100
0000
0000
0000
0100
0000
0000
0000
1000
0000
0000
1000
0000
0000
1000
0000
,
0000
0000
0000
0000
,
0001
0000
0000
0000
0001
0000
0000
0000
1000
0000
0000
1000
0000
0000
1000
0000
,
0000
0000
0000
0000
,
1000
0100
1000
0100
,
0010
0000
0000
0000
0010
0000
0000
0000
0001
0000
0000
0001
0000
0000
0001
0000
,
0100
0100
0010
0010
,
0100
0000
0000
0000
1000
0000
0000
0000
0100
0000
0000
1000
0000
0000
0100
0000
,
0001
0001
0100
0100
,
0010
0000
0000
0000
1000
0000
0000
0000
0100
0000
0000
0001
0000
0000
0100
0000
,
0010
0000
0000
0000
0010
0000
0000
0000
1000
0000
0000
0001
0000
0000
1000
0000
,
0000
0000
0000
0000
,
1000
0100
1000
0100
,
0001
0100
0001
0100
,
1000
0010
1000
0010
,
0001
0010
0001
0010
,
1001
0100
1000
0100
,
0001
0100
1000
0100
,
0010
0001
0010
1000
,
0010
0001
0100
1000
,
1001
0000
0000
0000
0200
0000
0000
0000
0301
0000
0000
0001
0000
0000
0001
0000
,
0000
1000
0000
0000
1000
0000
1000
0000
0000
0100
0000
0000
0001
0000
0001
0000
,
1000
0000
0000
0000
0100
0000
0000
0000
0001
0000
0000
0001
0000
0000
0001
0000
,
0000
1000
0000
0000
1000
0000
1000
0000
0000
0100
0000
0000
0001
0000
0100
0000
,
2000
0000
0000
0000
3100
0000
0000
0000
0020
0000
0000
1000
0000
0000
1000
0000
,
0030
0001
0000
0000
0001
0000
0001
0000
0000
0100
0000
0000
1000
0000
1000
0000
,
0001
0000
0010
0100
0000
1000
0000
1001
,
0000
0000
0000
0000
,
1001
0100
1010
0100
,
0001
0100
1000
0010
,
1001
0100
0011
0100
,
0001
0010
1000
0010
,
1001
0010
1001
0100
,
0010
0100
0001
1000
,
0101
0000
1100
0000
1010
0000
0001
2000
,
0002
0000
0000
3003
,
0010
0000
0000
0010
0000
0000
0010
0000
0000
0000
1000
0000
0001
0000
0000
0000
,
0100
0000
0000
0100
0000
0000
0100
0000
0000
0000
0001
0000
1000
0000
0000
0000
,
0001
0000
0000
0001
0000
0000
0001
0000
0000
0000
1000
0000
0100
0000
0000
0000
,
1000
0000
0000
1000
0000
0000
1000
0000
0000
0000
0100
0000
0001
0000
0000
0000
,
0010
0000
0000
0100
0000
0000
0010
0000
0000
0000
1000
0000
0001
0000
0000
0000
,
0010
0000
0000
0100
0000
0000
0010
0000
0000
0000
0001
0000
1000
0000
0000
0000
,
0001
0000
0000
0100
0000
0000
1000
0000
0000
0000
0001
0000
1000
0000
0000
0000
,
0010
0001
0100
1000
,
0110
0000
0000
0000
0200
0000
0000
0000
0301
0000
0000
0001
0000
0000
0001
0000
,
0000
1000
0000
0000
1000
0000
1000
0000
0000
0100
0000
0000
0001
0000
0001
0000
,
1000
0000
0000
0000
0100
0000
0000
0000
0001
0000
0000
0001
0000
0000
0001
0000
,
0000
1000
0000
0000
1000
0000
1000
0000
0000
0100
0000
0000
0001
0000
0100
0000
,
2000
0000
0000
0000
3100
0000
0000
0000
0020
0000
0000
1000
0000
0000
1030
0000
,
0000
0001
0000
0000
0001
0000
0001
0000
0000
0100
0000
0000
1000
0000
1000
0000
,
0001
0000
0010
0100
0000
1000
0000
0001
,
1000
0001
1000
0001
1000
0010
0100
0000
,
1001
0100
1010
0100
,
0001
0100
1000
0100
,
0011
0100
1001
0100
,
0001
0010
0100
1000
,
0101
0100
1100
0010
,
0001
0100
1000
0001
,
1001
0000
0100
0000
1001
0000
1000
0001
,
0000
0000
0000
0000
0010
0100
0010
0000
,
1001
0100
0110
0000
,
1000
0100
0000
0100
0000
0000
0100
0000
0010
0000
0000
0010
0000
0000
0001
0000
,
0000
0000
0000
0000
,
0001
0100
0000
0100
0000
0000
0100
0000
0010
0000
0000
0010
0000
0000
1000
0000
,
0000
0000
0000
0000
,
0010
0100
0000
0100
0000
0000
0010
0000
1000
0000
0000
0001
0000
0000
1000
0000
,
0000
0000
0000
0000
,
0100
0010
0000
0010
0000
0000
0100
0000
0010
0000
0000
1000
0000
0000
0001
0000
,
2002
0000
0000
0000
,
3003
0000
0000
0000
;

//--------------- dance-single - DJSuperNOVA ----------------
#NOTES:
     dance-single:
     DJSuperNOVA:
     Hard:
     11:
     0,0,0,0,0:
0000
0000
0000
0000
,
0000
0000
0000
0000
,
0000
0000
0000
0000
,
0000
0000
0000
0000
,
0001
0000
0000
0000
1000
0000
0000
0000
0001
0000
0000
0001
0000
0000
1000
0000
,
0000
0000
0000
0000
,
1000
0000
0000
0000
0010
0000
0000
0000
1000
0000
0000
1000
0000
0000
0010
0000
,
0000
0000
0000
0000
,
0100
0000
0000
0000
0010
0000
0000
0000
0100
0000
0000
0100
0000
0000
0001
0000
,
0000
0000
0000
0000
,
0010
0000
0000
0000
1000
0000
0000
0000
0010
0000
0000
0010
0000
0000
0100
0000
,
0010
0000
0000
0000
,
1001
0000
0000
0000
1100
0000
0000
0000
0010
0000
0000
0010
0000
0000
0010
0000
,
0002
0000
0000
0000
2003
0000
0000
0000
3001
0000
0000
0001
0000
0000
1000
0000
,
0001
0000
0000
0000
1100
0000
0000
0000
0100
0000
0000
0100
0000
0000
0001
0000
,
2000
0000
0000
0000
3020
0000
0000
0000
1030
0000
0000
1000
0000
0000
0001
0000
,
0101
0000
0000
0000
1100
0000
0000
0000
0001
0000
0000
0100
0000
0000
0001
0000
,
2000
0000
0000
0000
3002
0000
0000
0000
0103
0000
0000
0100
0000
0000
0010
0000
,
1000
0000
0000
0000
1100
0000
0000
0000
0010
0000
0000
0010
0000
0000
0100
0000
,
0001
0000
1000
0000
0001
0000
1000
0000
0010
0000
0000
0010
0000
0000
0010
0000
,
0110
0000
0000
0000
0001
0000
0000
0000
0100
0000
0000
0000
1000
0000
0000
0100
,
0010
0000
0000
0000
0100
0000
0000
0000
1000
0000
0000
0000
0001
0000
0000
0100
,
0001
0000
0000
0000
0100
0000
0000
0000
1000
0000
0000
0000
0100
0000
0000
0100
,
0001
0000
0000
0000
0100
0000
0000
0000
1000
0000
0000
0000
0010
0000
0000
0100
,
0010
0000
0000
0000
1000
0000
0000
0000
0100
0000
0000
0000
0001
0000
0000
0100
,
0001
0000
0000
0000
0100
0000
0000
0000
1000
0000
0000
0000
0010
0000
0000
1000
,
0010
0000
0000
0000
0001
0000
0000
0000
0010
0000
0000
0000
0100
0000
0000
1000
,
0100
0000
0010
0100
0000
0001
0100
0000
,
1001
0000
0200
0000
0020
0000
0330
0002
,
0000
0013
0100
1000
0100
1000
0010
0100
,
0002
0000
0000
0000
2003
0000
0000
0000
3010
0000
0000
0010
0000
0000
0010
0000
,
0100
0001
0010
0001
0100
0010
0100
0001
,
1001
0000
1010
0000
0200
0000
0000
0310
,
0001
0010
0001
0100
0010
1000
0100
1000
,
0001
0000
1000
0100
0000
0010
0100
0010
,
1001
0000
0000
0000
,
0011
0000
1000
0100
0001
0000
1000
0001
,
0000
0100
0010
0000
0101
0000
0110
0000
,
1001
0000
0001
0100
1000
0000
0001
1000
,
0000
0010
0100
0000
1000
0100
0010
0000
,
1001
0000
0100
0010
1000
0000
0001
0100
,
0000
0001
1000
0000
0010
0100
0010
0000
,
1001
0100
0110
0010
,
2002
0000
0000
3003
,
0020
0000
0000
0001
0000
0000
0001
0000
0000
0000
0130
0000
1000
0000
0100
0000
,
2000
0000
0000
0010
0000
0000
0010
0000
0000
0000
3001
0000
1001
0000
0000
0000
,
0020
0000
0000
1000
0000
0000
1000
0000
0000
0000
0130
0000
0001
0000
0100
0000
,
0002
0000
0000
1000
0000
0000
1000
0000
0000
0000
1003
0000
1001
0000
0000
0010
,
0001
0000
0000
1000
0100
0000
0010
0000
0000
0000
0100
0000
0110
0000
0000
0010
,
0001
0000
0000
0100
0001
0000
0001
0000
0000
0000
1000
0000
1010
0000
0000
1000
,
0001
0000
0000
0100
0001
0000
0001
0000
0000
0000
0100
0000
1001
0000
0000
0000
,
1000
0100
0010
0001
1000
0010
0100
0001
,
1001
0000
0110
0000
1000
0000
0100
0002
,
0000
0013
0100
1000
0100
1000
0010
0100
,
0002
0000
0000
0000
2003
0000
0000
0000
3010
0000
0000
0100
0000
0000
0010
0000
,
1000
0001
0010
0001
0100
0010
0100
0001
,
1001
0000
0110
0000
0001
0000
1000
0100
,
0001
0010
0001
0100
0010
1000
0100
1000
,
0001
0000
1000
0100
0000
0010
0100
0010
,
1000
0001
1000
0001
0100
0010
0100
0010
,
1001
0000
1000
0100
0001
0000
0100
1000
,
0010
0000
0010
0000
0100
0010
0100
0000
,
1001
0000
0001
0100
1000
0000
0001
1000
,
0000
0010
0100
0000
1000
0100
0010
0000
,
1001
0000
0100
0010
1000
0000
0001
0100
,
0000
0001
1000
0000
0010
0100
0010
0000
,
1001
0000
0100
0000
0110
0000
0010
0200
,
0020
0000
0330
0000
1000
0001
1000
0000
,
0011
0000
2100
0000
,
3001
0100
0000
0100
0010
0000
1000
0000
0010
0000
0000
0010
0000
0000
0010
0000
,
1000
0000
0000
0000
0100
0000
0000
0000
0001
0000
0000
0001
0000
0000
0001
0000
,
1000
0100
0000
0100
1000
0000
0100
0000
0010
0000
0000
0010
0000
0000
0010
0000
,
0100
0000
0000
0000
0001
0000
0000
0000
1000
0000
0000
1000
0000
0000
1000
0000
,
0001
0100
0000
0100
0010
0000
1000
0000
0010
0000
0000
0010
0000
0000
0010
0000
,
0100
0000
0000
0000
0001
0000
0000
0000
0100
0000
0000
0100
0000
0000
0100
0000
,
0010
1000
0000
0010
0100
0000
0010
0000
0100
0000
0000
0010
0000
0000
0100
0000
,
2002
0000
0000
0000
,
3003
0000
0000
0000
;

//--------------- dance-single - DJSuperNOVA ----------------
#NOTES:
     dance-single:
     DJSuperNOVA:
     Challenge:
     15:
     0,0,0,0,0:
0000
0000
0000
0000
,
0000
0000
0000
0000
,
0020
0000
0000
0000
,
0000
0000
0000
0000
,
1030
0000
0000
0000
0100
0000
0000
0000
0010
0000
0000
0010
0000
0000
0001
0000
,
0000
0000
0000
0000
,
0001
0000
0000
0000
0100
0000
0000
0000
0010
0000
0000
0010
0000
0000
1000
0000
,
0000
0000
0000
0000
,
0001
0000
0000
0000
1000
0000
0000
0000
0100
0000
0000
0100
0000
0000
0010
0000
,
0000
0000
0000
0000
,
1000
0000
0000
0000
0001
0000
0000
0000
0100
0000
0000
0100
0000
0000
0110
0000
,
0000
0000
0000
0000
,
1010
0000
0000
0000
0101
0000
0000
0000
0011
0000
0000
0100
1000
0000
0001
0000
,
1000
0100
1000
0000
0001
0010
0001
0000
0100
0000
0000
0100
0000
0000
1000
0000
,
0001
0000
0000
0000
0101
0000
0000
0000
1010
0000
0000
0001
0100
0000
0010
0000
,
1000
0010
1000
0000
0001
0100
0001
0000
0010
0000
0000
0010
0000
0000
1000
0000
,
1001
0000
0000
0000
1100
0000
0000
0000
0011
0000
0000
0100
0001
0000
0010
0000
,
0001
0100
0001
0000
0010
1000
0010
0000
1000
0000
0000
1000
0000
0000
0100
0000
,
0001
0000
0000
0000
0101
0000
0000
0000
1100
0000
0000
0010
0001
0000
0100
0000
,
0010
0100
0010
0000
0100
0010
0100
0000
0010
0000
0000
0010
0000
0000
0010
0000
,
1010
0000
0000
1000
0000
0000
1000
0000
0100
0000
0000
0100
0000
0000
0100
0010
,
0100
0000
0000
0010
0000
0000
0010
0000
0001
0000
0000
0001
0000
0000
0001
0100
,
0010
0000
0000
0010
0000
0000
0010
0000
1000
0000
0000
1000
0000
0000
1000
0010
,
0100
0000
0000
0100
0000
0000
0100
0000
1000
0000
0000
1000
0000
0000
1000
0000
,
1001
0000
0000
0010
0000
0000
0001
0000
0100
0000
0000
0010
0000
0000
0100
0010
,
0100
0000
0000
0010
0000
0000
1000
0000
0100
0000
0000
1000
0000
0000
0010
1000
,
0100
0000
0000
0010
0000
0000
0100
0000
0010
0000
0000
0001
0000
0000
0010
0100
,
0010
0000
0000
1000
0000
0000
0010
0000
0100
0000
0000
0001
0000
0000
0100
0000
,
1001
0000
0000
0000
2000
0000
0000
0000
0200
3000
0020
0300
0002
0030
0203
0000
,
0000
0310
0100
0010
1000
0100
1000
0010
,
0110
0000
0000
0000
0101
0000
0000
0000
1000
0000
0000
0100
1000
0000
0010
0000
,
0100
0001
0100
0000
0010
0000
1000
0000
0100
1000
0100
0000
0010
0000
0001
0000
,
1001
0000
0000
0000
0110
0000
0000
0000
1010
0000
0000
0100
0010
0000
0001
0000
,
0000
1000
0010
0100
0010
0000
0010
0000
1000
0010
0000
0100
0010
0000
0100
0000
,
0101
0000
0000
0010
0100
0000
0010
0000
1000
0100
0000
0010
0001
0000
0100
0010
,
0100
0000
0000
0000
,
0011
0000
0000
0000
1000
0000
0100
0000
0011
0000
0000
0000
0001
0000
0100
0010
,
1000
0000
0001
0000
0100
0010
0100
0000
,
1010
0000
0000
0000
0001
0000
0100
0000
1010
0000
0000
0000
0001
0000
0100
0010
,
1000
0000
0100
0000
0001
0100
1000
0100
,
0011
0000
0100
1000
0011
0000
1000
0100
,
0000
0100
0010
0000
0001
0100
0010
1000
,
0001
0000
1010
0000
0101
0000
2000
0002
,
0000
0000
3003
0000
,
1001
0000
0000
1000
0001
0000
0001
0000
0100
0000
0010
0000
1000
0000
0100
0000
,
1000
0000
0010
0000
0100
0000
0002
0000
0000
1000
0000
0000
0000
0000
0000
1003
0000
0000
1001
0000
0000
0000
0000
0000
,
0101
0000
0000
0010
1000
0000
0001
0000
0100
0000
0010
0000
1000
0000
0100
0000
,
0010
0000
0001
0000
0010
0000
0200
0000
0000
0010
0000
0000
0000
0000
0000
0310
0000
0000
0110
0000
0000
0000
0000
0000
,
0001
0010
0100
1000
0100
0010
0001
1000
0010
0100
0001
0100
,
0010
1000
0100
0010
0100
0010
0001
0010
0100
0010
0100
1000
,
0001
0010
0001
0010
0100
0010
0100
1000
0100
1000
0100
0010
,
0001
0100
0001
0000
0010
0100
0010
0000
0100
1000
0100
0000
1000
0001
1000
0000
,
0110
0000
0000
0000
1010
0000
0000
0000
0101
0000
0000
0010
0001
0000
0002
0000
,
0000
0000
0023
0000
0230
0000
0320
0000
0032
0000
0023
0000
0230
0000
1300
0100
,
1000
0000
0000
0000
0101
0000
0000
0000
0110
0000
0000
1000
0100
0000
0010
0000
,
1000
0100
1000
0000
0100
0000
0100
0000
0010
0001
0010
0000
0001
0000
0001
0000
,
1100
0000
0000
0000
0101
0000
0000
0000
1010
0000
0000
0002
0020
0000
0003
0000
,
0031
0100
0001
0100
0001
0100
0001
0100
0010
0100
0010
0100
0010
0000
1000
0000
,
0110
0000
0000
1000
0100
0000
0010
0000
0001
0100
0000
0010
1000
0000
0100
0010
,
0100
0000
0100
0000
0100
0000
0100
0000
0010
0001
0010
0001
0010
0001
0010
0001
,
0011
0000
0000
0000
1000
0000
0100
0000
0011
0000
0000
0000
0001
0000
0100
0010
,
1000
0000
0101
0000
1100
0000
0001
0100
,
1010
0000
0000
0000
0011
0000
0000
0000
1100
0000
0000
0000
0001
0000
0100
0010
,
1000
0000
0100
0000
0001
0100
1000
0100
,
0011
0000
0000
0000
0100
0000
1000
0000
0011
0000
0000
0000
1000
0000
0100
1000
,
0001
0000
0100
0000
0010
0000
0000
0000
0001
0000
0100
0000
0010
0000
1000
0100
,
0001
0000
1010
0000
0101
0000
2000
0002
,
0000
0000
3003
0000
0100
0010
0100
0000
,
1001
0000
0200
0000
,
0310
1000
0010
0100
0010
0000
1000
0000
1010
0000
0000
1000
0001
0000
0100
0000
,
0010
0001
0010
0001
0100
0010
0100
0010
1000
0000
0000
1000
0000
0000
1000
0000
,
0001
0100
0010
0100
0001
0000
0100
0000
0101
0000
0000
0100
1000
0000
0010
0000
,
0100
0010
1000
0010
0100
0010
1000
0100
0010
0000
0000
0010
0000
0000
0010
0000
,
0001
0010
0100
1000
0001
0000
1000
0000
1010
0000
0000
0100
0001
0000
1000
0000
,
0010
0100
1000
0100
0010
0001
0010
0100
1000
0000
0000
0100
0000
0000
0001
0000
,
1000
0010
0100
0001
0100
0000
0010
0000
0110
0000
0010
1000
0001
0000
0100
0000
,
1001
0000
0000
0000
;
