#TITLE:死月;
#SUBTITLE:;
#ARTIST:SHK;
#TITLETRANSLIT:Death Moon;
#SUBTITLETRANSLIT:;
#ARTISTTRANSLIT:SHK;
#GENRE:;
#CREDIT:DJSuperNOVA;
#MUSIC:Death Moon.ogg;
#BANNER:Death Moon.png;
#BACKGROUND:Death Moon-bg.png;
#CDTITLE:;
#SAMPLESTART:62.891;
#SAMPLELENGTH:25.504;
#SELECTABLE:YES;
#OFFSET:0.693;
#BPMS:0.000=159.973
,6.000=319.947
,10.000=159.973
,16.000=319.947
,20.000=159.973
,26.000=319.947
,30.000=159.973
,36.000=319.947
,40.000=159.973
,44.000=319.947
,52.000=159.973
,148.000=160.000
,156.000=150.000
,158.000=140.000
,160.000=130.000
,162.000=120.000
,164.000=159.973
,168.000=319.947
,328.000=159.973
,340.000=319.947
,348.000=159.973
,360.000=319.947
,368.000=159.973
,388.000=319.947
,412.000=159.973
,444.000=319.947
,620.000=159.973
;
#STOPS:;
#BGCHANGES:;
#FGCHANGES:;

//--------------- dance-single - DJSuperNOVA ----------------
#NOTES:
     dance-single:
     DJSuperNOVA:
     Beginner:
     4:
     0,0,0,0,0:
0000
0000
0000
0000
,
1000
0000
0000
0000
,
0000
0000
0001
0000
,
0000
0000
1000
0000
,
0000
0000
0000
0000
,
0001
0000
0000
0000
,
0100
0000
0000
0000
,
0000
0000
0010
0000
,
0000
0000
0100
0000
,
0000
0000
0000
0000
,
0010
0000
0000
0000
,
1001
0000
0000
0000
,
0000
0000
0000
0000
,
1000
0000
0000
0000
,
0100
0000
0000
0000
,
1000
0000
0000
0000
,
0001
0000
0000
0000
,
0100
0000
0000
0000
,
0001
0000
0000
0000
,
0010
0000
0000
0000
,
0100
0000
0000
0000
,
1001
0000
0000
0000
,
1000
0000
0000
0000
,
1000
0000
0000
0000
,
1000
0000
0000
0000
,
0001
0000
0000
0000
,
0001
0000
0000
0000
,
0001
0000
0000
0000
,
0001
0000
0000
0000
,
0010
0000
0100
0000
,
0010
0000
0100
0000
,
0001
0000
1000
0000
,
0001
0000
1000
0000
,
0010
0000
0010
0000
,
0100
0000
0100
0000
,
1000
0000
0001
0000
,
1000
0000
0001
0000
,
0100
0000
0000
0000
,
0010
0000
0000
0000
,
1000
0000
0100
0000
,
0010
0000
0001
0000
,
0000
0000
0000
0000
,
2002
0000
0000
0000
,
0000
0000
0000
0000
,
0000
0000
0000
0000
,
3003
0000
0000
0000
,
0100
0000
0000
0000
,
0010
0000
0000
0000
,
1000
0000
0000
0000
,
0100
0000
0000
0000
,
0010
0000
0000
0000
,
0001
0000
0000
0000
,
1000
0000
0000
0000
,
0001
0000
0000
0000
,
1000
0000
0000
0000
,
0100
0000
0000
0000
,
0001
0000
0000
0000
,
0100
0000
0000
0000
,
0001
0000
0000
0000
,
0010
0000
0000
0000
,
0100
0000
0000
0000
,
1000
0000
0000
0000
,
0100
0000
0000
0000
,
1000
0000
0000
0000
,
0001
0000
0000
0000
,
1000
0000
0000
0000
,
0001
0000
0000
0000
,
1000
0000
0000
0000
,
0010
0000
0000
0000
,
0100
0000
0000
0000
,
0010
0000
0000
0000
,
0100
0000
0000
0000
,
0010
0000
0000
0000
,
0010
0000
0000
0000
,
0100
0000
0000
0000
,
0100
0000
0000
0000
,
1000
0000
0000
0000
,
0001
0000
0000
0000
,
1000
0000
0000
0000
,
0001
0000
0000
0000
,
1001
0000
0000
0000
,
0100
0000
0000
0000
,
0010
0000
0000
0000
,
0001
0000
0000
0000
,
0100
0000
0000
0000
,
1000
0000
0000
0000
,
1000
0000
0000
0000
,
0001
0000
0000
0000
,
0100
0000
0000
0000
,
1000
0000
0000
0000
,
0001
0000
0000
0000
,
0001
0000
0000
0000
,
1000
0000
0000
0000
,
0100
0000
0010
0000
,
0001
0000
0000
0000
,
0100
0000
1000
0000
,
0010
0000
0000
0000
,
2002
0000
0000
0000
,
0000
0000
0000
0000
,
0000
0000
0000
0000
,
3003
0000
0000
0000
,
0200
0000
0000
0000
,
0020
0000
0330
0000
,
1000
0000
0000
0000
,
0100
0000
0000
0000
,
0010
0000
0000
0000
,
0001
0000
0000
0000
,
1000
0000
0000
0000
,
0010
0000
0000
0000
,
0100
0000
0000
0000
,
1001
0000
0000
0000
,
1000
0000
0000
0000
,
0100
0000
0000
0000
,
0010
0000
0000
0000
,
0001
0000
0000
0000
,
1000
0000
0000
0000
,
0001
0000
0000
0000
,
1000
0000
0000
0000
,
0100
0000
0000
0000
,
0001
0000
0000
0000
,
0100
0000
0000
0000
,
0001
0000
0000
0000
,
0010
0000
0000
0000
,
0100
0000
0000
0000
,
1000
0000
0000
0000
,
0100
0000
0000
0000
,
1000
0000
0000
0000
,
0001
0000
0000
0000
,
1000
0000
0000
0000
,
0001
0000
0000
0000
,
1000
0000
0000
0000
,
0010
0000
0000
0000
,
0100
0000
0000
0000
,
0010
0000
0000
0000
,
0100
0000
0000
0000
,
0010
0000
0000
0000
,
0010
0000
0000
0000
,
0100
0000
0000
0000
,
0100
0000
0000
0000
,
1000
0000
0000
0000
,
0001
0000
0000
0000
,
1000
0000
0000
0000
,
0001
0000
0000
0000
,
1001
0000
0000
0000
,
0110
0000
0000
0000
,
1001
0000
0000
0000
,
0110
0000
0000
0000
,
2002
0000
0000
0000
,
0000
0000
0000
0000
,
0000
0000
0000
0000
,
0000
0000
0000
0000
,
0000
0000
0000
0000
,
0000
0000
0000
0000
,
0000
0000
0000
0000
,
0000
0000
0000
0000
,
3003
0000
0000
0000
;

//--------------- dance-single - DJSuperNOVA ----------------
#NOTES:
     dance-single:
     DJSuperNOVA:
     Easy:
     8:
     0,0,0,0,0:
0000
0000
0000
0000
,
0100
0000
0020
0000
,
0000
0000
0130
0000
,
0010
0000
1000
0000
,
0002
0000
0000
0000
,
1003
0000
0001
0000
,
0100
0000
0002
0000
,
0000
0000
0103
0000
,
0001
0000
1000
0000
,
0020
0000
0000
0000
,
1030
0000
0010
0000
,
1000
0000
1000
0000
,
0001
0000
0001
0000
,
0100
0100
0010
0010
,
1000
1000
0001
0001
,
1000
1000
0010
0010
,
0100
0100
0010
1001
,
0100
0010
0100
0010
,
0001
0100
0001
0100
,
0010
1000
0010
1000
,
0100
1000
0100
1000
,
0100
0100
0100
0100
,
0001
0001
0001
0001
,
1000
1000
1000
1000
,
0010
0010
0010
0010
,
1000
0100
0001
0100
,
1000
0100
0001
0100
,
1000
0010
0001
0010
,
1000
0010
0001
0010
,
0001
0010
0100
1000
,
0001
0100
0010
1000
,
0001
0100
0010
0100
,
1000
0100
0010
0001
,
1000
0001
0100
1000
,
0001
0010
0100
1000
,
0001
0100
1000
0001
,
0010
1000
0100
0110
,
1000
0100
1000
0100
,
0010
0100
0010
0100
,
0001
0010
0001
0010
,
0100
1000
0001
0100
,
1000
0000
0000
0000
0000
0000
0000
0000
0000
0000
0000
0000
0000
0000
0000
0000
0000
0000
0000
0000
0000
0000
0000
0000
0000
0000
0000
0000
0000
0100
0000
0000
0000
0000
0000
0000
0000
0000
0000
0000
0000
0000
0000
0000
0000
0000
0000
0000
0000
0000
0000
0000
0000
0000
0000
0000
0000
0000
0000
0000
0000
0000
0000
0000
0000
0000
0000
0000
0000
0000
0000
0000
0000
0000
0000
0000
0000
0000
0000
0000
0000
0000
0000
0000
0000
0000
0000
0000
0000
0000
0000
0000
0000
0000
0000
0000
,
2002
0000
0000
0000
,
0000
0000
0000
0000
,
0000
0000
0000
0000
,
0000
0000
3003
0000
,
1000
0000
0100
0000
,
0010
0000
0001
0000
,
1000
0000
1000
0000
,
0001
0000
0100
0000
,
0010
0000
0010
0000
,
1000
0000
1000
0000
,
0100
0000
0010
0000
,
0001
0000
0100
0000
,
0001
0100
0001
0000
,
1000
0100
1000
0000
,
0001
0000
0100
0000
,
0010
0000
1000
0000
,
0100
0000
1000
0000
,
0100
0000
0010
0000
,
0001
0000
0100
0000
,
0010
0000
1000
0000
,
0001
0010
0001
0000
,
1000
0010
1000
0000
,
0001
0001
0001
0000
,
1000
1000
1000
0000
,
0010
0010
0010
0000
,
0100
0100
0100
0000
,
1000
0000
0100
0000
,
0010
0010
0010
0000
,
0001
0000
0100
0000
,
0010
0010
0010
0000
,
1000
0000
0100
0000
,
0001
0100
0001
0000
,
1000
0000
0010
0000
,
0100
1000
0100
0000
,
0001
0000
1000
0000
,
0010
0100
0010
0000
,
1000
0000
0001
0000
,
0100
0010
1000
0000
,
0100
0000
0110
0000
,
1001
0000
0110
0000
,
1000
0001
0010
0100
,
0001
0100
0010
1000
,
0001
0010
0100
1000
,
1000
0000
0100
0000
,
0010
0000
0001
0000
,
1000
0010
0100
1000
,
0001
0100
0010
1000
,
0010
0100
1000
0010
,
0001
0000
0010
0000
,
0100
0000
1000
0000
,
0001
1000
0001
1000
,
0100
0010
0100
0010
,
1000
0100
1000
0100
,
0010
0001
0010
0001
,
1000
0000
0000
0000
0000
0000
0000
0000
0000
0000
0000
0000
0000
0000
0000
0000
0000
0000
0000
0000
0000
0000
0000
0000
0000
0000
0000
0000
0000
0100
0000
0000
0000
0000
0000
0000
0000
0000
0000
0000
0000
0000
0000
0000
0000
0000
0000
0000
0000
0000
0000
0000
0000
0000
0000
0000
0000
0000
0000
0000
0000
0000
0000
0000
0000
0000
0000
0000
0000
0000
0000
0000
0000
0000
0000
0000
0000
0000
0000
0000
0000
0000
0000
0000
0000
0000
0000
0000
0000
0000
0000
0000
0000
0000
0000
0000
,
2002
0000
0000
0000
,
0000
0000
0000
0000
,
0000
0000
0000
0000
,
0000
0000
3003
0000
,
0200
0000
0000
0000
,
0020
0000
0000
0330
,
1000
0001
0010
0100
,
0002
0000
0000
2003
0000
0000
0000
0000
,
3002
0000
0000
0023
0000
0000
0130
0000
,
0020
0000
0000
0230
0000
0000
0300
0000
,
1000
0010
0100
1000
,
0002
0000
0000
0023
0000
0000
0000
0000
,
2030
0000
0000
3200
0000
0000
0310
0000
,
1001
0000
0000
0000
0100
0100
0010
0010
,
1000
0000
0100
0000
,
0001
0000
0100
0000
,
0010
0000
0010
0000
,
1000
0000
1000
0000
,
0100
0000
0010
0000
,
0001
0000
0100
0000
,
0001
0100
0001
0000
,
1000
0100
1000
0000
,
0001
0000
0100
0000
,
0010
0000
1000
0000
,
0100
0000
0100
0000
,
0010
0000
0010
0000
,
0001
0000
0100
0000
,
0010
0000
1000
0000
,
0001
0010
0001
0000
,
1000
0010
1000
0000
,
0001
0001
0001
0000
,
1000
1000
1000
0000
,
0010
0010
0010
0000
,
0100
0100
0100
0000
,
1000
0000
0100
0000
,
0010
0010
0010
0000
,
0001
0000
0100
0000
,
0010
0010
0010
0000
,
1000
0000
0100
0000
,
0001
0100
0001
0000
,
1000
0000
0010
0000
,
0100
1000
0100
0000
,
0001
0000
1000
0000
,
0010
0100
0010
0000
,
1000
0000
0001
0000
,
0100
0010
1000
0000
,
0110
0000
1001
0000
,
0100
0000
1001
0000
,
0010
0000
0101
0000
,
0010
0000
0110
0000
,
2002
0000
0000
0000
,
0000
0000
0000
0000
,
0000
0000
0000
0000
,
0000
0000
0000
0000
,
0000
0000
0000
0000
,
0000
0000
0000
0000
,
0000
0000
0000
0000
,
0000
0000
0000
0000
,
3003
0000
0000
0000
;

//--------------- dance-single - DJSuperNOVA ----------------
#NOTES:
     dance-single:
     DJSuperNOVA:
     Medium:
     12:
     0,0,0,0,0:
0000
0000
0000
0000
,
1000
0100
0010
0002
0000
0000
0000
0000
,
0000
0003
0001
0100
,
0010
0000
1000
0000
0100
1000
0010
0002
,
0000
0000
0000
0003
,
0001
0100
0010
1000
,
1000
0010
0100
0020
0000
0000
0000
0000
,
0000
0000
0031
0100
,
0010
0000
0001
0000
0001
0010
0100
2000
,
0000
0000
0020
3030
,
0100
0011
0110
1100
,
2000
0000
3200
0000
,
0320
0000
0032
0000
,
2003
0000
3000
0100
0020
0000
0030
0100
,
0002
0000
0003
0100
0020
0000
0030
0100
,
2000
0000
3000
0100
0020
0000
0030
1000
,
0002
0000
0003
0100
0020
0000
0030
0000
,
2002
0000
3003
0100
0020
0000
0030
0100
,
2000
0000
3000
0100
0002
0000
0003
0010
,
0200
0000
0300
1000
0200
0000
0300
1000
,
0002
0000
0003
0100
0020
0000
0030
0000
,
1000
0100
0010
0001
0000
1000
0100
0010
,
0100
1000
0100
0001
0000
0100
0010
0001
,
0010
0100
0010
0001
0000
1000
0100
0010
,
0100
1000
0010
0100
0000
1000
0100
0010
,
0110
0000
0001
1000
0100
0000
0010
0001
,
1000
0000
0100
0010
0001
0000
0100
0010
,
1000
0000
0100
1000
0100
0000
0010
0001
,
0010
0000
1000
0100
0001
0000
0100
1000
,
0002
0023
0230
2300
,
3002
0203
0320
2030
,
3002
0023
0230
2300
,
3200
2300
3200
0320
,
0130
1000
0001
0000
0010
1000
0100
0000
,
0001
0100
0001
0000
0010
0100
0010
0000
,
0100
1000
0100
0000
0010
1000
0100
0000
,
0010
0001
1000
0000
0100
0010
0001
0000
,
0010
0001
0010
1000
0100
1000
0100
1000
,
0010
0100
0010
0100
0001
0100
0001
0100
,
1000
0100
1000
0100
0010
0001
0010
0001
,
1000
0100
0010
0100
0010
0001
0100
0001
,
0000
0000
0000
0000
0000
0000
0000
0000
0000
0000
0000
0000
0000
0000
0000
0000
0000
0000
0000
0000
0000
0000
0000
0000
0000
0000
0000
0000
0000
1000
0000
0000
0000
0000
0000
0000
0000
0000
0000
0000
0000
0000
0000
0000
0000
0000
0000
0000
0000
0000
0000
0000
0000
0000
0000
0000
0000
0000
0000
0000
0000
0000
0000
0000
0000
0000
0000
0000
0000
0000
0000
0000
0000
0000
0000
0000
0000
0000
0000
0000
0000
0000
0000
0000
0000
0000
0000
0000
0000
0000
0000
0000
0000
0000
0000
0000
,
2002
0000
0000
0000
,
0000
0000
0000
0000
,
0000
0000
0000
0000
,
0000
0000
3003
0000
,
2000
0000
3200
0000
,
0320
0000
0032
0000
,
1003
0010
1000
0010
,
0100
0001
0100
0001
,
1000
0000
0100
0000
,
0010
0000
0001
0000
,
0100
0010
0100
0010
,
1000
0100
1000
0100
,
0001
0000
0100
0000
,
0010
0000
1000
0000
,
0001
0100
0001
0100
,
0010
1000
0010
1000
,
0001
0000
0100
0000
,
1000
0000
0100
0000
,
0010
0001
0010
0001
,
1000
0100
1000
0100
,
0010
0000
0001
0000
,
0100
0000
1001
0000
,
0100
0001
0010
0001
,
0100
0001
0010
0000
,
1000
0010
1000
0100
,
1000
0010
1000
0000
,
1000
0100
0010
0001
,
1000
0100
0010
0000
,
0001
0100
0010
1000
,
0001
0100
0010
0000
,
1000
0001
0100
0001
,
1000
0100
1000
0000
,
0010
0100
0001
0100
,
0010
1000
0100
0000
,
0001
0100
0010
1000
,
0001
0010
0100
0000
,
1000
0010
0100
0010
,
0001
0010
0100
1000
,
0001
0000
0110
0000
,
1001
0000
0110
0000
,
0100
1000
0001
0000
0010
1000
0100
0000
,
0001
0100
0001
0000
0010
0100
0010
0000
,
0100
1000
0100
0000
0010
1000
0100
0000
,
1000
0100
1000
0100
,
0010
0001
0010
0000
,
0001
0100
0010
0000
0010
1000
0100
0000
,
1000
0100
0010
0000
0100
0010
0001
0000
,
0100
1000
0100
0000
0010
0001
0010
0000
,
0001
0100
0010
1000
,
0001
0100
0010
0000
,
1000
0100
1000
0100
0010
0100
0010
0100
,
0010
0001
0010
0001
0100
0001
0100
0001
,
0010
0100
1000
0100
1000
0100
0010
0100
,
0010
0001
0010
0100
1000
0100
0010
0001
,
0000
0000
0000
0000
0000
0000
0000
0000
0000
0000
0000
0000
0000
0000
0000
0000
0000
0000
0000
0000
0000
0000
0000
0000
0000
0000
0000
0000
0000
1000
0000
0000
0000
0000
0000
0000
0000
0000
0000
0000
0000
0000
0000
0000
0000
0000
0000
0000
0000
0000
0000
0000
0000
0000
0000
0000
0000
0000
0000
0000
0000
0000
0000
0000
0000
0000
0000
0000
0000
0000
0000
0000
0000
0000
0000
0000
0000
0000
0000
0000
0000
0000
0000
0000
0000
0000
0000
0000
0000
0000
0000
0000
0000
0000
0000
0000
,
2002
0000
0000
0000
,
0000
0000
0000
0000
,
0000
0000
0000
0000
,
0000
0000
3003
0000
,
0020
0000
0000
0000
,
0000
0000
0000
0000
,
0230
0302
0023
0230
,
0320
0000
0000
0230
0000
0000
0000
0000
,
0320
0000
0000
0230
0000
0000
2300
0000
,
3020
0000
0000
2030
0000
0000
0000
0000
,
3200
0302
0023
0032
,
0203
0000
0000
0320
0000
0000
0000
0000
,
2030
0000
0000
3200
0000
0000
0320
0000
,
0031
0000
0000
0000
0001
0010
0100
1000
,
0001
0010
0001
0010
,
0100
1000
0100
1000
,
0001
0000
0100
0000
,
0010
0000
1000
0000
,
0100
0010
0100
0010
,
0001
0100
0001
0100
,
1000
0000
0100
0000
,
0010
0000
0001
0000
,
1000
0100
1000
0100
,
0010
0001
0010
0001
,
1000
0000
0100
0000
,
0001
0000
0100
0000
,
0010
1000
0010
1000
,
0001
0100
0001
0100
,
0010
0000
1000
0000
,
0100
0000
1001
0000
,
0100
1000
0010
1000
,
0100
1000
0010
0000
,
0001
0010
0001
0100
,
0001
0010
0001
0000
,
0001
0100
0010
1000
,
0001
0100
0010
0000
,
1000
0100
0010
0001
,
1000
0100
0010
0000
,
0001
1000
0100
1000
,
0001
0100
0001
0000
,
0010
0100
1000
0100
,
0010
0001
0100
0000
,
1000
0100
0010
0001
,
1000
0010
0100
0000
,
0001
0010
0100
0010
,
1000
0010
0100
0001
,
1000
0000
0011
0000
,
0101
0000
1001
0000
,
1010
0000
1100
0000
,
1010
0000
1001
0000
,
0220
0000
0000
0000
,
0000
0000
0000
0000
,
0000
0000
0000
0000
,
0000
0000
0000
0000
,
0000
0000
0000
0000
,
0000
0000
0000
0000
,
0000
0000
0000
0000
,
0000
0000
0000
0000
,
0330
0000
0000
0000
;

//--------------- dance-single - DJSuperNOVA ----------------
#NOTES:
     dance-single:
     DJSuperNOVA:
     Hard:
     16:
     0,0,0,0,0:
0000
0000
0000
0000
,
0100
0001
0010
2200
0000
0000
0000
0000
,
0000
3300
0011
1100
,
0101
0000
1010
0000
0100
1000
0010
0202
,
0000
0000
0000
0303
,
1100
0101
0011
1010
,
1000
0100
0010
0220
0000
0000
0000
0000
,
0000
0330
1010
0110
,
0101
0000
1100
0000
0001
0100
1000
0120
,
0000
0000
0200
0330
,
1001
0000
0100
0000
0001
0000
0100
0000
0010
1000
0010
0000
0100
0010
0100
0000
,
0002
0000
0023
0000
,
0230
0000
2300
0000
,
3200
0000
0000
0310
0002
0000
0000
1003
,
0200
0000
0000
0310
0002
0000
0000
1003
,
0200
0000
0000
0310
2000
0000
0000
3001
,
0020
0000
0000
0031
0200
0000
0000
0310
,
2010
0000
0000
0000
0000
0000
3001
0000
0200
0000
0000
0000
0000
0000
0310
1000
,
0200
0000
0000
0310
0002
0000
0000
0013
,
0200
0000
0000
0000
0000
0000
1300
0000
0020
0000
0000
0000
0000
0000
0130
0001
,
1000
0000
0001
0000
0100
0000
0001
0000
1000
0000
0010
0100
0000
0010
0100
0000
,
1010
0100
0010
0001
0000
0100
0010
0001
,
0100
1000
0100
0001
0000
0100
0010
0001
,
0010
1000
0100
0010
0000
0100
1000
0010
,
0100
1000
0100
0001
0000
0100
0010
0001
,
1000
0100
1000
0010
1000
0100
1000
0010
,
0100
0001
0100
0010
0100
0001
0100
0010
,
1000
0001
0100
0001
0010
0001
0100
0010
,
1000
0100
1000
0010
0100
0001
0010
0001
,
0200
0000
0000
0300
0020
0000
0000
0030
0200
0000
0000
0300
2000
0000
0000
3000
,
0002
0000
0000
0003
0020
0000
0000
0030
0200
0000
0000
0300
2000
0000
0000
3000
,
0002
0000
0000
0003
0200
0000
0000
0300
0020
0000
0000
0030
2000
0000
0000
3000
,
0200
0000
0000
0300
0020
0000
0000
0030
2000
0000
0000
3000
0020
0000
0000
0030
,
0200
0301
2000
3010
0200
0310
0002
0103
,
0020
1030
0002
0103
0020
0130
2000
3100
,
0002
0103
0020
1030
0200
1300
0020
0130
,
0002
0023
0230
0320
0032
2003
3002
0203
,
1300
0100
0010
1000
0100
0010
0001
0100
,
1000
0100
0001
1000
0100
0010
0001
0100
,
1000
0100
0010
1000
0010
0100
0001
1000
,
0100
0010
0001
0100
1000
0100
0010
0001
,
0000
0000
0000
0000
0000
0000
0000
0000
0000
0000
0000
0000
0000
0000
0000
0000
0000
0000
0000
0000
0000
0000
0000
0000
0000
0000
0000
0000
0000
0100
0000
0000
0000
0000
0000
0000
0000
0000
0000
0000
0000
0000
0000
0000
0000
0000
0000
0000
0000
0000
0000
0000
0000
0000
0000
0000
0000
0000
0000
0000
0000
0000
0000
0000
0000
0000
0000
0000
0000
0000
0000
0000
0000
0000
0000
0000
0000
0000
0000
0000
0000
0000
0000
0000
0000
0000
0000
0000
0000
0000
0000
0000
0000
0000
0000
0000
,
2002
0000
0000
0000
,
0000
0000
3003
0000
,
0100
0010
0100
0010
0100
0010
0100
0010
,
0100
0010
0100
0010
0100
0010
0100
0010
,
0200
0000
2300
0000
,
3020
0000
0032
0000
,
1003
0010
0100
0000
1000
0000
0010
0000
,
0100
0000
0001
0000
0010
1000
0001
0000
,
0010
0100
0001
0000
1000
0000
0100
0000
,
1000
0010
1000
0001
,
0010
1000
0100
0000
1000
0000
0010
0100
,
1000
0010
0100
0001
0010
0000
0001
0000
,
1000
0010
0100
0000
1000
0000
0100
1000
,
0010
1000
0100
0010
1000
0000
0010
0001
,
0100
0000
0001
0000
0010
0000
0100
0010
,
1000
0100
0010
0100
1000
0000
0001
0000
,
0100
0000
0001
0000
1000
0000
0010
1000
,
0100
1000
0010
0000
0100
0000
0010
0000
,
1000
0001
0100
0000
1000
0000
0100
0001
,
0010
0001
1000
0000
0100
0000
0001
0000
,
0010
0000
0100
0000
1000
0000
0100
0010
,
1000
0010
0001
0010
1000
0000
0010
0000
,
1100
0000
0001
0000
0010
0000
0100
0001
,
1000
0010
1000
0100
,
0110
0000
0001
0000
0100
0000
0010
0100
,
1000
0010
0100
0001
,
1100
0000
0100
0000
1000
0000
0001
1000
,
0010
0100
0010
0001
,
0101
0000
0010
0000
0100
0000
0010
1000
,
0100
0100
0010
0100
,
1010
0000
0001
0000
1000
0000
0100
0001
,
1000
0010
0100
0010
,
1010
0000
0100
0000
1000
0000
0010
0100
,
1000
0100
0010
0001
,
0101
0000
0010
0000
1000
0000
0001
1000
,
0100
0010
0100
0010
,
1001
0000
0100
0000
0010
0000
0100
0010
,
0001
0010
1000
0010
,
0102
0000
2003
0000
,
3020
0000
0230
0000
,
0301
1000
0100
1000
0010
0100
0010
1000
,
0001
0100
0010
1000
0001
0010
0100
1000
,
0001
0100
0010
1000
0001
1000
0100
0010
,
1000
0100
1000
0100
1000
0100
1000
0100
,
0010
0001
0010
0001
0010
0001
0010
0001
,
1000
0100
0010
1000
0010
0100
1000
0010
,
0100
0001
0010
0001
1000
0010
1000
0100
,
1000
0100
1000
0010
0100
0001
0010
0100
,
0001
0010
0001
0010
0001
0010
0001
0010
,
0100
1000
0100
1000
0100
1000
0100
1000
,
0001
0100
0010
1000
0100
0010
0001
1000
,
0100
0010
0100
1000
0100
0010
0001
0100
,
1000
0100
0010
0100
0010
0001
1000
0001
,
0100
0010
1000
0100
1000
0100
0010
0001
,
0000
0000
0000
0000
0000
0000
0000
0000
0000
0000
0000
0000
0000
0000
0000
0000
0000
0000
0000
0000
0000
0000
0000
0000
0000
0000
0000
0000
0000
0100
0000
0000
0000
0000
0000
0000
0000
0000
0000
0000
0000
0000
0000
0000
0000
0000
0000
0000
0000
0000
0000
0000
0000
0000
0000
0000
0000
0000
0000
0000
0000
0000
0000
0000
0000
0000
0000
0000
0000
0000
0000
0000
0000
0000
0000
0000
0000
0000
0000
0000
0000
0000
0000
0000
0000
0000
0000
0000
0000
0000
0000
0000
0000
0000
0000
0000
,
2002
0000
0000
0000
,
0000
0000
0000
3003
,
1000
0001
1000
0001
1000
0001
1000
0001
,
1000
0001
1000
0001
1000
0001
1000
0001
,
2000
0000
3200
0000
,
0320
0000
0032
0000
,
2003
0000
3002
0000
0023
0000
0230
0300
,
0120
0000
0000
2000
0000
0000
0000
3030
,
2020
0000
3000
0230
0000
0000
0302
0003
,
2002
0000
0003
0020
0000
0000
3030
0000
,
0200
0000
0302
0000
0023
0000
0230
0300
,
2200
0000
3000
0020
0000
0000
0330
0000
,
2020
0000
3000
0230
0000
0000
0320
0030
,
0011
0000
0000
0000
0000
0000
0000
0000
1000
0100
1000
0100
0010
0001
0010
0001
,
1000
0010
0100
0000
1000
0000
0010
0000
,
0100
0000
0001
0000
0010
1000
0001
0000
,
0010
0100
0001
0000
1000
0000
0100
0010
,
1000
0100
0010
0000
1000
0100
0010
0000
,
0010
1000
0100
0000
1000
0000
0010
0100
,
1000
0010
0100
0001
0010
0000
0001
0000
,
1000
0010
0100
0000
1000
0000
0100
1000
,
0010
1000
0100
0010
1000
0000
0010
0001
,
0100
0000
0001
0000
0010
0000
0100
0010
,
1000
0100
0010
0100
1000
0000
0001
0000
,
0100
0000
0001
0000
1000
0000
0010
1000
,
0100
1000
0010
0000
0100
0000
0010
0000
,
1000
0001
0100
0000
1000
0000
0100
0001
,
0010
0001
1000
0000
0100
0000
0001
0000
,
0010
0000
0100
0000
1000
0000
0100
0010
,
1000
0010
0001
0010
1000
0000
0010
0000
,
1100
0000
0001
0000
0010
0000
0100
0001
,
1000
0010
1000
0100
,
0110
0000
0001
0000
0100
0000
0010
0100
,
1000
0010
0100
0001
,
1100
0000
0100
0000
1000
0000
0001
1000
,
0010
0100
0010
0001
,
0101
0000
0010
0000
0100
0000
0010
1000
,
0100
0100
0010
0100
,
1010
0000
0001
0000
1000
0000
0100
0001
,
1000
0010
0100
0010
,
1010
0000
0100
0000
1000
0000
0010
0100
,
1000
0100
0010
0001
,
0101
0000
0010
0000
1000
0000
0001
1000
,
0100
1000
0010
1000
0100
0000
0010
0000
,
1001
0000
0100
0000
0010
0000
0100
0010
,
0001
0010
0100
0010
0100
0000
0010
0000
,
0102
0000
2003
0000
,
3020
0000
0230
0000
,
0302
0000
2003
0000
,
3200
0000
0320
0030
,
2002
0000
0000
0000
,
0000
0000
0000
0000
0000
0000
0000
3003
,
1000
0001
1000
0001
1000
0001
1000
0001
,
0100
0010
0100
0010
0100
0010
0100
0010
,
1000
0100
1000
0100
1000
0100
1000
0100
,
0010
0001
0010
0001
0010
0001
0010
0001
,
1000
0010
1000
0010
1000
0010
1000
0010
,
0100
0001
0100
0001
0100
0001
0100
0002
,
0200
0000
0303
0000
;

//--------------- dance-single - DJSuperNOVA ----------------
#NOTES:
     dance-single:
     DJSuperNOVA:
     Challenge:
     18:
     0,0,0,0,0:
0000
0000
0000
0000
,
1000
0100
0010
0022
0000
0000
0000
0000
,
0000
0000
0000
0033
0011
0000
1001
0000
,
1010
0000
1100
0000
1010
0100
0010
0202
,
0000
0000
0000
0000
0000
0000
0000
0303
,
0101
0110
1100
1010
,
0100
0001
1000
2020
0000
0000
0000
0000
,
0000
0000
0000
3030
1010
0000
0011
0000
,
1100
0000
0101
0000
0110
1000
0020
0200
,
0000
0000
0000
0300
0200
0000
0000
0330
,
0110
0000
0000
0000
1001
0000
0000
0000
1000
0010
0100
0001
0100
0010
1000
0010
,
0200
0000
2000
0300
,
0020
3000
0002
0030
,
2003
0000
0000
0000
0000
0000
3100
0010
0002
0000
0000
0000
0000
0000
0103
0010
,
0200
0000
0000
0000
0000
0000
0310
0100
2000
0000
0000
0000
0000
0000
3100
0001
,
0020
0000
0000
0000
0000
0000
0031
0100
0002
0000
0000
0000
0000
0000
1003
0100
,
0020
0000
0000
0000
0000
0000
0130
0020
0200
0000
0000
0000
0330
0000
0000
0000
,
2002
0000
0000
0000
3003
0000
1000
0200
0020
0000
0000
0000
0330
0000
0001
0200
,
2000
0000
0000
0000
3300
0000
1000
0200
0020
0000
0000
0000
0330
0000
0100
0020
,
0002
0000
0000
0000
0033
0000
0001
2000
0020
0000
0000
0000
3030
0000
0010
1000
,
0001
0000
0001
1000
0100
0000
0100
1000
0001
0000
1000
0100
0010
0001
0100
0010
,
1000
0100
0010
0001
0000
1000
0100
0010
,
0100
1000
0010
0001
0000
0100
0010
0001
,
0100
1000
0100
0010
0000
1000
0100
0010
,
0100
1000
0100
0001
0000
1000
0100
0010
,
0011
0000
0001
0100
0010
0000
0010
1000
0100
0000
0100
1000
0010
0000
0010
0100
,
0001
0000
0001
0010
0100
0000
0100
1000
0100
0000
0100
0010
1000
0000
1000
0010
,
0100
0000
0100
0001
0100
0000
0100
1000
0010
0000
0010
1000
0100
0000
0100
0010
,
0001
0000
1000
0010
0100
0000
0001
1000
0100
0000
1000
0001
0010
0000
0100
0001
,
0020
0031
0200
0310
2000
3100
0020
1030
,
0020
0130
2000
3001
0200
0310
2000
3010
,
0200
0301
0020
0130
2000
3100
0020
0031
,
0200
0310
2000
3100
0020
0130
0020
0031
,
2000
0000
3010
0100
0002
0000
0013
0100
2000
0000
3100
1000
0020
0000
0130
0001
,
0020
0000
0031
0100
0020
0000
0130
1000
0200
0000
0310
1000
0200
0000
0310
0001
,
2000
0000
3010
0100
0020
0000
0130
0001
0200
0000
0310
1000
0020
0000
0130
0010
,
0002
0023
0230
2300
3200
0320
0032
2003
,
3100
0010
0001
1000
0100
0010
0001
1000
,
0010
0100
0001
1000
0100
0010
0001
0100
,
0110
1000
0010
1000
0001
0100
0001
0100
,
1000
0100
0010
0100
0010
0001
0100
0001
,
0000
0000
0000
0000
0000
0000
0000
0000
0000
0000
0000
0000
0000
0000
0000
0000
0000
0000
0000
0000
0000
0000
0000
0000
0000
0000
0000
0000
0000
1000
0000
0000
0000
0000
0000
0000
0000
0000
0000
0000
0000
0000
0000
0000
0000
0000
0000
0000
0000
0000
0000
0000
0000
0000
0000
0000
0000
0000
0000
0000
0000
0000
0000
0000
0000
0000
0000
0000
0000
0000
0000
0000
0000
0000
0000
0000
0000
0000
0000
0000
0000
0000
0000
0000
0000
0000
0000
0000
0000
0000
0000
0000
0000
0000
0000
0000
,
0220
0000
0000
0330
,
0010
0100
0010
1000
0100
0010
1000
0010
,
0100
0001
0100
0010
1000
0100
0010
0001
,
0100
0010
1000
0100
0010
0100
0001
1000
,
0002
0000
0020
0003
,
0200
0030
2000
0300
,
3001
0100
0001
0100
0010
1000
0010
1000
,
0100
0010
0100
0001
1000
0010
0100
0010
,
1000
0100
0010
0001
0010
0100
1000
0100
,
1000
0010
0100
0001
0010
0001
0100
0010
,
1000
0001
1000
0001
0100
0010
0100
0010
,
1000
0100
0010
0100
0010
0001
0010
0100
,
1000
0001
0100
0001
1000
0010
1000
0001
,
0100
0010
1000
0100
0010
0001
0100
0010
,
1000
0010
1000
0010
0100
0001
0100
0001
,
1000
0100
0010
0001
0100
0010
1000
0100
,
0010
0100
1000
0010
0100
0001
0010
0001
,
0100
0010
1000
0100
1000
0010
0100
0001
,
1000
0100
1000
0100
0010
0100
0010
0001
,
0100
0001
0010
0100
1000
0100
0010
0001
,
1000
0001
0100
0010
0100
1000
0100
0010
,
0100
0010
0001
0010
0100
1000
0010
0100
,
0010
1000
0001
0100
0010
0100
0010
0100
,
0001
0010
0001
0010
0100
0010
0001
1000
,
0100
1000
0100
0010
0100
0010
0001
0010
,
0001
0100
0001
1000
0100
0010
0100
0010
,
0100
1000
0001
0010
0001
1000
0010
1000
,
0100
0010
0100
0010
0100
1000
0001
0100
,
0001
1000
0001
1000
0100
1000
0001
0010
,
0001
0100
0010
1000
0010
1000
0010
0100
,
0001
0100
0010
0100
0001
1000
0100
0010
,
0100
0010
0100
1000
0001
0100
0001
0010
,
0100
1000
0001
0010
0001
1000
0001
1000
,
0100
1000
0100
0010
0001
0010
0100
0010
,
0100
1000
0001
0100
0010
1000
0010
0100
,
0001
1000
0010
0100
0001
1000
0010
1000
,
0001
0100
0010
0100
0001
1000
0100
0010
,
0001
1000
0010
0100
0001
0100
0010
1000
,
0001
0000
0101
0000
,
0110
0000
1010
0000
,
0002
0103
0020
1030
0200
0310
2000
3100
,
0020
0031
0200
0310
2000
3100
0020
0031
,
0200
0301
0020
0031
0200
0310
2000
3010
,
1000
0100
0010
0001
1000
0010
0100
0001
,
1000
0100
0010
0001
1000
0010
0100
0001
,
1000
0000
0001
0100
0010
0000
1000
0100
0010
0000
0100
0010
0001
0000
0010
0100
,
0010
0000
0001
1000
0100
0000
0010
1000
0100
0000
0010
0001
0100
0000
0010
1000
,
0100
0010
0100
0010
0100
0001
0100
0001
1000
0010
1000
0010
0100
0010
0100
0010
,
0001
0100
0010
1000
0001
0010
0100
1000
,
0001
0100
0010
1000
0001
0010
0100
1000
,
0100
0000
0010
0000
0001
0000
1000
0000
0100
0000
0010
0000
0001
0000
1000
0100
,
1000
0001
0010
0100
0010
0100
1000
0010
,
1000
0000
0100
0000
0010
0000
0100
0000
0010
0000
1000
0000
0001
0000
1000
0100
,
0010
0100
0010
0001
1000
0010
0100
0001
,
0000
0000
0000
0000
0000
0000
0000
0000
0000
0000
0000
0000
0000
0000
0000
0000
0000
0000
0000
0000
0000
0000
0000
0000
0000
0000
0000
0000
0000
0100
0000
0000
0000
0000
0000
0000
0000
0000
0000
0000
0000
0000
0000
0000
0000
0000
0000
0000
0000
0000
0000
0000
0000
0000
0000
0000
0000
0000
0000
0000
0000
0000
0000
0000
0000
0000
0000
0000
0000
0000
0000
0000
0000
0000
0000
0000
0000
0000
0000
0000
0000
0000
0000
0000
0000
0000
0000
0000
0000
0000
0000
0000
0000
0000
0000
0000
,
2002
0000
0000
3003
,
0100
0001
0100
0001
0100
0001
0100
0001
,
0100
1000
0100
1000
0100
1000
0100
1000
,
0100
0010
0100
0010
0100
0010
0100
0010
,
2000
0000
0000
0000
,
0002
0000
0000
3003
,
1001
0000
0100
0000
0010
0000
0100
0000
1000
0010
0000
0010
1000
0000
0010
1000
,
0100
0000
0010
0000
0001
0000
0100
0001
0100
0010
0000
0010
0100
0000
0010
0000
,
1000
0000
0100
0000
0010
0000
0100
0010
0000
0001
0000
0010
0100
0000
0001
0000
,
1000
0000
0010
0000
1000
0000
0100
1000
0100
1000
0000
0010
0100
0000
0010
1000
,
0100
0000
0010
0000
0001
0000
0100
0010
1000
0010
0000
0100
0010
0000
1000
0100
,
0010
0000
0001
0000
0010
0000
0001
0100
0000
0010
0000
0100
0001
0000
1000
0000
,
0001
0000
0100
0000
0010
0000
0010
0001
0010
0001
0010
0100
1000
0100
0010
0001
,
1000
0000
0100
0000
0010
0000
0001
0000
1000
0010
0100
0001
1000
0100
0010
0001
,
1000
0100
1000
0010
0100
0001
0100
0001
,
1000
0010
0100
0001
0010
0100
1000
0010
,
0100
0000
0010
0000
0001
0000
1000
0010
,
0100
0001
1000
0001
0100
0010
1000
0100
,
0010
0000
0100
0000
0001
0000
1000
0100
,
0010
0100
0010
1000
0100
0010
0001
1000
,
0010
0000
0100
0000
0001
0000
0100
0001
,
0100
0010
0100
0010
1000
0100
0010
0001
,
1000
0000
0100
0000
0010
0000
0001
0100
,
0010
1000
0100
0010
0001
0010
0001
0100
,
0010
0000
1000
0000
0100
0000
0001
0100
,
0010
1000
0100
1000
0010
0100
0001
0010
,
0001
0000
1000
0000
0010
0000
0100
0001
,
0010
0100
1000
0100
0010
1000
0001
0100
,
0010
0000
1000
0000
0001
0000
1000
0010
,
0100
0001
1000
0100
0010
0100
0010
0001
,
1000
0100
0010
0001
1000
0100
1000
0100
,
0010
0001
0010
0001
0100
0010
0100
0010
,
0001
0010
0100
1000
0001
0100
0001
0100
,
0010
1000
0010
1000
0010
0100
0010
0100
,
1000
0010
0100
0001
1000
0100
1000
0100
,
0010
0001
0010
0001
1000
0010
1000
0010
,
0001
0100
0010
1000
0001
0100
0001
0100
,
0010
1000
0010
1000
0010
0100
0010
0100
,
0001
0100
0010
1000
0100
1000
0010
0100
,
0001
1000
0100
0010
0001
1000
0001
0100
,
0001
0010
0100
1000
0010
1000
0100
0010
,
0100
0010
0001
1000
0100
0010
0001
0100
,
0010
0100
0001
0010
0001
0100
0010
1000
,
0100
1000
0010
0100
0001
1000
0001
0100
,
0010
0100
0001
0010
0100
1000
0100
0010
,
0001
0100
0010
1000
0100
0010
0100
0010
,
0001
0000
1001
0000
,
0110
0000
0000
0000
1000
0010
1000
0010
,
0001
0010
0001
0010
0100
1000
0100
1000
,
0010
0001
0010
0001
0010
1000
0010
1000
,
0002
0000
0000
0000
,
0013
1000
0010
0100
0001
0010
0100
1000
,
0100
0010
0001
1000
0100
0010
0001
0100
,
0010
1000
0001
0100
0010
0100
0001
1000
,
0100
1000
0001
0100
0010
0100
0001
1000
,
0001
0100
0010
1000
0001
0010
0100
1000
,
0001
0100
0010
1000
0010
0100
0001
0100
,
0010
1000
0001
0010
0100
0010
0001
0100
,
2002
0000
3003
0000
;
