#TITLE:死月 2;
#SUBTITLE:;
#ARTIST:SHK;
#TITLETRANSLIT:Death Moon 2;
#SUBTITLETRANSLIT:;
#ARTISTTRANSLIT:SHK;
#GENRE:;
#CREDIT:DJSuperNOVA;
#MUSIC:Death Moon 2.ogg;
#BANNER:Death Moon 2.png;
#BACKGROUND:Death Moon 2-bg.png;
#CDTITLE:;
#SAMPLESTART:65.628;
#SAMPLELENGTH:27.200;
#SELECTABLE:YES;
#OFFSET:-0.028;
#BPMS:0.000=150.000
,40.000=75.000
,41.500=375.000
,44.000=75.000
,45.500=375.000
,48.000=75.000
,49.500=375.000
,52.000=75.000
,53.500=375.000
,56.000=75.000
,57.500=375.000
,60.000=75.000
,61.500=375.000
,64.000=75.000
,65.500=375.000
,68.000=150.000
,124.000=300.000
,132.000=150.000
,164.000=300.000
,172.000=150.000
,236.000=300.000
,244.000=150.000
,276.000=300.000
,340.000=150.000
,396.000=300.000
,404.000=150.000
,468.000=300.000
,476.000=37.500
;
#STOPS:479.000=8.000;
#DISPLAYBPM:150.000:300.000;
#BGCHANGES:;
#FGCHANGES:;

//--------------- dance-single - DJSuperNOVA ----------------
#NOTES:
     dance-single:
     DJSuperNOVA:
     Beginner:
     4:
     0,0,0,0,0:
0000
0000
0000
0000
,
0000
0000
0000
0000
,
0100
0000
0000
0000
,
0010
0000
0000
0000
,
0100
0000
0000
0000
,
0010
0000
0000
0000
,
1000
0000
0000
0000
,
0001
0000
0000
0000
,
1000
0000
0000
0000
,
0010
0010
0010
0000
,
1001
0000
0000
0000
,
1001
0000
0000
0000
,
1001
0000
0000
0000
,
1001
0000
0000
0000
,
0110
0000
0000
0000
,
0110
0000
0000
0000
,
0110
0000
0000
0000
,
0110
0000
1000
0000
,
0001
0000
0000
0000
,
0100
0000
0000
0000
,
1000
0000
0000
0000
,
0100
0000
0000
0000
,
0001
0000
0000
0000
,
0010
0000
0000
0000
,
1000
0000
0000
0000
,
0010
0000
0000
0000
,
0001
0000
0001
0000
,
1000
0000
1000
0000
,
0010
0000
0010
0000
,
0100
0000
0100
0000
,
1001
0000
0000
0000
,
2000
0000
0000
3000
,
0002
0000
0000
0003
,
0010
0000
0010
0000
,
0001
0001
0000
0000
,
0100
0000
1000
0000
,
0100
0100
0000
0000
,
0010
0000
0001
0000
,
1000
1000
0000
0000
,
0100
0000
0010
0000
,
0010
0010
0010
0000
,
1001
0000
0000
0000
,
0000
0000
0000
0000
,
1000
0000
0100
0000
,
1000
0000
0100
0000
,
0001
0000
0100
0000
,
0001
0000
0100
0000
,
1000
0000
0010
0000
,
1000
0000
0010
0000
,
0001
0000
0010
0000
,
0001
0000
0010
0000
,
0100
0100
0100
0000
,
0001
0000
1000
0000
,
0010
0010
0010
0000
,
1000
0000
0001
0000
,
1000
1000
1000
0000
,
0001
0000
0100
0000
,
0001
0001
0001
0000
,
1000
0000
0010
0000
,
1000
0000
0000
0000
,
0001
0000
0000
0000
,
1001
0000
0000
0000
,
1000
0000
0000
0000
,
0001
0000
0000
0000
,
0100
0000
1000
0000
,
0001
0000
0000
0000
,
1000
0000
0000
0000
,
0001
0000
0000
0000
,
0100
0000
0001
0000
,
1000
0000
0000
0000
,
0000
0000
0000
0000
,
0100
0000
0000
0000
,
0000
0000
0000
0000
,
0010
0000
0000
0000
,
0000
0000
0000
0000
,
0100
0000
0000
0000
,
0000
0000
0000
0000
,
0001
0000
0000
0000
,
0000
0000
0000
0000
,
0100
0000
0000
0000
,
0000
0000
0000
0000
,
0010
0000
0000
0000
,
0000
0000
0000
0000
,
0100
0000
0000
0000
,
0000
0000
0000
0000
,
1001
0000
0000
0000
,
1000
0000
0000
0000
,
0001
0000
0000
0000
,
1000
0000
0000
0000
,
0001
0000
0000
0000
,
0100
0000
0000
0000
,
0010
0000
0000
0000
,
0100
0000
0000
0000
,
0010
0000
0000
0000
,
1000
0000
1000
0000
,
0001
0000
0001
0000
,
0100
0000
0100
0000
,
0010
0000
0010
0000
,
1001
0000
0000
0000
,
0000
0000
0000
0000
,
0000
0000
0000
0000
,
0010
0000
0000
0000
,
1000
0000
0000
0000
,
0001
0000
0000
0000
,
1000
0000
1000
0000
,
0001
0000
0000
0000
,
0001
0000
0000
0000
,
1000
0000
0000
0000
,
1000
0000
0010
0000
,
0010
0000
0100
0000
,
0100
0000
0001
0000
,
1000
0000
0010
0000
,
0001
0001
0001
0000
,
0100
0000
0010
0000
,
0100
0000
0001
0000
,
0100
0000
0010
0000
,
1000
1000
1000
0000
,
1001
0000
0000
0000
,
0000
0000
0000
0000
,
0000
0220
0000
0330
;

//--------------- dance-single - DJSuperNOVA ----------------
#NOTES:
     dance-single:
     DJSuperNOVA:
     Easy:
     8:
     0,0,0,0,0:
0000
0000
0000
0000
,
0000
0000
0000
0000
,
1000
0000
0001
0100
,
0001
0000
1000
0100
,
1000
0000
0010
0100
,
0001
0000
0100
1000
,
0100
0000
0010
1000
,
0100
0000
0010
0001
,
1000
0000
0100
1000
,
0001
0010
0100
1000
,
1001
0000
0000
0100
0000
0000
0000
0000
,
1001
0000
0000
0010
0000
0000
0000
0000
,
1001
0000
0000
0100
0000
0000
0000
0000
,
1001
0000
0100
0010
0000
0000
0000
0000
,
1001
0000
0000
0010
0000
0000
0000
0000
,
1001
0000
0000
0100
0000
0000
0000
0000
,
1001
0000
0000
0010
0000
0000
0000
0000
,
1001
0100
0010
0001
,
0001
0010
0100
1000
,
0002
0000
0000
2003
0000
0000
0000
0000
,
3020
0000
0000
0230
0000
0000
0310
0000
,
0002
0000
0000
2003
0000
0000
3000
0000
,
0001
0010
0100
0010
,
2000
0000
0000
3002
0000
0000
0000
0000
,
2003
0000
0000
3200
0000
0000
0310
0000
,
0200
0000
0000
0320
0000
0000
0031
0000
,
1000
0001
1000
0001
,
0100
0010
0100
0010
,
1000
0100
1000
0100
,
0010
0001
0010
0001
,
1001
0000
0000
0000
,
1000
0100
0010
0001
,
1000
0100
1000
0000
,
0001
0000
0000
0001
0000
0000
0001
0000
0000
0000
0100
0000
0000
0000
0020
0000
,
0200
0000
0000
0330
0000
0100
0000
0000
,
1000
0000
0000
1000
0000
0000
1000
0000
0000
0000
0100
0000
0000
0000
0020
0000
,
0002
0000
0000
0033
0000
0001
0000
0000
,
0100
0000
0000
0100
0000
0000
0010
0000
0000
0000
1000
0000
0000
0000
0001
0000
,
0100
0000
0000
0010
0000
0000
0020
0000
0000
0000
2000
0000
3030
0000
0000
0000
,
1000
0000
0000
1000
0000
0000
0001
0000
0000
0000
1000
0000
0000
0000
0100
0000
,
0010
0000
0000
0100
0000
0000
1000
0000
0001
0000
0000
0010
0000
0000
0100
0000
,
1001
0000
0000
0000
,
0000
0000
0000
0000
,
1000
0100
0001
0101
,
0001
0100
1000
1100
,
1000
0100
0010
0110
,
0100
0010
1000
1001
,
0001
0100
0010
0101
,
1000
0100
0001
1001
,
0100
1000
0010
1100
,
0001
0000
0010
0000
1000
0100
0001
0000
,
1001
0000
0100
0000
0010
0001
0010
0000
,
1000
0000
0001
0000
0100
1000
0100
0000
,
0010
0000
1000
0000
0001
0100
0001
0000
,
0010
0000
1000
0000
0100
1000
0100
0000
,
0001
0000
1000
0000
0010
0100
0010
0000
,
1000
0000
0001
0000
0100
0010
0100
0000
,
0001
0000
1000
0000
0100
1000
0100
0000
,
0010
0000
0001
0000
0010
0001
0010
0000
,
0002
0000
0023
0000
,
0230
0000
2300
0000
,
3100
0010
0100
1000
,
0001
0010
0100
1000
,
0001
0100
0010
1000
,
0100
1000
0010
0001
,
0100
0010
0001
0010
,
0001
0100
0010
1000
,
0001
0100
0010
0100
,
1000
0100
0010
0110
,
1000
0000
0001
0000
,
1000
0010
1000
0000
,
0001
0000
0100
0000
,
0001
0010
0001
0000
,
0100
0000
0010
0000
,
1000
0100
1000
0000
,
0010
0000
0100
0000
,
0001
0010
0001
0000
,
0100
0000
0010
0000
,
1000
0001
1000
0000
,
0010
0000
0100
0000
,
0010
0100
0010
0000
,
1000
0000
0100
0000
,
0001
0100
0001
0000
,
1000
0000
0100
0000
,
0010
0100
0010
0000
,
1001
0000
0100
0000
,
0001
0010
0100
1000
,
0002
0000
0000
2000
0000
0000
3003
0000
,
0020
0000
0000
0230
0000
0000
1300
0000
,
0002
0000
0000
0200
0000
0000
0303
0000
,
0001
0100
0010
1000
,
0200
0000
0000
0020
0000
0000
0330
0000
,
2000
0000
0000
3200
0000
0000
0320
0000
,
0230
0000
0000
0320
0000
0000
0032
0000
,
1003
0100
1000
0100
,
0001
0100
0001
0100
,
1000
0010
1000
0010
,
0001
0010
0001
0010
,
1001
0100
0010
0001
,
1000
0010
0100
0000
,
0001
0010
0100
0000
,
0001
0000
0100
0000
0010
1000
0010
0000
,
0100
0000
0001
0000
1000
0100
1000
0000
,
0010
0000
0100
0000
0001
0010
0001
0000
,
0100
0000
0010
0000
1000
0001
1000
0000
,
1001
0000
0100
0000
0001
0010
0001
0000
,
0100
0000
0010
0000
1000
0100
1000
0000
,
0010
0000
0100
0000
0001
0100
1000
0000
,
0100
0000
0010
0000
1000
0100
0001
0000
,
1000
0100
1000
0100
,
0001
0100
0001
0100
,
0010
0100
0010
1000
,
0001
0001
0001
0000
1000
1000
1000
0000
,
1001
0100
0010
0001
,
1000
0001
0100
0010
,
1000
0001
0010
1000
,
0100
0100
0100
0000
0010
0010
0010
0000
,
1000
0100
1000
0100
,
0010
0001
0010
0001
,
0000
0220
0000
0330
;

//--------------- dance-single - DJSuperNOVA ----------------
#NOTES:
     dance-single:
     DJSuperNOVA:
     Medium:
     12:
     0,0,0,0,0:
0000
0000
0000
0000
,
0000
0000
0000
0000
,
1000
0100
1000
0010
0000
0100
0010
0001
,
1000
0100
1000
0010
0000
0100
0010
0001
,
0010
0100
1000
0001
0000
1000
0100
0010
,
0100
1000
0100
0001
0000
1000
0100
0001
,
0100
1000
0100
0010
0000
0100
1000
0010
,
0100
1000
0100
0010
0000
0100
0010
0001
,
0010
0001
0100
0010
0000
0100
0001
0010
,
0001
0100
0110
0010
0100
1000
1001
0000
,
0110
0000
0000
0000
0000
0100
0010
0000
0000
0000
0000
0000
0000
0000
0000
0000
,
1001
0000
0000
0000
0000
1000
0010
0000
0000
0000
0000
0000
0000
0000
0000
0000
,
0110
0000
0000
0000
0000
0100
0001
0000
0000
0000
0000
0000
0000
0000
0000
0000
,
1001
0000
1000
0100
0001
0000
0100
0000
0000
0000
0000
0000
0000
0000
0000
0000
,
0110
0000
0000
0000
0000
1000
0100
0000
0000
0000
0000
0000
0000
0000
0000
0000
,
1001
0000
0000
0000
0000
0001
0100
0000
0000
0000
0000
0000
0000
0000
0000
0000
,
0110
0000
0000
0000
0000
0001
0100
0000
0000
0000
0000
0000
0000
0000
0000
0000
,
1001
0000
0100
1000
0010
0100
0001
0000
,
1001
0000
0100
1000
0010
0000
0100
0000
,
0101
0000
0010
0002
0100
0000
1003
0000
,
1010
0000
0100
0020
1000
0000
0031
0000
,
1001
0000
0100
0002
0010
0000
0103
0000
,
1001
0000
0100
0010
0001
0000
0100
0000
,
1100
0000
0010
0100
0001
0100
0010
0000
,
0101
0000
1000
0100
0001
0000
1100
0000
,
0011
0000
0001
0100
1000
0000
0101
0000
,
1000
0100
1000
0100
0010
0001
0010
0001
,
1000
0010
1000
0010
0100
0001
0100
0001
,
1000
0100
1000
0001
0100
0001
0010
0100
,
1000
0100
1000
0001
0100
0001
0010
0100
,
1001
0000
0000
0000
,
0100
0010
0100
0010
,
1000
0001
1000
0001
,
1000
0000
0000
1000
0000
0000
0010
0000
0000
0000
0100
0000
0000
0000
1000
0000
,
0100
0010
0002
0000
0000
0000
0000
0000
0000
0000
0103
0000
0000
0000
0000
0000
,
0001
0000
0000
0001
0000
0000
0010
0000
0000
0000
1000
0000
0000
0000
0001
0000
,
0100
0010
2000
0000
0000
0000
0000
0000
0000
0000
3010
0000
0000
0000
0000
0000
,
1001
0000
0000
0100
0000
0000
0010
0000
0000
0000
1000
0000
0000
0000
0010
0000
,
0100
0000
0000
0001
0000
0000
2000
0000
0000
0000
0002
0000
3003
0000
0000
0000
,
1001
0000
0000
0100
0000
0000
0010
0000
0000
0000
0100
0000
0000
0000
0001
0000
,
2000
0000
0000
3200
0000
0000
0302
0000
0023
0000
0000
2030
0000
0000
3200
0000
,
0302
0000
0000
0003
,
0001
0100
1000
0010
,
1000
0100
0010
0001
0000
1100
0000
0000
,
0001
0100
0010
0001
0000
1010
0000
0000
,
0001
0100
0010
1000
0000
0101
0000
0000
,
1000
0010
0100
0001
0000
0110
0000
0000
,
1000
0001
0100
0010
0000
1010
0000
0000
,
0001
0100
0001
1000
0000
0101
0000
0000
,
0010
0001
1000
0100
0000
1001
0000
0000
,
0010
0000
0100
0000
0001
0000
1000
0000
0001
0100
0001
0000
1000
0100
1000
0000
,
0010
0001
0100
0001
0010
0100
1000
0000
,
0010
0100
0001
1000
0100
1000
0010
0000
,
1000
0100
0010
0100
0001
0100
1000
0000
,
0001
0100
1000
0100
0010
0100
0001
0000
,
0010
0100
1000
0001
0100
0001
0010
0000
,
1000
0010
0100
1000
0001
0010
0001
0000
,
1000
0100
0001
0010
0001
0100
1000
0000
,
0100
0010
0001
1000
0010
0100
1000
0000
,
0001
0100
0010
1000
,
0100
1000
0100
0010
,
0001
1000
0100
1000
0010
1000
0100
0000
,
1010
0000
0001
0100
0001
0010
0001
0000
,
0110
0000
0100
0001
0100
0010
0100
0000
,
1001
0000
0010
1000
0010
0100
0010
0000
,
1000
0100
1000
0010
0100
0001
0010
0000
,
0001
0010
0001
0100
0010
1000
0100
0000
,
1000
0001
0100
1000
0010
0001
1000
0000
,
1000
0100
0010
0001
0100
0010
1000
0001
,
1000
0100
1000
0010
,
0100
0001
1000
0000
,
0001
0100
0001
0100
,
0010
1000
0010
0000
,
0100
0001
0010
0001
,
0100
1000
0100
1000
,
0010
0100
0001
0100
,
1000
0100
0001
0000
,
1000
0001
0100
0001
,
1000
0100
0010
0000
,
0001
1000
0100
1000
,
0010
0001
0010
0000
,
1000
0100
0001
0100
,
1000
0010
0001
0010
,
0100
0001
1000
0010
,
0100
1000
0100
0010
,
1001
0000
0000
0000
,
0002
0023
0230
2300
,
3002
0000
0000
2003
0000
0000
0000
0000
,
3020
0000
0000
0230
0000
0000
2300
0000
,
3002
0000
0000
0203
0000
0000
0310
0000
,
0002
0203
0320
2030
,
3200
0000
0000
0320
0000
0000
0000
0000
,
2030
0000
0000
3200
0000
0000
0320
0000
,
0230
0000
0000
0320
0000
0000
0032
0000
,
1003
0100
1000
0100
0001
0100
0001
0100
,
1000
0010
1000
0010
0001
0010
0001
0010
,
1000
0100
0001
0100
1000
0010
0001
0010
,
0001
0100
1000
0100
0001
0010
1000
0010
,
0002
0000
0000
0000
,
2000
0000
0000
0000
,
0000
0000
3003
0000
,
1001
0000
0100
2000
0010
0000
3001
0000
,
0020
0000
0031
0200
0010
0000
1300
0000
,
0001
0000
0000
1000
0100
0000
1000
0000
0010
0000
0100
0000
0000
0000
0001
0000
,
0100
0000
0000
0001
0010
0000
0001
0000
0100
0000
0010
0000
1000
0000
0000
0000
,
0120
0230
2300
3002
,
1003
0000
0100
0020
1000
0000
0031
0000
,
0100
0000
0001
0020
1000
0000
0031
0000
,
0100
0001
0100
0010
1000
0100
0010
0000
,
1000
0010
0100
0010
1000
0100
1000
0010
,
0100
0001
0100
0010
0001
0010
0100
0001
,
0100
0010
0100
1000
0100
1000
0001
0000
,
1000
0100
1000
0100
1000
0000
0010
0000
0100
0001
0100
0001
0100
0000
0010
0000
,
0001
1000
0100
1000
0010
0100
0002
0000
,
0203
0000
0310
2000
0100
0000
3001
0000
,
0100
0010
0001
0200
0010
0000
1300
0000
,
0001
0010
0001
0010
0001
0000
0100
0000
1000
0100
1000
0100
1000
0000
0010
0000
,
1001
0100
0010
0100
,
0010
0001
0100
1000
,
0000
0220
0000
0330
;

//--------------- dance-single - DJSuperNOVA ----------------
#NOTES:
     dance-single:
     DJSuperNOVA:
     Hard:
     17:
     0,0,0,0,0:
0000
0000
0000
0000
,
0000
0000
0000
0000
,
0001
1000
0100
0010
0000
1000
0100
0010
,
0001
1000
0100
0010
0000
0100
0001
0010
,
1000
0100
0010
0001
0000
0100
0010
0001
,
0010
0100
1000
0010
0000
0100
0010
0001
,
1000
0100
0001
0010
0000
0100
0010
0001
,
0100
1000
0100
0010
0000
1000
0100
0001
,
0010
0100
0010
0001
0000
1000
0100
0001
,
0010
0100
0110
0100
1000
0100
1001
0000
,
0110
1000
0100
0010
0000
0100
0020
0000
0000
0000
0000
0000
0030
0000
0000
0000
,
1001
0100
0010
0001
0000
0100
0020
0000
0000
0000
0000
0000
0030
0000
0000
0000
,
0101
1000
0010
0100
0000
0010
0200
0000
0000
0000
0000
0000
0300
0000
0000
0000
,
0110
1000
0100
0010
0110
0000
0020
0000
0000
0000
0000
0000
0030
0000
0000
0000
,
1001
0010
0100
1000
0000
0100
0002
0000
0000
0000
0000
0000
0003
0000
0000
0000
,
0101
0010
0100
1000
0000
0100
2000
0000
0000
0000
0000
0000
3000
0000
0000
0000
,
1100
0010
0001
1000
0000
0100
0020
0000
0000
0000
0000
0000
0030
0000
0000
0000
,
1001
0000
0010
0100
1001
0010
0100
0000
,
0012
0000
0103
0010
0110
0001
1000
0000
,
0011
0000
1000
0100
0001
0000
0101
0000
,
1010
0000
0010
0100
0001
0100
0010
0000
,
1100
0010
0001
1000
0001
0100
0010
0000
,
0021
0000
0130
0010
0110
0100
1000
0000
,
1010
0000
1000
0100
0001
0000
1100
0000
,
0011
0000
1000
0010
0001
0100
0001
0000
,
0001
0100
0110
0010
1000
0100
0010
0001
,
1001
0100
0001
0100
1000
0100
0001
0100
,
1000
0100
0001
0100
0001
0010
0001
0100
,
0001
1000
0100
0010
0100
0001
1000
0010
,
1000
0100
1000
0100
0010
0001
0010
0001
1000
0010
1000
0010
0100
0001
0100
0001
,
1000
0000
0000
0000
,
1000
0010
1000
0010
1000
0010
1000
0010
,
0100
0001
0100
0001
0100
0001
0100
0001
,
1000
0000
0001
0100
0000
0000
0010
0000
0100
0000
0110
0000
0000
0000
1000
0000
,
0100
0010
0002
0000
0000
0000
0000
0000
0000
0000
1003
0000
0000
0000
0000
0000
,
0101
0000
0100
1000
0000
0000
0011
0000
0000
0000
0110
0000
0000
0000
1000
0000
,
0100
2000
0020
0000
0000
0000
0000
0000
3030
0000
0110
0000
0000
0000
0000
0000
,
1001
0000
0100
0001
0000
0000
0010
0000
0000
0000
1100
0000
0000
0000
0010
0000
,
0101
0000
1000
0100
0000
0010
0002
0000
0000
0000
2000
0000
0000
0000
3003
0000
,
1001
0000
0100
0010
0000
0100
0010
0000
0001
0000
0100
0000
0010
0000
1000
0000
,
0100
0000
1000
0000
0010
0000
0001
0000
0100
0001
0100
0001
1000
0010
1000
0010
,
0200
0000
0000
0000
,
0301
1000
0001
1000
0010
0100
1000
0100
,
0001
0100
0010
0001
0000
1100
0000
0000
,
0101
1000
0100
0010
0000
0101
0000
0000
,
1100
0100
0010
0001
0000
1010
0000
0000
,
1001
0010
0100
0001
0000
1100
0000
0000
,
1001
0100
0010
0001
0000
0101
0000
0000
,
0110
0100
1000
0001
0000
0011
0000
0000
,
1001
0010
1000
0001
0000
0101
0000
0000
,
0010
0000
1000
0000
0100
0000
0001
0000
1000
0010
0001
0010
1000
0100
0001
0100
,
1000
0100
0010
0001
1000
0001
0010
0100
1000
0010
1000
0000
0001
0010
0001
0000
,
1000
0100
0010
0001
1000
0001
0010
0100
1000
0001
1000
0000
0001
1000
0001
0000
,
0001
0100
0010
1000
0001
1000
0010
0100
0001
0100
0001
0000
1000
0100
1000
0000
,
0010
0100
0001
0100
0010
1000
0010
0100
0001
0010
0100
0000
0100
1000
0010
0000
,
1000
0100
1000
0010
0100
0001
0010
0001
0100
1000
0001
0000
0100
0001
1000
0000
,
0001
0010
0100
0001
0010
0001
0100
0010
1000
0001
1000
0000
1000
0001
1000
0000
,
0100
1000
0010
0100
1000
0010
0100
0010
0001
1000
0001
0000
0001
1000
0001
0000
,
1000
0100
0010
0100
0010
0001
0100
0010
0001
0010
0100
1000
0010
0100
1000
0001
,
1000
0100
1000
0100
1000
0100
1000
0100
,
0010
0001
0010
0001
0010
0001
0010
0001
,
1000
0100
0010
1000
1010
0100
0010
1000
,
0001
0100
0010
0100
1100
0100
0010
1000
,
0001
0100
0010
1000
0110
1000
0100
1000
,
0001
0100
0010
0100
0101
0010
0001
1000
,
1001
0100
0001
1000
1010
1000
0100
1000
,
0001
0100
0010
1000
1010
0100
0001
0100
,
1000
0100
0001
0100
0110
1000
0100
1000
,
0001
0000
0100
0000
0010
0000
1000
0000
0001
0010
0001
0010
0100
1000
0100
1000
,
0010
1000
0100
1000
0010
0000
0100
0000
,
0001
0010
0100
1000
,
0100
0010
0100
0001
0100
0000
1000
0000
,
0010
0001
0100
0010
,
1000
0100
1000
0100
0001
0100
0001
0100
,
1000
0010
1000
0010
0001
0010
0001
0010
,
0100
0001
1000
0010
,
0100
1000
0001
0100
,
0001
1000
0010
0001
1000
0000
0100
0000
,
0001
1000
0100
0010
,
0100
1000
0001
1000
0010
0000
0100
0000
,
0001
1000
0100
0010
,
0001
0100
0010
1000
0100
1000
0100
0010
,
0001
0100
0001
0100
0001
1000
0010
1000
,
0001
0100
0010
1000
0100
0010
0001
0100
,
0001
0010
0100
1000
0100
1000
0100
0010
,
0001
0000
0001
0100
1100
0000
1000
0000
,
0012
0000
0103
0010
0110
0001
1000
0000
,
0011
0000
1000
0100
0001
0000
0101
0000
,
1010
0000
0010
0100
0001
0100
0010
0000
,
1100
0010
0001
1000
0001
0100
0010
0000
,
0021
0000
0130
0010
0110
0100
1000
0000
,
1010
0000
1000
0100
0001
0000
1100
0000
,
0011
0000
1000
0010
0001
0100
0001
0000
,
0001
0100
0110
0010
1000
0100
0010
0001
,
1001
0100
0001
0100
1000
0100
0001
0100
,
1000
0100
0001
0100
0001
0010
0001
0100
,
0001
1000
0100
0010
0100
0001
1000
0010
,
1000
0100
1000
0100
0010
0001
0010
0001
1000
0010
1000
0010
0100
0001
0100
0001
,
2000
0000
0000
3000
,
1000
0100
0001
0100
0001
0010
1000
0001
,
1000
0100
0001
1000
0100
1000
0010
0001
,
0101
0100
0010
0001
1000
0001
0100
1000
,
0100
1000
0100
0010
0001
0100
0101
0000
,
1001
0000
0000
0100
0001
0000
0100
0000
0010
0000
1000
0000
0000
0000
0100
0000
,
1000
0000
0000
1000
0010
0000
0001
0000
0100
0000
0001
0000
1000
0000
0010
0000
,
0110
1000
0001
0100
0010
0100
0001
1000
,
0100
1000
0010
0001
0010
1000
0010
0100
,
1001
0100
0001
0100
0010
0100
1000
0100
,
0001
0000
0010
0000
0100
0000
0010
0000
0001
0010
0100
1000
0010
0100
1000
0100
,
0001
0000
0010
0100
0010
0000
1000
0000
0100
0000
0010
0000
0001
0000
0100
0000
,
0010
0000
1000
0001
1000
0000
0010
0000
1000
0000
0100
0000
0001
0000
0100
0000
,
0010
0000
0100
1000
0100
0000
0010
0000
0001
0000
0100
0000
1000
0000
0001
0000
,
1000
0100
1000
0100
1000
0000
0001
0100
0001
0100
0001
0100
0001
0000
0001
0100
,
0010
0000
0100
0010
0001
0000
0100
0000
1000
0000
0100
0000
0010
0000
1000
0000
,
0001
0000
0100
1000
0010
0000
1000
0000
0001
0000
0010
0000
0100
0000
0001
0000
,
1000
0000
0001
0100
0010
0000
0100
0000
0010
0000
0100
0000
1000
0000
0010
0000
,
0100
0010
0100
0010
0100
0000
0100
0001
0100
0010
1000
0010
0100
0000
1000
0100
,
0001
0010
0001
0010
0001
0100
0001
0100
,
0010
0100
0010
0100
0010
1000
0010
1000
,
0000
0220
0000
0330
;

//--------------- dance-single - DJSuperNOVA ----------------
#NOTES:
     dance-single:
     DJSuperNOVA:
     Challenge:
     18:
     0,0,0,0,0:
0000
0000
0000
0000
,
0000
0000
0000
0000
,
0001
1000
0100
0010
0000
0100
0001
0010
,
0001
1000
0100
0010
0000
0100
0001
0010
,
0001
1000
0100
0001
0000
0100
1000
0001
,
0010
0100
1000
0001
0000
0100
0010
0001
,
0100
1000
0100
0001
0000
0100
0010
0001
,
0010
1000
0100
0010
0000
0100
1000
0001
,
0010
0001
0100
0010
0000
1000
0100
0001
,
0010
0100
0110
0100
1000
0010
0110
0000
,
1001
0100
0010
0001
0000
0100
0020
0000
0000
0000
0000
0031
0000
0000
0000
0000
,
1001
0100
0010
1000
0000
0100
0020
0000
0000
0000
0000
1030
0000
0000
0000
0000
,
0101
1000
0100
0001
0000
0100
0020
0000
0000
0000
0000
0031
0000
0000
0000
0000
,
0101
0001
0100
0010
0110
1000
0200
0000
0000
0000
0000
0310
0000
0000
0000
0000
,
1001
0100
0010
0001
0000
1000
0200
0000
0000
0000
0000
0310
0000
0000
0000
0000
,
1001
0100
0010
1000
0000
0001
0200
0000
0000
0000
0000
0310
0000
0000
0000
0000
,
1100
0010
0001
0100
0000
0001
2000
0000
0000
0000
0000
3010
0000
0000
0000
0000
,
0101
0010
0100
1100
0100
0010
0021
0000
,
0031
0100
1000
0010
1010
0010
0100
0000
,
0011
0100
1000
0200
0001
0000
1300
0000
,
0101
1000
0010
0100
0110
0010
0002
0000
,
1003
0010
0100
0001
0101
0100
2000
0000
,
3010
0100
0001
0010
0011
0100
1000
0000
,
0110
0001
0100
0020
1000
0000
0031
0000
,
0011
0100
0010
1000
1100
0010
0001
0000
,
1010
0100
0010
0001
0110
0010
1000
0100
,
0001
1000
0100
1000
0001
1000
0001
0100
,
0001
1000
0001
1000
0100
1000
0001
1000
,
0010
0100
0010
0100
0010
1000
0010
1000
0010
0100
0001
0100
0001
0010
0001
0010
,
0100
1000
0100
0010
1000
0010
0100
1000
0100
0010
0001
0100
0001
0010
0100
0010
,
0001
0000
0000
0000
,
1000
0100
0001
0100
0010
0100
1000
0001
,
0100
1000
0010
0100
0001
1000
0100
0010
,
0011
0000
1000
0010
0000
0000
0001
0000
0100
0000
1000
0000
0000
0000
0110
0000
,
0100
0010
0002
0000
0000
0000
0000
0000
0003
0000
1001
0000
0000
0000
0000
0000
,
1100
0000
0001
0100
0000
0000
0010
0000
1000
0000
0100
0000
0000
0000
0011
0000
,
0100
0001
0102
0000
0000
0000
0000
0000
0003
0000
0101
0000
0000
0000
0000
0000
,
1100
0000
0010
0001
0000
0000
0011
0000
0000
0000
1100
0000
0000
0000
0010
0000
,
0110
0000
1000
0010
0000
0100
0020
0000
0000
0000
0002
0000
0000
0000
0033
0000
,
0101
0000
0010
1000
0000
0000
0011
0000
0000
0000
1100
0000
0000
0000
0101
0000
,
1000
0010
0100
0001
1000
0010
0100
0001
0100
0010
1000
0001
0100
0010
1000
0001
,
1001
0000
0000
0000
,
1000
0100
0001
0100
1000
0010
0001
0010
,
1000
0100
1000
0010
0000
0101
1000
0000
,
0010
0100
1000
0001
0000
1010
0001
0000
,
0001
0100
1000
0100
0000
0110
0001
0000
,
0010
0100
0001
1000
0000
1100
0010
0000
,
0011
0100
0010
1000
0100
0011
0001
0000
,
1000
0100
0001
0100
0010
0101
0100
0000
,
0010
1000
0100
1000
0001
0110
0010
0000
,
0001
0000
1000
0000
0100
0000
0010
0000
1000
0100
0010
0001
1000
0001
0010
0100
,
1000
0100
0010
0100
0010
0001
0010
0100
0010
0010
0100
0001
1000
1000
0010
0100
,
0001
1000
0010
0100
0001
0100
0010
1000
0100
0010
0010
1000
0001
1000
1000
0010
,
0100
0001
1000
0100
0010
0001
0100
0010
1000
1000
0100
0010
0001
0001
0100
0010
,
1000
0010
1000
0001
0100
0010
1000
0001
0100
0100
0010
1000
0001
0001
1000
0010
,
0100
0001
1000
0100
1000
0010
0100
0001
0010
1000
0100
1000
0100
0010
0100
0010
,
0001
0010
0001
0100
0010
1000
0100
1000
0001
0100
0001
1000
0010
0100
0001
1000
,
0100
1000
0001
0100
0001
0010
0100
1000
0100
1000
0001
0100
0010
1000
0100
0010
,
0001
1000
0100
1000
0100
0001
0100
0001
0100
0010
0100
1000
0001
0010
0100
0010
,
1000
0100
1000
0010
0001
0010
0100
1000
,
0010
0001
0100
1000
0100
0001
0010
0001
,
1000
0100
0010
0100
0101
0100
0010
1000
,
0001
0100
0001
0010
0011
0100
0010
1000
,
0001
1000
0010
1000
1100
1000
0010
0100
,
0001
0100
0010
1000
1001
1000
0010
0100
,
0110
1000
0001
0100
1010
1000
0100
1000
,
1001
0100
0010
0100
0101
1000
0010
1000
,
1001
0010
0001
0100
1100
0010
0001
1000
,
0001
0100
0001
0100
0010
0100
1000
0010
0100
0001
0010
0001
0100
0010
1000
0100
,
0001
0010
0001
0100
0010
1000
0100
0001
,
0100
1000
0010
0001
0100
0001
0100
1000
,
0010
0001
0100
0010
0100
1000
0001
0100
,
0001
1000
0100
0010
0001
1000
0100
1000
,
0010
0001
0010
0001
1000
0100
1000
0100
,
0001
0100
0001
0100
1000
0010
1000
0010
,
0001
0100
0010
1000
0100
0010
0001
1000
,
0100
1000
0001
0100
0001
0010
0100
1000
,
1001
0001
0100
0010
1000
0100
0001
0100
,
1000
0010
0100
0001
0010
0001
0100
1000
,
0100
0001
0100
0010
1000
0100
1000
0001
,
0100
0010
1000
0001
0100
0010
1000
0100
,
1000
0001
0100
0001
0010
0001
1000
0100
,
0001
0100
1000
0010
0001
0100
1000
0010
,
0100
0010
0001
0100
1000
0010
0100
0001
,
1000
0100
1000
0001
0100
0010
1000
0010
,
0110
0000
1000
0100
0001
0000
0110
0000
,
0101
0100
0010
1000
1100
0100
0010
0001
,
0101
0000
0010
0200
1000
0000
0301
0000
,
1010
1000
0100
0010
0110
0001
1000
0100
,
0101
0000
0100
0010
1001
1000
0000
1000
,
1001
0100
0010
0100
1100
0100
0010
0001
,
0101
0000
1000
0100
0120
0000
0031
0000
,
0101
0001
1000
0100
0110
0001
0000
0001
,
0101
0100
0010
1000
0100
0110
0010
0110
,
1001
0100
0001
1000
0100
1000
0001
1000
,
0001
0100
1000
0001
1000
0100
1000
0001
,
1000
0100
1000
0001
0100
0001
1000
0010
1000
0001
0010
0001
1000
0100
1000
0100
,
0001
0010
0001
1000
0010
1000
0100
1000
0010
0100
0001
0100
0010
1000
0100
1000
,
0001
1000
0001
1000
0001
1000
0001
1000
0010
0100
0010
0100
0010
0100
0010
0100
,
1000
0001
0100
1000
0001
0010
1000
0100
,
0001
1000
0010
0001
0100
1000
0001
0010
,
1100
0001
0100
0001
0010
1000
1100
0100
,
0010
0100
0001
0100
0010
1000
1010
0100
,
0001
0000
0100
0010
0001
0000
0100
0000
0010
0000
1000
0000
0000
0000
0100
0000
,
0110
1000
0010
0100
0001
1000
1001
0000
,
0110
0100
0001
0010
0100
0001
1000
0100
,
1100
0010
0001
0010
0100
0010
0100
0001
,
0101
0010
0100
1100
0100
0010
0110
0100
,
0001
0100
0010
1000
0001
0010
0100
1000
0001
0100
0001
0100
0010
1000
0100
0010
,
0001
0000
0100
1000
0010
0000
0100
0000
0001
0000
1000
0000
0010
0000
1000
0000
,
0001
0000
0100
1000
0010
0000
0001
0000
1000
0000
0001
0000
0100
0000
0001
0100
,
0010
0000
0001
0000
1000
0000
0010
0000
0100
0000
1000
0100
0001
0000
0100
0000
,
0010
0001
0100
0001
0010
0000
0010
1000
0100
1000
0010
1000
0100
0000
0100
0010
,
0001
0000
1000
0100
0010
0000
0100
0000
0001
0000
0010
0000
1000
0000
0100
0000
,
1000
0000
0010
0001
0100
0000
0010
0000
1000
0000
0001
0000
0100
0000
0010
0001
,
1000
0000
0100
0000
0010
0000
0100
0000
0001
0000
0100
0010
1000
0000
0100
0000
,
0001
0100
0001
0010
0100
0000
0010
1000
0100
1000
0010
0001
0100
0000
0100
0010
,
0100
1000
0010
0100
0001
0100
1000
0010
,
0001
0010
1000
0010
0001
0100
1000
0010
,
0000
0220
0000
0330
;
