#TITLE:Cross Time;
#SUBTITLE:;
#ARTIST:Brandy;
#TITLETRANSLIT:;
#SUBTITLETRANSLIT:;
#ARTISTTRANSLIT:;
#GENRE:;
#CREDIT:DJSuperNOVA;
#MUSIC:Cross Time.ogg;
#BANNER:Cross Time.png;
#BACKGROUND:Cross Time-bg.png;
#CDTITLE:;
#SAMPLESTART:45.033;
#SAMPLELENGTH:24.000;
#SELECTABLE:YES;
#OFFSET:1.467;
#BPMS:0.000=160.000
,4.000=80.000
,28.000=160.000
,232.000=80.000
,252.000=160.000
;
#STOPS:;
#BGCHANGES:;
#FGCHANGES:;

//--------------- dance-single - DJSuperNOVA ----------------
#NOTES:
     dance-single:
     DJSuperNOVA:
     Beginner:
     3:
     0,0,0,0,0:
0000
0000
0000
0000
,
1000
0000
0001
0000
,
1000
0000
0001
0000
,
0100
0000
0010
0000
,
0100
0000
0010
0000
,
1000
0000
1000
0000
,
0001
0000
0001
0000
,
1001
0000
0000
0000
,
1000
0000
0000
0000
,
0001
0000
0000
0000
,
0001
0000
0000
0000
,
1001
0000
0000
0000
,
1000
0000
0000
0000
,
0010
0000
0000
0000
,
0100
0000
0000
0000
,
1001
0000
1000
0000
,
0001
0000
0000
0000
,
1001
0000
0001
0000
,
1000
0000
0000
0000
,
1001
0000
0100
0000
,
0010
0000
0000
0000
,
0100
0000
0010
0000
,
0001
0000
1000
0000
,
1000
0000
0001
0000
,
0001
0000
1001
0000
,
0100
0000
0000
0000
,
0010
0000
0000
0000
,
1000
0000
0000
0000
,
0001
0000
0001
0000
,
0100
0000
0000
0000
,
0010
0000
0000
0000
,
0010
0000
0010
0000
,
1000
0000
0000
0000
,
1001
0000
0000
0000
,
0001
0000
0000
0000
,
1000
0000
0000
0000
,
0010
0000
0010
0000
,
0100
0000
0000
0000
,
0001
0000
0000
0000
,
1000
0000
0000
0000
,
1000
0000
0100
0000
,
1001
0000
0000
0000
,
0001
0000
0000
0000
,
1000
0000
0000
0000
,
0010
0000
0010
0000
,
1000
0000
0000
0000
,
0100
0000
0000
0000
,
0001
0000
0000
0000
,
1000
0000
0001
0000
,
1001
0000
0000
0000
,
0001
0000
0000
0000
,
1000
0000
0000
0000
,
1000
0000
0000
0000
,
0010
0000
0000
0000
,
0100
0000
0000
0000
,
0100
0000
0000
0000
,
0010
0000
0010
0000
,
0100
0000
0100
0000
,
0001
0000
0001
0000
,
1000
0000
1000
0000
,
0100
0000
0010
0001
,
1000
0000
0100
0000
,
0001
0000
1000
0100
,
0001
0000
0000
0000
,
0001
0000
0000
0000
,
1000
0000
0000
0000
,
1000
0000
0000
0000
,
0010
0000
0000
0000
,
0010
0000
0000
0000
,
0100
0000
0100
0000
,
1001
0000
1000
0000
,
0100
0000
0000
0000
,
0010
0000
0000
0000
,
1000
0000
0000
0000
,
0001
0000
0001
0000
,
0100
0000
0000
0000
,
0010
0000
0000
0000
,
0010
0000
0010
0000
,
1000
0000
0000
0000
,
1001
0000
0000
0000
,
0001
0000
0000
0000
,
1000
0000
0000
0000
,
0010
0000
0010
0000
,
1001
0000
0000
0000
,
0001
0000
0000
0000
,
1000
0000
0000
0000
,
1000
0000
0100
0000
,
1001
0000
1001
0000
;

//--------------- dance-single - DJSuperNOVA ----------------
#NOTES:
     dance-single:
     DJSuperNOVA:
     Easy:
     8:
     0,0,0,0,0:
0000
0000
0000
0000
,
1000
0001
1000
0010
,
1000
0001
0100
0001
,
1001
0000
0000
0000
1000
0000
0000
0000
0001
0000
0000
1000
0000
1000
0000
0000
,
0001
0000
0000
0000
0100
0000
0000
0000
0010
0000
0000
1000
0000
0000
1001
0000
,
0001
0000
1000
0000
0010
0000
0100
0001
,
1000
0000
0010
0000
0100
0000
0001
0100
,
1000
0100
0010
0010
,
0100
0001
1001
1001
,
1000
0100
0001
0100
,
0010
0000
0010
0000
0010
0000
0010
0100
,
0010
1000
0010
0100
,
0001
0000
1000
0100
0001
0000
1001
0000
,
0010
0001
0100
1000
,
0110
0000
0000
0000
1000
0000
0000
0000
0001
0000
0000
0001
0000
0000
0001
0000
,
1000
0000
0010
0000
0100
0100
0000
0001
,
0000
0001
0000
1000
0100
0000
0010
0000
,
0001
0000
1000
0000
0010
0010
0000
1000
,
0000
0001
0000
1000
0000
1000
0001
0000
,
1000
0000
0010
0000
0100
0100
0000
0001
,
0000
1000
0000
0100
0001
0000
0001
0000
,
1000
0001
1000
0010
,
0110
0000
0000
0000
0100
0000
0000
0000
0001
0000
0000
0001
0000
0000
0001
0000
,
1000
0000
0000
1000
0000
0000
1000
0000
0010
0000
0000
0010
0000
0000
0010
0000
,
0100
0000
0000
0100
0000
0000
0100
0000
1001
0000
0000
1001
0000
0000
1001
0000
,
1000
0100
0001
0100
,
1000
0010
0001
0010
,
1000
0100
0001
0100
,
0010
0100
0010
1000
,
0010
1000
0100
1000
,
0010
0100
0001
0010
,
0001
0001
1000
1000
,
1001
0101
1001
1010
,
1000
0001
0100
0010
,
1000
1000
0001
0100
,
0001
0001
1000
0010
,
1000
0001
1000
0001
,
1000
1000
0010
0100
,
0001
0001
0100
0010
,
1000
1000
0010
0100
,
0001
0100
1001
0110
,
1001
1000
1000
1000
,
0001
0001
0001
0001
,
0100
0100
0010
0010
,
0100
0010
1000
0001
,
0101
1000
0100
0010
,
1010
1000
0100
0010
,
1010
0001
0100
0010
,
1001
0000
0000
0000
0100
0000
0000
0000
1000
0000
0000
0001
0000
0000
1000
0000
,
2001
0000
3010
0100
,
0102
0000
0000
0013
0000
0000
0010
0000
,
0201
0000
0310
1000
,
0120
0000
0000
1030
0000
0000
1000
0000
,
1001
0001
0100
0110
,
0001
1000
0100
1100
,
0010
0001
0100
0101
,
1000
0000
0000
0001
0000
0000
1000
0000
0010
0000
0000
0100
0000
0000
0010
0000
,
1000
0000
0000
0100
0000
0000
1000
0000
0001
0000
0000
0100
0000
0000
0001
0000
,
1000
0001
1000
0001
,
1000
1000
0001
0001
,
1000
0100
0010
1001
,
0001
0100
0010
1000
,
0010
0010
0100
1001
,
1000
1000
1000
1000
,
0001
0001
0001
0001
,
0110
0010
0010
0010
,
0100
0000
0100
0000
0100
0000
0100
1000
,
0001
0001
0100
0100
,
0010
0010
1000
1000
,
0001
0100
0010
1000
,
1000
0010
0100
0101
,
0001
0100
1000
0010
,
0110
0100
0001
0010
,
0101
0001
0010
0100
,
0110
0100
1100
0100
,
0110
0100
0010
0001
,
0101
0001
0010
0100
,
1000
0100
0010
0001
,
1001
0110
1010
0101
,
0001
0000
0000
1000
0000
0000
0001
0000
1000
0000
1000
0000
1000
0000
0000
0000
,
0010
0000
0000
0100
0000
0000
0010
0000
0100
0000
0100
0000
0100
0000
0000
0000
,
1000
0000
0000
0010
0000
0000
0001
0000
0100
0000
0100
0000
0100
0000
0000
0000
,
0001
0000
0000
0100
0000
0000
1000
0000
0010
0000
0000
0001
0000
0000
0100
0000
,
1001
1000
0010
0100
,
0110
0001
1000
0010
,
1010
1000
0100
0001
,
0001
0000
0000
0001
0000
0000
0001
0000
1000
0000
0000
1000
0000
0000
1000
0000
,
0010
0000
0000
0100
0000
0000
0010
0000
1000
0000
0000
0001
0000
0000
1000
0001
;

//--------------- dance-single - DJSuperNOVA ----------------
#NOTES:
     dance-single:
     DJSuperNOVA:
     Medium:
     13:
     0,0,0,0,0:
0000
0000
0000
0000
,
1000
0001
1000
0001
1000
0010
0100
0001
0000
0000
0001
0100
0010
1000
0001
1000
,
0010
1000
0010
0100
0001
0010
0100
1000
0000
0000
1000
0100
1000
0010
0100
0001
,
1000
0000
0000
0000
0010
0000
1000
0100
1000
0000
0000
0000
0001
0000
0100
0000
0001
0000
0000
0000
1000
0000
0010
0000
0000
0000
1000
0000
0010
0000
1000
0000
,
0001
0001
0000
0000
1000
1000
0000
0000
0001
0001
0000
0010
0000
0100
0010
0100
,
0001
0000
1000
0000
0010
0000
0100
0001
0100
0000
0001
0000
0010
0000
0100
0000
0010
0000
1000
0000
0010
0000
1000
0000
0001
0000
0100
0001
0000
0100
0001
0000
,
1000
0000
0001
0000
0100
0010
0100
0010
1000
0000
0100
0000
0010
0000
0001
0000
1000
0010
0000
0010
0000
1000
0010
0000
0010
0000
1000
0010
0000
1000
0010
0000
,
1001
0000
0000
0000
0101
0000
0000
0000
1000
0100
1000
0000
0010
0000
0100
0000
,
0001
1000
0001
0000
0100
0000
0100
0000
1001
0000
0000
0000
0110
0000
0000
0000
,
1000
0001
0100
0001
1000
0100
0001
0100
,
0010
1000
0000
1000
0000
0010
1000
0000
0001
0100
0000
0100
0000
0001
0100
0000
,
1000
0100
0000
0100
0000
1000
0100
0000
0010
0000
0001
0010
0000
0001
0010
0000
,
1000
0010
1000
0000
0100
0000
0100
0000
0011
0000
0000
0000
1100
0000
0000
0000
,
0001
1000
0001
0100
1000
0010
0100
0010
,
1010
0000
0010
0000
1000
0000
1000
0000
0101
0000
0000
0011
0000
0000
1100
0000
,
1001
0000
0001
0000
1000
0010
0000
0100
,
0000
0100
0000
0001
0100
0010
0100
0001
,
1000
0000
0100
0000
0001
1000
0000
0010
,
0000
0010
0000
0100
0000
0100
0010
0100
,
0001
0000
1000
0000
0010
1000
0000
0001
,
0000
0001
0000
1000
0100
1000
0010
0100
,
0001
0010
0100
1000
0001
0100
0010
1000
,
0010
0000
0100
0000
0010
0000
0100
0000
1010
0000
0000
0110
0000
0000
0100
0000
,
0001
0000
0000
0110
0000
0000
1000
0000
0001
0000
0000
1001
0000
0000
1000
0000
,
0010
0000
0000
0011
0000
0000
0100
0000
1010
0000
0000
1010
0000
0000
1010
0000
,
1001
0100
1000
0100
0010
0001
0100
0010
,
0100
0100
1000
0010
0001
1000
0010
1000
,
0100
0100
0001
0010
1000
0010
0100
0010
,
1000
0001
0100
0001
0000
1000
0010
1000
,
0100
0100
1000
0100
0001
0100
0010
1000
,
0001
0001
0100
0010
1000
0010
1000
0001
,
1001
0000
0000
0000
0110
0000
0000
1000
0001
0000
0100
0000
0010
0000
1010
0000
,
0000
0000
0101
0000
0000
0010
1000
0000
0011
0000
0000
0000
1100
0000
0000
0000
,
0010
0010
1000
0001
0100
1000
0100
0001
,
1000
1000
0001
1000
0100
0001
0100
1000
,
0010
0010
0001
0100
0001
0010
0001
0100
,
1000
1000
0010
1000
0100
1000
0010
0100
,
0001
0001
1000
0001
0100
0001
1000
0010
,
0100
0100
0001
1000
0010
1000
0001
1000
,
0010
0010
0100
0001
0100
0010
1000
1010
,
0000
0001
0010
1000
0110
0000
1001
0000
,
0001
0000
1000
0000
0010
0000
1000
0000
0000
0000
1000
0000
0000
0000
1000
0100
,
1000
0100
0001
0010
0001
1000
0001
0100
,
1000
0010
1000
0100
0000
0100
0000
0010
,
0100
0001
0100
0001
1000
0010
1000
0010
,
1000
0100
0010
0001
0100
0010
1000
0001
,
1000
0100
0001
1000
0001
0100
1000
0001
,
1000
0010
0100
0001
0010
0100
0010
0001
,
1001
0000
0000
0000
0100
0000
0000
0000
0101
0000
0000
0110
0000
0000
1010
0000
,
0201
0000
1000
0000
0310
0000
0001
0010
,
1000
1010
0000
0101
0000
0001
0101
0000
,
1000
1000
0010
0100
0001
0001
1000
0010
,
0100
0000
0001
0000
0010
0000
0100
0000
1000
0000
0000
0000
1001
0000
1000
0001
,
0100
0100
1000
0010
0100
0010
0001
1000
,
0010
0000
0100
0000
1000
0000
1000
0000
0001
0100
0001
0000
0100
0000
0100
0000
,
0001
0000
1000
0000
0010
0000
0100
0000
0001
0000
1000
0000
0010
1000
0010
1000
,
0001
0000
0000
0100
0000
0000
1000
0000
0001
0000
0000
0010
0000
0000
1000
0000
,
0011
0000
0000
0100
0000
0000
1000
0000
0101
0000
0000
1000
0000
0000
0010
0000
,
2001
0100
3002
0100
,
1003
0100
1000
0010
1000
0100
1000
0001
1000
0100
1000
0010
1000
0100
1000
0010
,
1000
0000
0100
0000
0010
0000
0001
0000
1000
0000
0000
0001
0000
0000
0100
0000
0000
0000
0010
0000
1000
0000
0001
0000
0000
0000
1000
0000
0100
0000
1000
0000
,
0001
0010
0001
0100
0001
0010
0001
1000
0001
0010
0001
0100
0001
0010
0001
0100
,
1000
0000
0010
0000
0100
0000
0001
0000
1000
0000
0000
0100
0000
0000
0010
0000
0000
0000
0001
0000
0100
0000
1000
0000
0000
0000
0010
0000
1000
0000
0100
0000
,
0001
1000
0000
1000
0000
1000
0000
1000
,
0001
0100
0000
0100
0000
0100
0000
0100
,
1000
0001
0000
0001
0000
0001
0000
0001
,
1000
0100
0010
0001
1000
0100
0010
0001
,
1001
0010
0100
0001
1000
0010
0100
0010
,
1000
0001
0100
0010
1000
0010
0100
0010
,
0001
1000
0010
0100
1000
0001
0010
0100
,
0001
0100
0010
1000
0101
0000
1010
0000
,
1000
1000
1000
0100
0010
0001
0100
0010
,
0100
0100
0010
0100
0001
1000
0010
1000
,
0100
0100
0001
0010
1000
0010
0100
0010
,
1000
0001
0100
0001
0010
1000
0010
0100
,
0001
0001
0100
0010
0001
0100
0010
0100
,
1000
1000
0001
0010
1000
0010
1000
0001
,
1000
0001
0100
0010
0001
0100
0010
1010
,
0000
0101
0000
1000
0011
0000
1100
0000
,
0101
0000
0000
0001
0100
0000
0010
0000
1000
0100
1000
0000
0010
0000
1000
0000
,
0010
0000
0000
1000
0010
0000
0100
0000
0010
0100
0010
0000
1000
0000
0001
0000
,
1000
0000
0000
1000
0001
0000
0100
0000
0010
1000
0010
0000
0100
0000
0001
0000
,
1000
0000
0000
0001
0100
0000
0010
0000
1000
0000
0000
1000
0010
0000
1000
0000
,
0010
0000
0000
0001
0100
0000
0010
0000
1000
0100
1000
0000
1000
0000
0010
0000
,
0001
0000
0000
0100
0010
0000
0100
0000
0001
0100
0001
0000
0001
0000
0010
0000
,
1000
0000
0000
0100
1000
0000
0010
0000
0100
0010
0100
0000
0010
0000
0001
0000
,
1010
0000
0000
0100
0000
0000
0010
0000
0011
0000
0000
0100
0000
0000
0010
0000
,
1010
0000
0000
0001
0000
0000
1000
0000
1001
0000
0000
0001
0000
0000
0010
0100
;

//--------------- dance-single - DJSuperNOVA ----------------
#NOTES:
     dance-single:
     DJSuperNOVA:
     Hard:
     15:
     0,0,0,0,0:
0000
0000
0000
0000
,
1000
0001
1000
0001
1000
0010
0100
0001
0000
0000
0001
0100
0010
1000
0001
1000
,
0010
1000
0010
0100
0001
0010
0100
1000
0000
0000
1000
0100
1000
0010
0100
0001
,
1001
0000
0000
0000
1000
0100
1000
0100
1000
0000
0000
0000
0001
0000
0100
0000
0101
0000
0000
0000
1000
0000
0010
0000
0000
0000
1000
0000
0010
0000
1000
0000
,
0001
0001
0100
0010
1000
1000
0100
0010
0001
0001
1000
0010
0000
0100
0010
0100
,
0001
0000
1000
0000
0001
0100
0001
0100
0001
0000
1000
0000
0010
0000
0100
0000
0010
0000
1000
0000
0010
0000
1000
0000
0001
0000
0100
0001
0000
0100
0001
0000
,
1001
0000
0001
0000
0100
0010
0100
0010
1000
0000
0100
0000
0010
0000
0001
0000
1000
0010
0000
0010
0000
1000
0010
0000
0010
0000
1000
0010
0000
1000
0010
0000
,
1001
0000
0001
0000
0100
0000
0010
0000
1000
0100
1000
0000
0010
0000
0100
0000
,
0001
1000
0001
0000
0100
0000
0100
0000
1001
0000
0000
0000
0110
0000
0000
0000
,
1000
0000
0001
0000
0100
0000
0001
0000
1000
0010
1000
0000
0001
0000
0100
0000
,
0010
1000
0000
1000
0000
0010
1000
0000
0001
0100
0000
0100
0000
0001
0100
0000
,
1000
0100
0000
0100
0000
1000
0100
0000
0010
0000
0001
0010
0000
0001
0010
0000
,
1000
0010
1000
0000
0100
0000
0100
0000
0011
0000
0000
0000
1100
0000
0000
0000
,
0001
0000
1000
0000
0001
0010
0001
0000
1000
0000
0010
0000
0100
0000
0010
0000
,
1010
0000
0010
0000
1000
0000
1000
0000
0101
0000
0100
0001
0000
0100
0001
0000
,
1000
0000
0001
0000
1000
0010
0000
0100
,
0000
0100
0000
0001
0100
0010
0100
0001
,
1000
0000
0100
0000
0001
1000
0000
0010
,
0000
0010
0000
0100
0000
0100
0010
0100
,
0001
0000
1000
0000
0010
1000
0000
0001
,
0000
0001
0000
1000
0100
1000
0010
0100
,
0001
0010
0100
1000
0001
0100
0010
1000
,
0010
0000
0100
0000
0010
0000
0100
0000
1010
0000
0000
0110
0000
0000
0100
0000
,
0001
0000
0000
0110
0000
0000
1000
0000
0001
0000
0000
1001
0000
0000
1000
0000
,
0010
0000
0100
0001
0000
0100
0001
0000
1010
0000
0000
1010
0000
0000
1010
0000
,
2001
0000
0000
3001
1000
0000
0100
0000
0010
0000
0001
0000
0100
0000
0010
0000
,
1020
0000
0000
1030
0010
0000
0100
0000
0001
0000
1000
0000
0010
0000
1000
0000
,
0201
0000
0000
0301
0100
0000
0010
0000
1000
0000
0010
0000
0100
0000
0010
0000
,
1000
0000
0001
0100
0000
0001
0100
0000
0010
0000
1000
0010
0000
1000
0010
0000
,
2001
0000
3000
1000
0100
0000
0010
0000
0001
0000
0100
0000
0010
0000
1000
0000
,
1002
0000
0003
0001
0100
0000
0010
0000
1000
0000
0010
0000
1000
0000
0001
0000
,
1001
0000
0000
0000
0110
0000
0000
1000
0001
0000
0100
0000
0010
0000
1010
0000
,
0000
0000
0101
0000
0000
0010
1000
0000
0011
0000
0000
0000
1100
0000
0000
0000
,
0010
0010
1000
0001
0100
1000
0100
0001
,
1000
1000
0001
1000
0100
0001
0100
1000
,
0010
0010
0001
0100
0001
0010
0001
0100
,
1000
1000
0010
1000
0100
1000
0010
0100
,
0001
0001
1000
0001
0100
0001
1000
0010
,
0100
0100
0001
1000
0010
1000
0001
1000
,
0010
0000
0010
0000
0100
0000
1000
0001
0100
0000
0010
0000
1000
0000
0010
0000
,
0100
0000
0001
0000
0100
0001
1000
0000
0110
0000
0000
0000
1001
0000
0000
0000
,
0001
0000
1000
0000
0010
0000
1000
0000
0001
0000
1000
0000
0100
0000
1000
0100
,
1000
0100
0001
0010
0001
1000
0001
0100
,
1000
0000
0010
0000
1000
0000
0100
0000
1000
0001
0100
0000
1000
0000
0010
0000
,
0100
0001
0100
0001
1000
0010
1000
0010
,
1010
0000
0100
0000
0010
0000
0001
0000
0100
0001
0010
0000
1000
0000
0001
0000
,
1000
0010
0100
0000
0001
0000
1000
0000
0001
0000
1000
0100
1000
0000
0001
0000
,
1000
0000
0010
0100
0010
0000
1000
0000
0010
0000
0100
0010
0100
0000
0001
0000
,
1001
0000
0000
0000
0000
0000
0000
0000
0101
0000
0000
0110
0000
0000
1010
0000
,
1000
0001
0000
1000
0000
0001
1000
0000
0010
0000
0100
0010
0000
0100
0010
0000
,
1000
0010
1000
0000
0010
0000
1000
0000
0001
0100
0001
0000
0101
0000
0000
0000
,
1000
0001
0000
1000
0000
0001
1000
0000
0010
0000
1000
0010
0000
0100
0010
0000
,
0100
0000
0001
0000
0010
0000
0100
0000
1000
0000
0000
0000
0010
0000
0100
0010
,
0100
0000
0100
0001
1000
0000
0010
0000
0100
0000
0001
0010
0001
0000
1000
0000
,
0010
0000
0100
0000
1000
0010
1000
0000
0001
0100
0001
0000
0100
0000
0100
0000
,
0001
0000
1000
0010
0000
0100
0010
0000
0001
0000
1000
0000
0010
1000
0010
1000
,
0001
0000
0000
0100
0000
0000
1000
0000
0001
0000
0000
0010
0000
0000
1000
0000
,
0001
0000
1000
0010
0000
1000
0010
0000
0100
0000
0001
0010
0000
0001
0010
0000
,
2001
0100
3002
0100
,
1003
0100
1000
0010
1000
0100
1000
0001
1000
0100
1000
0010
1000
0100
1000
0000
,
1000
0000
0100
0000
0010
0000
0001
0000
1000
0000
0000
0001
0000
0000
0100
0000
0000
0000
0010
0000
1000
0000
0001
0000
0000
0000
1000
0000
0100
0000
0000
0000
,
0001
0010
0001
0100
0001
0010
0001
1000
0001
0010
0001
0100
0001
0010
0001
0000
,
1000
0000
0010
0000
0100
0000
0001
0000
1000
0000
0000
0100
0000
0000
0010
0000
0000
0000
0001
0000
0100
0000
1000
0000
0000
0000
0010
0000
1000
0000
0100
0000
,
0002
1000
0000
1000
0000
1000
0000
1003
,
0020
0100
0000
0100
0000
0100
0000
0130
,
0200
0001
0000
0001
0000
0001
0000
0301
,
1000
0100
0010
0001
1000
0100
0010
0001
,
1001
0010
0100
0001
1000
0010
0100
0010
,
1010
0001
0100
0010
1000
0010
0100
0010
,
0011
0000
1000
0000
0010
0000
0100
0001
1000
0000
0001
0000
0010
0000
0100
0000
,
0001
0000
0100
0000
0010
1000
0010
0000
0101
0000
0000
0000
1010
0000
0000
0000
,
1000
0001
1000
0100
0010
0001
0100
0010
,
1000
0100
0010
0100
0001
1000
0010
1000
,
0100
0001
0100
0010
1000
0010
0100
0010
,
1000
0001
0100
1000
0010
1000
0010
0100
,
0001
1000
0100
0010
0001
0100
0010
0100
,
1000
0001
0100
0010
1000
0010
1000
0001
,
1000
0001
0100
0010
0001
0100
0010
1010
,
0000
0000
0101
0000
0000
0010
1000
0000
0011
0000
0000
0000
1100
0000
0000
0000
,
0101
0000
0000
0001
0100
0000
0010
0000
1000
0100
1000
0000
0010
0000
1000
0000
,
1010
0000
0000
1000
0010
0000
0100
0000
0010
0100
0010
0000
1000
0000
0001
0000
,
1001
0000
0000
1000
0001
0000
0100
0000
0010
1000
0010
0000
0100
0000
0001
0000
,
0101
0000
0000
0001
0100
0000
0010
0000
0110
0000
0000
1000
0010
0000
1000
0000
,
1000
0010
0000
0010
0000
1000
0010
0000
1000
0100
1000
0100
1000
0000
0010
0000
,
0001
0100
0000
0100
0000
0001
0100
0000
0001
0100
0001
0100
0001
0000
0010
0000
,
1000
0100
0000
0100
0000
1000
0010
0000
0100
0010
0100
0010
0100
0000
0001
0000
,
1010
0000
0000
0100
0000
0000
0010
0000
0011
0000
0000
0100
0000
0000
0010
0000
,
1010
0000
0000
0001
0000
0000
1000
0000
1001
0000
0000
0100
0000
0000
0010
0100
;
