#TITLE:Color Paradise;
#SUBTITLE:;
#ARTIST:Pory;
#TITLETRANSLIT:;
#SUBTITLETRANSLIT:;
#ARTISTTRANSLIT:;
#GENRE:;
#CREDIT:DJSuperNOVA;
#MUSIC:Color Paradise.ogg;
#BANNER:Color Paradise.png;
#BACKGROUND:Color Paradise-bg.png;
#CDTITLE:;
#SAMPLESTART:82.531;
#SAMPLELENGTH:20.000;
#SELECTABLE:YES;
#OFFSET:-0.031;
#BPMS:0.000=96.000;
#STOPS:;
#BGCHANGES:;
#FGCHANGES:;

//--------------- dance-single - DJSuperNOVA ----------------
#NOTES:
     dance-single:
     DJSuperNOVA:
     Beginner:
     1:
     0,0,0,0,0:
0000
0000
0000
0000
,
0000
0001
0000
0000
0000
1000
0000
0000
,
0000
0001
0000
0000
1000
0000
0000
0000
,
0000
0010
0000
0000
0000
0100
0000
0000
,
0000
0010
0000
0000
0100
0000
0000
0000
,
0000
1000
0000
0000
0000
0001
0000
0000
,
0000
1000
0000
0000
0001
0000
0000
0000
,
0000
1000
0000
0000
0000
1000
0000
0000
,
0000
0001
0000
0000
0001
0000
0000
0000
,
0000
0010
0000
0000
0000
0000
0000
0000
,
0000
0010
0000
0000
0000
0000
0000
0000
,
0000
0100
0000
0000
0000
0000
0000
0000
,
0000
0100
0000
0000
0000
0000
0000
0000
,
0000
1000
0000
0000
0000
0000
0000
0000
,
0000
0001
0000
0000
0000
0000
0000
0000
,
0000
1000
0000
0000
0000
0000
0000
0000
,
0000
0001
0000
0000
0000
0000
0000
0000
,
1000
0000
0000
0000
,
0010
0000
0000
0000
,
0100
0000
0000
0000
,
0001
0000
0000
0000
,
1000
0000
0000
0000
,
0001
0000
0000
0000
,
1000
0000
0000
0000
,
0010
0000
0020
0000
,
0130
0000
0000
0000
,
0001
0000
0000
0000
,
0100
0000
0000
0000
,
1000
0000
0000
0000
,
0100
0000
0000
0000
,
0010
0000
0000
0000
,
0001
0000
0001
0000
,
1000
0000
1000
0000
,
0000
0010
0000
0010
,
0000
0100
0000
0100
,
0000
0001
0000
0001
,
0000
1000
0000
1000
,
0000
0010
0000
0010
,
0000
0010
0000
0100
,
0000
0001
0000
0001
,
0000
1000
0000
1000
,
0000
0001
0000
0001
,
0000
1000
0000
1000
,
0000
0010
0000
0010
,
0000
0100
0000
0001
,
0000
1000
0000
0001
,
0000
0100
0000
0001
,
0000
1000
0000
0010
,
0000
1000
0000
0001
,
1001
0000
0000
0000
;

//--------------- dance-single - DJSuperNOVA ----------------
#NOTES:
     dance-single:
     DJSuperNOVA:
     Easy:
     2:
     0,0,0,0,0:
0000
0000
0000
0000
,
0000
0001
0000
0000
0000
1000
0000
0001
,
0000
0001
0000
0000
1000
0000
0000
0000
,
0000
0010
0000
0000
0000
0100
0000
0010
,
0000
0010
0000
0000
0100
0000
0000
0000
,
0000
1000
0000
0000
0000
0001
0000
1000
,
0000
1000
0000
0000
0001
0000
0000
0000
,
0000
1000
0000
0000
0000
1000
0000
1000
,
0000
0001
0000
0000
0001
0000
0000
0000
,
0000
0010
0000
0000
0000
0100
0000
0000
,
0000
0010
0000
0000
0000
0100
0000
0000
,
0000
0100
0000
0000
0000
0001
0000
0000
,
0000
0100
0000
0000
0000
0001
0000
0000
,
0000
1000
0000
0000
0000
0010
0000
0000
,
0000
0001
0000
0000
0000
0010
0000
0000
,
0000
1000
0000
0000
0000
0100
0000
0000
,
0000
0001
0000
0000
0000
0100
0000
0000
,
1000
0000
0000
0000
,
0010
0000
0000
0000
,
0100
0000
0000
0000
,
0001
0000
0000
0000
,
1000
0000
0000
0000
,
0001
0000
0000
0000
,
1000
0000
0000
0000
,
0010
0000
0020
0000
,
0130
0000
1000
0000
,
0001
0000
1000
0000
,
0100
0000
0010
0000
,
1000
0000
0001
0000
,
0100
0000
1000
0000
,
0010
0000
0100
0000
,
0001
0000
1001
0000
,
1000
0000
1001
0000
,
0000
0010
0000
0010
,
0000
0100
0000
0100
,
0000
0001
0000
0001
,
0000
1000
0000
1000
,
0000
0010
0000
0010
,
0000
0010
0000
0100
,
0000
0001
0000
0001
,
0000
1000
1000
1000
,
0000
0001
0000
0001
,
0000
1000
0000
1000
,
0000
0010
0000
0010
,
0000
0100
0000
0001
,
0000
1000
0000
0001
,
0000
0100
0000
0001
,
0000
1000
0000
0010
,
0000
1000
1000
0001
,
1001
0000
0000
0000
;

//--------------- dance-single - DJSuperNOVA ----------------
#NOTES:
     dance-single:
     DJSuperNOVA:
     Medium:
     4:
     0,0,0,0,0:
0000
0000
0000
0000
,
1000
0001
0000
0100
0000
1000
0000
0001
,
0000
0000
0001
0000
0000
0000
0010
0000
1000
0000
0000
1000
0000
0000
0000
0000
,
1000
0010
0000
0100
0000
0100
0000
0010
,
0000
0000
0010
0000
0000
0000
0001
0000
0100
0000
0000
0100
0000
0000
0000
0000
,
0001
1000
0000
0010
0000
0001
0000
1000
,
0000
0000
1000
0000
0000
0000
0010
0000
0001
0000
0000
0001
0000
0000
0000
0000
,
0010
1000
0000
0010
0000
1000
0000
1000
,
0000
0000
0001
0000
0000
0000
0100
0000
0001
0000
0000
0001
0000
0000
0000
0000
,
1000
0000
0010
0000
0000
0000
1000
0000
0000
0010
0000
0000
0001
0000
0000
0000
,
1000
0000
0010
0000
0000
0000
1000
0000
0000
0001
0000
0000
0100
0000
0000
0000
,
0010
0000
0100
0000
0000
0000
1000
0000
0000
0001
0000
0000
0010
0000
0000
0000
,
1000
0000
0100
0000
0000
0000
0010
0000
0000
0001
0000
0000
0001
0000
0000
0000
,
0001
1000
0000
0100
0000
0010
0000
1000
,
0000
0001
0000
0100
0000
0010
0000
0001
,
0000
1000
0000
0010
0000
0100
0000
1000
,
0000
0001
0000
0010
0000
0100
0000
0001
,
1000
0100
0000
0010
,
0010
0100
0000
0001
,
0100
1000
0000
1000
,
0001
1000
0000
0010
,
1000
0010
0000
0010
,
0001
0100
0000
0100
,
1000
0001
0000
0001
,
0010
1000
0020
0000
,
0130
0001
1000
0010
,
0001
0100
1000
0001
,
0100
1000
0010
1000
,
1000
0010
0001
1001
,
0100
0010
1000
0001
,
0010
1000
0100
0010
,
0001
0100
1001
0010
,
1000
0010
1001
1000
,
0000
0010
0000
0010
,
0000
0100
0000
0100
,
1000
0001
0000
0001
,
0000
1000
0000
1000
,
0100
0010
0000
0010
,
0000
0010
0001
0100
,
0000
0001
0000
0001
,
0000
1000
1000
1001
,
0000
0001
0000
0001
,
0000
1000
0000
1000
,
0100
0010
0000
0010
,
0000
0100
0000
0001
,
0100
1000
0000
0001
,
0000
0100
0100
1001
,
0000
1000
0000
0010
,
0001
1000
1000
0001
,
2002
0000
0000
0000
,
3003
0000
0000
0000
;

//--------------- dance-single - DJSuperNOVA ----------------
#NOTES:
     dance-single:
     DJSuperNOVA:
     Hard:
     6:
     0,0,0,0,0:
0000
0000
0000
0000
,
1000
0000
0001
0000
0000
1000
0001
0000
0010
0000
0100
0000
0000
0100
0010
0000
,
0100
0000
0010
0000
1000
0000
0010
0000
0100
0001
0000
0100
0001
0000
0000
0000
,
1000
0000
0010
0000
0000
0100
0001
0000
0010
0000
0100
0000
0000
1000
0100
0000
,
1000
0000
0100
0000
0010
0000
0001
0000
0100
1000
0000
0100
1000
0000
0000
0000
,
0100
0000
0001
0000
0000
1000
0010
0000
1000
0000
0100
0000
0000
0100
0010
0100
,
0010
0000
1000
0000
0001
0000
0100
0000
0010
1000
0000
0010
1000
0000
0000
0000
,
0010
0000
0001
0000
0000
1000
0100
0000
1000
0000
0010
0000
0000
0100
0001
0100
,
0001
0000
0010
0000
0100
0000
1000
0000
0010
1000
0000
0010
1000
0000
0000
0000
,
0001
0000
1000
0000
0000
0000
0001
0000
0000
0100
0000
0000
0010
0000
1000
0000
,
0100
0000
0000
0010
0000
0000
0001
0000
0000
1000
0000
0000
0100
0000
0000
0000
,
0010
0000
1000
0000
0000
0000
0100
0000
0000
0010
0000
0000
0001
0000
0100
0000
,
1000
0000
0000
0100
0000
0000
0010
0000
0000
1000
0000
0000
0001
0000
0000
0000
,
0010
0000
1000
0000
0100
0000
0010
0000
0001
0000
1000
0000
0010
0000
1000
0100
,
1000
0000
0001
0000
0100
0000
0010
0000
1000
0000
0001
0000
0100
0000
0010
0100
,
0010
0000
1000
0000
0001
0000
0100
0000
0010
0000
0001
0000
1000
0000
0010
1000
,
0010
0000
0100
0000
1000
0000
0010
0000
1000
0000
0100
0000
0010
0000
0001
0010
,
0001
0010
0100
1000
0000
0000
0000
0000
,
1000
0010
0100
0001
0000
0000
0000
0000
,
1000
0100
1000
0010
0000
0000
0000
0000
,
0001
0010
0001
0100
0000
0000
0000
0000
,
1000
0010
0100
0001
0000
0000
0000
0000
,
0100
0010
1000
0001
0000
0000
0000
0000
,
1000
0001
0100
0010
0000
0000
0000
0000
,
1000
0100
0010
0001
2002
0000
3003
0000
,
1000
0010
0100
0001
0000
0000
0000
0000
,
0001
0010
0100
1000
0000
0000
0000
0000
,
0001
0100
0001
0010
0000
0000
0000
0000
,
1000
0010
1000
0100
0000
0000
0000
0000
,
0001
0010
0100
1000
0000
0000
0000
0000
,
0100
0010
0001
1000
0000
0000
0000
0000
,
0001
1000
0100
0010
0001
0100
1000
0000
,
0001
0100
0010
1000
2002
0000
0000
3003
,
0000
0001
0100
0001
0000
1000
0000
1000
,
0000
0100
1000
0100
1000
0100
1000
0010
,
0000
0100
0001
0010
0000
0100
0000
0100
,
0000
0100
0010
0100
1000
0100
0010
0100
,
0000
0010
1000
0010
0000
0100
0010
0001
,
0010
0001
0010
0000
1000
0010
0000
0000
,
0000
0001
0100
1000
0000
1000
0000
1000
,
0000
0100
1000
0100
1000
0100
0010
0001
,
0000
1000
0100
1000
0000
0001
0000
0001
,
0000
0100
0001
0100
0001
0100
0001
0010
,
0000
0100
1000
0010
0000
0100
0000
0100
,
0000
0100
0010
0100
0001
0100
0010
0100
,
0000
0010
0001
0010
0000
0100
0010
1000
,
0010
1000
0010
0000
0001
0010
0000
0000
,
0000
1000
0100
0001
0000
0001
0000
0001
,
0000
0100
0001
1000
0000
1000
0000
1000
,
0001
0000
0000
0000
;
