#TITLE:Canon;
#SUBTITLE:;
#ARTIST:Dr.꽃샤쓰;
#TITLETRANSLIT:Canon;
#SUBTITLETRANSLIT:;
#ARTISTTRANSLIT:Dr. Flowershirts;
#GENRE:;
#CREDIT:DJSuperNOVA;
#MUSIC:Canon.ogg;
#BANNER:Canon.png;
#BACKGROUND:Canon-bg.png;
#CDTITLE:;
#SAMPLESTART:50.401;
#SAMPLELENGTH:11.849;
#SELECTABLE:YES;
#OFFSET:-0.044;
#BPMS:0.000=162.043;
#STOPS:;
#BGCHANGES:;
#FGCHANGES:;

//--------------- dance-single - DJSuperNOVA ----------------
#NOTES:
     dance-single:
     DJSuperNOVA:
     Beginner:
     2:
     0,0,0,0,0:
0000
0000
0000
0000
,
0010
0000
0000
0000
,
0010
0000
0000
0000
,
0001
0000
0000
0000
,
0001
0000
0000
0000
,
1000
0000
0000
0000
,
1000
0000
0000
0000
,
0100
0000
0000
0000
,
0100
0000
0000
0000
,
0010
0000
0000
0000
,
0010
0000
0000
0000
,
0100
0000
0000
0000
,
0100
0000
0000
0000
,
0001
0000
0000
0000
,
0001
0000
0000
0000
,
1000
0000
0000
0000
,
1000
0000
0000
0000
,
1001
0000
0000
0000
,
0100
0000
0000
0000
,
0010
0000
0000
0000
,
0100
0000
0000
0000
,
0001
0000
0000
0000
,
1000
0000
0000
0000
,
0001
0000
0000
0000
,
1000
0000
0000
0000
,
0010
0000
0000
0000
,
0100
0000
0000
0000
,
1000
0000
0000
0000
,
0001
0000
0000
0000
,
0010
0000
0000
0000
,
0100
0000
0000
0000
,
0010
0000
0000
0000
,
0001
0000
0000
0000
,
1000
0000
1000
0000
,
0010
0000
0010
0000
,
0001
0000
0001
0000
,
0100
0000
0100
0000
,
0010
0000
0010
0000
,
1000
0000
1000
0000
,
0001
0000
0001
0000
,
1000
0000
1000
0000
,
0010
0000
0010
0000
,
1000
0000
0001
0000
,
1000
0000
0001
0000
,
0100
0000
0010
0000
,
0100
0000
0010
0000
,
1000
0000
1000
0000
,
0001
0000
0001
0000
,
1000
0000
0010
0000
,
1000
0000
0010
0000
,
0001
0000
0001
0000
,
1000
0000
1000
0000
,
0010
0000
0010
0000
,
1000
0000
1000
0000
,
0001
0000
0001
0000
,
1000
0000
1000
0000
,
0010
0000
0010
0000
,
0001
0000
1000
0000
,
1001
0000
0000
0000
,
0100
0000
0000
0000
,
0010
0000
0000
0000
,
0100
0000
0000
0000
,
0001
0000
0000
0000
,
1000
0000
0000
0000
,
0001
0000
0000
0000
,
0010
0000
0000
0000
,
1000
0000
1000
0000
,
0001
0000
0001
0000
,
1000
0000
1000
0000
,
0010
0000
0010
0000
,
0001
0000
0001
0000
,
0100
0000
0100
0000
,
0010
0000
0010
0000
,
1000
0000
0001
0000
,
0110
0000
0000
0000
;

//--------------- dance-single - DJSuperNOVA ----------------
#NOTES:
     dance-single:
     DJSuperNOVA:
     Easy:
     6:
     0,0,0,0,0:
0000
0000
0000
0000
,
0010
0000
1000
0000
,
0010
0000
1000
0000
,
0001
0000
0100
0000
,
0001
0000
0100
0000
,
1000
0000
0010
0000
,
1000
0000
0010
0000
,
0100
0000
0001
0000
,
1000
0000
0001
0000
,
0110
0010
0010
1000
,
0100
0100
0100
0010
,
0001
0001
0001
0100
,
1000
1000
1000
0100
,
0110
0010
0010
0100
,
0001
0001
0001
0010
,
1000
0100
0010
0001
,
1001
0010
0100
1000
,
1001
0100
0010
0100
,
1000
0001
0100
0010
,
1000
0001
0010
1000
,
0100
0010
0100
0001
,
0010
0100
1000
0001
,
1000
0010
0100
1000
,
0001
0010
0100
0010
,
1000
0001
0010
0100
,
1000
0100
0010
0001
,
1000
0010
0001
0100
,
1000
0001
0010
1000
,
0001
0010
0100
1000
,
0010
1000
0100
0010
,
0001
0010
0100
0010
,
0100
0010
1000
0100
,
1001
0000
0100
0000
,
0110
0000
0010
0000
,
1001
0100
0010
0100
,
0001
1000
0001
0010
,
0100
1000
0100
0010
,
0010
0001
0010
0100
,
1001
0100
1000
0100
,
0001
0100
0001
0100
,
1000
0010
1000
0001
,
0010
0100
0010
0010
,
1001
0100
0001
0100
,
1000
0010
0001
0100
,
1000
0100
0010
1000
,
0100
0001
0010
0100
,
1100
0010
1000
0100
,
0001
0010
0001
0010
,
1010
0001
0010
0100
,
1000
0100
0010
0100
,
1100
0010
0001
0010
,
0000
0100
1000
0100
,
0000
0010
0001
0100
,
0000
0001
0010
0100
,
0000
0010
1000
0100
,
0000
1000
0100
0010
,
0000
0100
0010
0001
,
0000
0010
0100
1000
,
1001
0000
0010
0100
,
0010
0000
0001
0010
,
0100
0000
0010
1000
,
0010
0000
0010
0100
,
0110
0000
1000
0001
,
1001
0000
0010
0100
,
0101
0000
1000
0010
,
1010
0101
1010
0101
,
1001
0100
0010
0100
,
0001
0100
0001
0010
,
1000
0100
1000
0100
,
0010
0001
0010
0100
,
1001
0010
0001
0010
,
0100
1000
0100
1000
,
0110
1000
0010
0100
,
1001
0010
0100
1000
,
0110
0000
0000
0000
;

//--------------- dance-single - DJSuperNOVA ----------------
#NOTES:
     dance-single:
     DJSuperNOVA:
     Medium:
     10:
     0,0,0,0,0:
0000
0000
0000
0000
,
0000
1000
0010
1000
,
0000
0100
0010
0100
,
0000
0001
0100
0001
,
0000
0010
1000
0010
,
0000
0100
0010
0100
,
0000
0001
0100
1000
,
0000
0010
0100
0001
,
0000
0010
0100
0010
,
1001
0100
0010
0100
,
0001
0100
0010
0100
,
1000
0100
0010
0100
,
0010
0001
0010
0100
,
1000
0010
0100
0010
,
0001
0010
0100
1000
,
0100
1000
0100
0010
,
0100
0010
0001
0010
,
0100
1001
0100
1000
,
0010
1001
0010
1000
,
0100
0011
0100
0001
,
0010
1100
0010
1000
,
0101
0010
0100
0010
,
1100
0001
0100
0001
,
1010
0100
1000
0100
,
0011
0100
0010
0100
,
1010
0100
0010
0001
,
1010
0001
0100
0010
,
1100
0001
0010
0100
,
1010
0100
0010
0001
,
1010
0100
0010
0001
,
0110
0001
0010
0100
,
1010
0100
1000
0001
,
1000
0000
0100
0000
,
0010
0010
0001
0001
,
1010
0100
1010
0100
,
1010
0100
0010
0001
,
0101
0010
0101
0010
,
0101
0001
0010
0100
,
1001
0100
1010
0100
,
1001
0010
0100
1000
,
0110
0010
0110
0100
,
0110
1000
0001
0100
,
1010
0001
1010
0001
,
1010
0100
0010
0001
,
1001
0100
1001
0010
,
1001
0001
0100
1000
,
1010
0100
1010
0001
,
1010
1000
0010
0001
,
1010
0001
1010
0100
,
1010
0100
0010
0001
,
1001
0000
1000
0100
1000
0000
0100
0000
,
0001
0000
0100
0010
0100
0000
0001
0000
,
1000
0000
0010
0100
0010
0000
1000
0000
,
0010
0000
0001
0010
0100
0000
0010
0000
,
1000
0000
0100
0001
0100
0000
0010
0000
,
1000
0000
0100
1000
0100
0000
0001
0000
,
0010
0000
0100
0001
0100
0000
0010
0000
,
1000
0000
0001
0010
0001
0000
0100
0000
,
1010
0100
0001
0100
,
0000
0010
1000
0100
,
0000
0010
0001
0100
,
0000
0010
1000
0100
,
0000
0001
0100
0010
,
0000
0001
1000
0001
,
1001
0000
0110
0000
,
1000
0110
0001
0110
,
1001
0100
1001
0100
,
0011
1000
0101
1000
,
0110
1000
0101
0010
,
1001
0100
1010
0001
,
0110
1000
0101
1000
,
0101
0010
1100
0010
,
1001
1001
1100
1100
,
0011
0101
1001
0101
,
2002
0000
0000
0000
,
3003
0000
0000
0000
;

//--------------- dance-single - DJSuperNOVA ----------------
#NOTES:
     dance-single:
     DJSuperNOVA:
     Hard:
     14:
     0,0,0,0,0:
0000
0000
0000
0000
,
0001
0100
0001
0100
,
0001
1000
0100
0010
,
0001
1000
0010
1000
,
0100
0010
0100
0001
,
1000
0010
1000
0010
,
0100
0001
0100
0001
,
1000
0010
0010
0001
,
0100
1000
0100
0010
,
1001
0000
0100
0010
0001
0000
0010
0100
,
0010
0100
1000
0100
0010
0100
0010
0001
,
0010
0000
1000
0100
0010
0000
1000
0100
,
0010
0001
0010
0100
0010
0001
0010
0001
,
1000
0000
0001
0010
0100
0000
0010
1000
,
0010
0100
1000
0100
0010
0100
0010
0001
,
0010
0000
0100
1000
0100
0000
0010
0100
,
0010
1000
0010
0100
0001
1000
0100
0010
,
0002
0000
0000
0003
0200
0000
0000
0300
0020
0000
0000
0030
2000
0000
0000
3000
,
0200
0000
0000
0300
2000
0000
0000
3000
0200
0000
0000
0300
0020
0000
0000
0030
,
0200
0000
0000
0300
0020
0000
0000
0030
2000
0000
0000
3000
0002
0000
0000
0003
,
0200
0000
0000
0300
0020
0000
0000
0030
0002
0000
0000
0003
2000
0000
0000
3000
,
0020
0000
0000
0030
0200
0000
0000
0300
2000
0000
0000
3000
0002
0000
0000
0003
,
0020
0000
0000
0030
0200
0000
0000
0300
2000
0000
0000
3000
0200
0000
0000
0300
,
2000
0000
0000
3000
0020
0000
0000
0030
0200
0000
0000
0300
0002
0000
0000
0003
,
0200
0000
0000
0300
0002
0000
0000
0003
0020
0000
0000
0030
0200
0000
0000
0300
,
1000
0000
0010
0000
1000
0010
0000
1000
0010
0000
1000
0010
0000
1000
0010
0000
,
0100
0000
0001
0000
0100
0001
0000
0100
0001
0000
0100
0001
0000
0100
0001
0000
,
0100
0000
0010
0000
0100
0010
0000
0100
0010
0000
0100
0010
0000
0100
0010
0000
,
1000
0000
0010
0000
1000
0010
0000
1000
0010
0000
1000
0010
0000
1000
0010
0000
,
0100
0000
0001
0000
0100
0001
0000
0010
0001
0000
0100
0001
0000
0010
0001
0000
,
0100
0000
0010
0000
1000
0100
0000
0010
1000
0000
0100
1000
0000
0010
1000
0000
,
0100
0000
0001
0000
0100
0010
0000
1000
0010
0000
0100
0001
0000
1000
0010
0000
,
0110
0000
1001
0000
,
0101
0000
0000
0000
1010
0000
0000
0000
1000
0000
0100
0000
0010
0001
0010
0001
,
1000
0000
0100
0001
1000
0000
0100
0001
,
1000
0010
0100
0001
1000
0100
0010
0001
,
1100
0000
0100
0010
0001
0000
1000
0100
,
0010
0100
0001
1000
0010
0100
0010
0100
,
1010
0000
0001
0010
1000
0000
0100
1000
,
0100
1000
0010
0100
0010
0100
0001
0010
,
0110
0000
1000
0100
0001
0000
0100
0001
,
1000
0100
0010
0001
1000
0010
0100
0001
,
1010
0000
0100
0010
0001
0000
0010
0100
,
0010
1000
0100
0010
0001
0010
0100
0010
,
0011
0000
0100
0010
0001
0000
1000
0100
,
0010
0001
0010
0100
0001
1000
0001
0100
,
1010
0000
0001
0010
0100
0000
0100
1000
,
0100
1000
0010
0100
0001
1000
0010
0100
,
0001
0000
1000
0010
0100
0000
0100
0001
,
0010
0001
0100
0010
1000
0100
1000
0010
,
0101
0000
1000
0100
0010
0000
0101
0000
,
1010
0000
0001
0010
0100
0000
0011
0000
,
1100
0000
0010
0001
0100
0000
1010
0000
,
1100
0000
0010
1000
0100
0000
0011
0000
,
1001
0000
0100
0010
0001
0000
0101
0000
,
0110
0000
0001
0100
1000
0000
0011
0000
,
1100
0000
1000
0100
0001
0000
1010
0000
,
0101
0000
0001
0010
1000
0000
1001
0000
,
0110
0000
1000
0010
1000
0000
0100
0000
,
0010
0000
0100
0010
0001
0000
0010
0000
,
1000
0000
0001
0100
0001
0000
1000
0000
,
0010
0000
0010
0100
1000
0000
0100
0000
,
1010
0000
0100
1000
0100
0000
0010
0000
,
0101
0000
0010
1000
0100
0000
0010
0000
,
0011
0000
0010
1000
0110
0000
0100
0000
,
1001
0000
1000
0000
0001
0000
1000
0000
0010
0100
0010
0100
0010
0100
0010
0100
,
0001
0000
1000
0100
0010
0000
0100
0010
,
0001
0100
1000
0100
0010
0100
0001
0010
,
0100
0000
1000
0010
0001
0000
1000
0010
,
1000
0100
0001
0100
0010
1000
0001
0100
,
1000
0000
0001
0100
1000
0000
0010
0100
,
0010
0100
1000
0100
0010
0100
0010
0001
,
1010
0000
0100
1000
0011
0000
0100
1000
,
0100
0010
0001
0010
0100
0010
0100
0010
,
2002
0000
0000
0000
,
3003
0000
0000
0000
;

//--------------- dance-single - DJSuperNOVA ----------------
#NOTES:
     dance-single:
     DJSuperNOVA:
     Challenge:
     17:
     0,0,0,0,0:
0000
0000
0000
0000
,
0001
0000
0100
0010
0001
0000
0100
0010
,
0001
1000
0100
0010
0001
0100
0010
1000
,
0001
0000
1000
0100
0010
0000
0100
0010
,
0100
0000
0001
0000
0100
0000
0010
0000
1000
0000
0010
0000
0100
0010
0100
0010
,
1000
0001
1000
0010
0100
0001
1000
0010
,
0100
0001
0010
0001
1000
0100
1000
0010
,
1010
0100
1000
0010
0100
0001
1000
0010
,
1000
0010
0100
0001
0100
0010
1000
0100
0010
0001
0010
0100
1000
0010
0100
0001
,
1000
0000
0100
0000
0010
0001
0010
0000
0001
0000
0100
0010
0100
0000
0001
0000
,
1000
0000
0010
0000
1000
0100
1000
0000
0001
0000
0100
0010
0100
0000
0001
0000
,
1000
0000
0010
0000
1000
0100
1000
0000
0001
0000
0100
0001
0100
0000
0010
0000
,
1000
0000
0010
0000
1000
0100
1000
0000
0001
0000
0010
0001
0010
0000
0001
0000
,
0101
0000
1000
0000
0010
0100
0010
0000
1000
0000
0001
0100
0010
0000
1000
0000
,
0100
0000
1000
0000
0001
0100
0001
0000
0100
0000
0010
0001
0010
0000
1000
0000
,
0100
0010
0100
0010
0001
0010
0001
0010
0001
1000
0001
1000
0010
1000
0010
1000
,
0010
0100
0001
1000
0010
0100
0001
1000
0001
0100
0010
1000
0001
0100
0010
1000
,
0001
0000
1000
0000
0100
0010
0001
0000
1010
0000
0100
0010
0100
0000
0001
0000
,
0110
0000
1000
0000
0100
1000
0100
0000
0101
0000
1000
0010
1000
0000
0001
0000
,
1100
0000
0001
0000
0100
0010
1000
0000
1010
0000
0100
0010
0100
0000
0001
0000
,
0011
0000
1000
0000
0010
0100
0010
0000
1010
0000
0100
1000
0100
0000
0010
0000
,
0110
0000
0001
0000
1000
0001
1000
0000
1010
0000
0100
0001
0100
0000
0010
0000
,
0110
0000
1000
0000
0100
0010
0100
0000
0110
0000
0001
0100
0001
0000
1000
0000
,
1010
0000
0010
0000
0100
0010
1000
0000
1100
0000
0010
0001
0010
0000
0100
0000
,
0110
0000
0001
0000
1000
0010
1000
0000
1010
0000
0100
0010
0100
0000
0010
0000
,
0110
0000
0001
0000
1000
0100
0001
0000
1000
0000
0001
0100
1000
0000
0010
0000
,
0001
0000
0100
0000
0001
0010
1000
0000
0001
0000
1000
0010
0001
0000
0100
0000
,
0010
0000
1000
0000
0001
0100
1000
0000
0010
0000
1000
0010
0001
0000
0100
0000
,
0010
0000
1000
0000
0001
0010
1000
0000
0001
0000
1000
0100
0001
0000
0010
0000
,
0110
0000
1000
0000
0001
0100
1000
0000
0001
0000
1000
0100
0001
0000
0010
0000
,
1000
0000
0100
0000
1000
0010
0001
0000
1000
0000
0001
0010
1000
0000
0100
0000
,
0010
0000
0001
0000
1000
0100
0001
0000
0010
0000
0001
0010
1000
0000
0100
0000
,
1001
0000
0100
0000
,
0010
0001
0010
0001
0010
0001
0010
0001
1000
0100
1000
0100
1000
0100
1000
0100
,
2100
0000
3100
0010
0002
0000
0103
0010
,
1000
0010
1000
0100
0010
0100
0010
0001
,
0020
0000
1030
0100
0020
0000
1030
0100
,
0010
0001
0100
0001
0010
0100
1000
0010
,
2010
0000
3001
0010
0200
0000
0310
0100
,
0010
0100
1000
0010
0100
0001
1000
0001
,
0200
0000
0301
1000
0002
0000
0103
0010
,
1000
0100
0010
0001
1000
0100
0010
0001
,
0102
0000
0103
0010
0002
0000
0013
0100
,
0010
1000
0100
0010
0001
0100
0010
1000
,
0020
0000
1030
0100
0020
0000
1030
0100
,
0010
0001
0100
1000
0010
0001
0100
0001
,
0020
0000
0031
0100
2000
0000
3010
0100
,
0001
0010
0100
0010
0001
0100
1000
0010
,
2000
0000
3001
0100
0002
0000
0013
0100
,
0010
0100
0001
0100
0010
0100
1000
0010
,
1010
0000
0100
0010
0001
0000
0101
0000
,
1010
0000
0001
0100
1000
0000
0011
0000
,
1100
0000
0100
1000
0001
0000
0110
0000
,
1001
0000
0010
0001
1000
0000
1001
0000
,
0110
0000
0001
0100
1000
0000
1010
0000
,
0101
0000
1000
0100
0001
0000
1010
0000
,
0101
0000
0010
0001
0100
0000
0110
0000
,
1010
0000
0100
1000
0010
0000
0101
0000
,
1010
0000
0100
0010
0001
0000
1000
0000
,
0010
0000
1000
0100
1000
0000
0001
0000
,
0100
0000
0010
0100
0001
0000
1000
0000
,
0010
0000
0001
0100
0010
0000
1000
0000
,
1010
0000
0100
1000
0100
0000
0010
0000
,
0110
0000
0001
0010
0001
0000
0100
0000
,
0101
0010
0100
1000
0010
0100
0001
0010
,
0100
0000
0001
0000
1000
0000
0010
0000
1000
0100
0010
0001
1000
0010
0100
0001
,
2001
0000
3100
0010
0002
0000
0103
0010
,
1000
0010
1000
0100
0010
0100
0010
0001
,
0020
0000
1030
0100
0020
0000
1030
0100
,
0010
0001
0100
0001
0010
0100
1000
0010
,
2010
0000
3001
0010
0200
0000
0310
0100
,
0110
0100
1000
0010
0100
0001
1000
0001
,
1000
0100
0010
0100
0010
1000
0100
1000
0010
0100
0001
0010
0100
0010
0001
0100
,
0001
1000
0100
1000
0100
0010
0001
0010
0001
0010
0100
1000
0010
1000
0001
0100
,
0220
0000
0000
0000
,
0330
0000
0000
0000
;
