#TITLE:꿈속의 신부;
#SUBTITLE:;
#ARTIST:BeautifulDay;
#TITLETRANSLIT:Bride In Dream;
#SUBTITLETRANSLIT:;
#ARTISTTRANSLIT:BeautifulDay;
#GENRE:;
#CREDIT:DJSuperNOVA;
#MUSIC:Bride In Dream.ogg;
#BANNER:Bride In Dream.png;
#BACKGROUND:Bride In Dream-bg.png;
#CDTITLE:;
#SAMPLESTART:28.994;
#SAMPLELENGTH:16.552;
#SELECTABLE:YES;
#OFFSET:-0.028;
#BPMS:0.000=116.000
,188.000=58.000
,196.000=116.000
,212.000=232.000
,220.000=116.000
,284.000=58.000
;
#STOPS:;
#DISPLAYBPM:116.000;
#BGCHANGES:;
#FGCHANGES:;

//--------------- dance-single - DJSuperNOVA ----------------
#NOTES:
     dance-single:
     DJSuperNOVA:
     Beginner:
     1:
     0,0,0,0,0:
0000
0000
0000
0000
,
0000
0000
0000
0000
,
0001
0000
0000
0000
,
1000
0000
0000
0000
,
0010
0000
0100
0000
,
0000
0001
0000
0001
,
1000
0000
0000
0000
,
1000
0000
0000
0000
,
0001
0000
0000
0000
,
0001
0000
0000
0000
,
0100
0000
0000
0000
,
0100
0000
0000
0000
,
0010
0000
0000
0000
,
1001
0000
0000
0000
,
1000
0000
0000
0000
,
0010
0000
0000
0000
,
0100
0000
0000
0000
,
0001
0000
1000
0000
,
1001
0000
0000
0000
,
0010
0000
0000
0000
,
0100
0000
0000
0000
,
0001
0000
1000
0000
,
0001
0000
0000
0000
,
1001
0000
0000
0000
,
1001
0000
0000
0000
,
0100
0000
0000
0000
,
0010
0000
0000
0000
,
1000
0000
0000
0000
,
0001
0000
0000
0000
,
0001
0000
0000
0000
,
1000
0000
0000
0000
,
1000
0000
0000
0000
,
0010
0000
0000
0000
,
0100
0000
0000
0000
,
0100
0000
0010
0000
,
1001
0000
0000
0000
,
0001
0000
0000
0000
,
1000
0000
0000
0000
,
0010
1000
0010
0000
,
1000
0000
0000
0000
,
0001
0000
0000
0000
,
0100
0000
0000
0000
,
0010
0000
0010
0000
,
1001
0000
0000
0000
,
1000
0000
0000
0000
,
0001
0000
0000
0000
,
0100
0000
0100
0000
,
0010
0000
0100
0000
,
0010
0000
1000
0000
,
0001
0000
0000
0000
,
1000
0000
0000
0000
,
0001
0000
0001
0000
,
1000
0000
1000
0000
,
1001
0000
0000
0000
,
0000
0000
0000
0000
,
0010
0000
0000
0000
,
0100
0000
0000
0000
,
0001
0000
0000
0000
,
0100
0000
0000
0000
,
1000
0000
0000
0000
,
0010
0000
0000
0000
,
1000
0000
0000
0000
,
0001
0000
0000
0000
,
1001
0000
0000
0000
,
1001
0000
0000
0000
,
1001
0000
0000
0000
,
1001
0000
0000
0000
,
1000
0000
0000
0000
,
0001
0000
0000
0000
,
1000
0000
0001
0000
,
1000
0000
0001
0000
,
1001
0000
0000
0000
;

//--------------- dance-single - DJSuperNOVA ----------------
#NOTES:
     dance-single:
     DJSuperNOVA:
     Easy:
     4:
     0,0,0,0,0:
0000
0000
0000
0000
,
0000
0000
0000
0000
,
0010
0000
0000
0000
,
0100
0000
0000
0000
,
0001
0000
1000
0000
,
0000
0010
0000
0010
,
0110
0100
0000
0100
,
0000
0001
0000
0001
,
0000
1000
0000
1000
,
0000
0010
0000
0010
,
1000
0001
0000
0001
,
0100
1000
0000
1000
,
0010
0100
0000
0100
,
1001
0110
1001
0000
,
1000
0001
1000
0001
,
0000
1000
0001
1000
,
0100
0010
0100
0010
,
1000
0001
0000
0001
,
1001
1000
0010
1000
,
0000
0010
1000
0100
,
0000
0001
1000
0001
,
0100
0010
0100
1001
,
0000
0000
0000
1000
0000
0001
0000
0000
1000
0000
0000
0000
0001
0000
0000
0000
,
0110
0000
0000
0000
,
1001
0000
0000
0000
,
1000
0000
1000
0000
,
0001
0000
0001
0001
,
0100
0000
0010
0000
,
0010
0010
1000
0000
,
0001
0000
0001
0000
,
1000
1000
0001
0001
,
1001
0100
0010
0001
,
0010
0100
1000
0100
,
1000
0100
0001
0100
,
1000
1000
1010
0000
,
0101
0100
0010
0100
,
1000
0001
0100
0010
,
1000
1000
0001
0001
,
1001
0110
1001
0000
,
1000
0001
1000
0001
,
0000
1000
0001
1000
,
0100
0010
0100
0010
,
1000
0001
0000
0001
,
1001
1000
0010
1000
,
0000
0010
1000
0100
,
0000
0001
1000
0001
,
0100
0010
0100
0000
,
1000
0000
0001
0000
,
0100
0000
0010
0000
,
0110
0000
0000
0000
,
1010
0000
0000
0000
,
0101
0000
0010
0000
,
0100
0000
0010
0010
,
1001
0000
0000
0000
,
0000
0000
0000
0000
,
1000
0001
1000
0001
,
0000
1000
0001
1000
,
0100
0010
0100
0010
,
1000
0001
0000
0001
,
1001
1000
0010
1000
,
0000
0010
1000
0100
,
0000
0001
1000
0001
,
0100
0010
0100
0000
,
1000
0001
1000
0001
,
1001
0000
0001
0100
,
0110
0000
0100
0010
,
1000
0001
1000
0001
,
1001
0000
0010
1000
,
0001
0000
1000
0100
,
0001
0000
1000
0001
,
0100
0010
0100
0010
,
0100
0000
0000
0000
;

//--------------- dance-single - DJSuperNOVA ----------------
#NOTES:
     dance-single:
     DJSuperNOVA:
     Medium:
     10:
     0,0,0,0,0:
0000
0000
0000
0000
,
0000
0000
0000
0000
,
0002
0000
0000
0000
,
2003
0000
0000
0000
,
3200
0000
0320
0000
,
0032
1000
0000
1003
,
0110
0100
0000
0100
,
0000
0010
0000
0010
,
0000
1000
0000
1000
,
0000
0001
0000
0001
,
1000
0000
0010
1000
0001
0000
0100
0001
,
1000
0000
0100
1000
0100
0000
0010
0001
,
0010
0010
0100
0100
,
1010
0101
0110
1001
,
1000
0010
0100
0001
1000
0010
0100
0000
,
1000
0100
1000
0100
0001
0010
0001
0000
,
0100
0001
0100
0001
0100
0010
0100
0000
,
1000
0010
1000
0010
1000
0100
0010
0000
,
1000
0010
1000
0010
0100
0001
0100
0001
,
1000
0100
1000
0100
0001
0100
0001
0100
,
1000
0010
0100
0001
1000
0010
0100
0001
,
1000
0001
1000
0001
0100
0010
0100
0010
,
0000
0000
1000
0100
0000
0010
0000
0000
0100
0000
0100
0000
0010
0000
0010
0000
,
1001
0000
0000
0000
0000
0000
0000
0110
,
1002
0000
0000
0000
0000
0000
1000
1003
,
0100
0000
0001
0000
0100
1000
0001
0000
,
1000
0000
0001
0000
1000
0001
2000
0000
,
3001
0000
0100
0000
1000
0100
0010
0000
,
1000
0000
0001
0000
0100
0001
1000
0010
,
1000
0000
0001
0000
1000
0100
0001
0000
,
0101
0000
1010
0000
0001
0100
1000
0100
,
0001
0100
0001
0100
0001
0100
0001
0100
,
0010
0100
0010
0100
0010
0100
0010
0100
,
1000
0010
1000
0010
1000
0010
1000
0010
,
1000
0001
1000
0001
1000
0010
0100
0001
,
1000
0100
1000
0100
1000
0100
1000
0100
,
0010
0100
0010
0100
0010
0100
0010
0100
,
0001
0010
0001
0010
0001
0010
0001
0010
,
1001
0000
0110
0000
1001
0000
1000
0100
,
0001
0100
0010
1000
0100
0010
0001
1000
,
0001
1000
0010
1000
0001
0100
0010
0100
,
1000
0001
0100
0010
1000
0001
1000
0010
,
1000
0100
0010
0001
1000
0100
1000
0000
,
0001
0100
0010
1000
0001
0100
0001
1000
,
0001
0100
0010
1000
0010
1000
0001
0100
,
0001
0010
0100
1000
0100
0010
0001
1000
,
0010
1000
0100
0010
0001
1000
0010
0000
,
0001
1000
1000
1000
0010
0001
0001
0001
,
0100
0010
0010
0010
1000
0100
0100
0100
,
1001
0100
0100
0100
,
1001
0010
0010
0010
,
1001
1000
1001
0001
,
1001
0110
0101
1001
,
1010
0000
0000
0000
,
0000
0000
0000
0000
,
2002
3003
0100
0000
2020
3030
0001
0000
,
0220
0330
1000
0000
0022
0033
1000
0000
,
2020
3030
0001
0000
0202
0303
1000
0000
,
2020
3030
0100
0000
2002
3003
0010
0000
,
1000
0010
1000
0100
0001
0100
1000
0000
,
0001
0010
0100
0010
0001
0010
0100
0000
,
0001
1000
0001
0010
0100
1000
0001
0000
,
1000
0010
0001
0100
1000
0010
0100
0000
,
1001
1010
0011
0101
,
0101
1000
0011
0110
,
1100
0001
1010
0100
,
0110
0010
0011
0001
,
1000
0001
1000
0001
1000
0100
0010
0001
,
0100
0010
0100
0010
0001
0100
0010
1000
,
0001
0100
0001
0100
0010
1000
0001
0100
,
0001
0010
0100
1000
0001
0010
0100
1000
,
0001
0000
0000
0000
;

//--------------- dance-single - DJSuperNOVA ----------------
#NOTES:
     dance-single:
     DJSuperNOVA:
     Hard:
     13:
     0,0,0,0,0:
0000
0000
0000
0000
,
0000
0000
0000
0000
,
0200
0000
0000
0000
,
0302
0000
0000
0000
,
2003
0000
3020
0000
,
1030
0100
0000
1000
0001
0000
1000
0010
0000
0010
0000
0100
0010
0000
1000
0010
,
0100
0001
0000
0001
,
1000
0010
0000
1000
0001
0000
1000
0010
0000
0010
0000
0100
0001
0000
1000
0000
,
0010
1000
0000
1000
,
0001
0100
0000
0001
0010
0000
0001
1000
0000
1000
0000
0010
0100
0000
0010
0000
,
0001
1000
0000
1000
0000
1000
0000
0002
0000
0000
0000
0000
2003
0000
0000
3010
,
0100
0010
0000
0010
0000
0010
0000
0200
0000
0000
0000
0000
0301
0000
0000
0000
,
1000
0010
0100
0000
0001
0100
0010
0000
,
1001
0000
0000
0000
0110
0000
0000
0000
1001
0000
0000
0000
0010
0100
0010
0100
,
0001
0000
1000
0010
0000
0000
0100
0000
0100
0001
1000
0010
0000
0000
0100
0000
,
0001
0000
1000
0100
0000
0010
0001
0000
1000
0010
0100
0001
0000
0000
1000
0000
,
0001
0000
0010
0100
0000
1000
0010
1000
0000
0001
0000
0100
0000
0100
0010
0000
,
0001
0000
1000
0010
0000
0100
0001
0000
1000
0100
1000
0010
0000
0100
0000
0100
,
0001
1000
0010
1000
0000
0000
0010
0000
0001
0100
0010
1000
0000
0000
0100
0000
,
0001
0000
1000
0010
0000
0010
0100
0000
0010
1000
0001
1000
0000
0000
0100
0000
,
0001
0000
1000
0010
0000
0100
0001
0010
0000
1000
0000
0001
0000
0100
0010
0000
,
1000
0000
0100
1000
0000
0010
1000
0000
0100
0001
0000
1000
0010
0100
0010
0100
,
0000
0000
1000
0100
0000
0010
0000
0001
1000
0010
1000
0000
0101
0000
0110
0000
,
1010
0000
0000
0000
0000
0000
0000
0110
,
2001
0000
0000
0000
0000
0000
0000
0000
0000
0000
0000
3000
0001
1000
0001
0000
,
1001
0000
0010
0100
0010
0100
0000
0000
1000
0010
1000
0010
0000
0000
0100
0000
,
0001
0000
1000
0100
1000
0100
0000
0000
0001
0000
1000
0100
0002
0000
0000
0000
,
1003
0000
0001
0000
1000
0010
0000
1000
0001
0000
1000
0100
1000
0000
0002
0000
,
0003
0000
0100
0001
0100
0001
0000
0000
1000
0000
0001
0100
1000
0000
0001
0000
,
1000
0000
0001
0000
1000
0010
0000
0100
0010
0000
0001
0100
0001
0000
1000
0000
,
0101
0000
0000
0000
1010
0000
0100
0000
0010
0001
0010
0000
0100
0000
1000
0000
,
0101
0000
0110
0000
1000
0010
0100
0001
,
1010
0000
0000
0101
0000
0000
0110
0000
1000
0000
0001
0000
0000
0000
0101
0000
,
0000
1000
0010
1000
0001
1000
0010
0010
,
0000
0000
0110
0000
0000
0000
1000
0000
0001
0100
0001
0000
0010
0000
0100
0000
,
0120
0000
0230
0000
0301
0100
1000
0100
,
0101
0000
0000
1010
0000
0000
2100
0000
0000
0000
3010
0000
0001
0000
0200
0000
,
0000
1300
0010
0100
0001
1000
0100
0001
,
0101
0000
0000
0000
1010
0000
0010
0000
0101
0000
0100
0000
0100
0010
0100
0010
,
0001
0000
1000
0010
0000
0000
0100
0000
0100
0001
1000
0010
0000
0000
0100
0000
,
0011
0000
1000
0100
0000
0010
0001
0000
1000
0010
0100
0001
0000
0000
1000
0000
,
1001
0000
0010
0100
0000
1000
0010
1000
0000
0001
0000
0100
0000
0100
0010
0000
,
0001
0000
1000
0010
0000
0100
0001
0000
1000
0100
1000
0010
0000
0100
0000
0100
,
0001
1000
0010
1000
0000
0000
0010
0000
0001
0100
0010
1000
0000
0000
0100
0000
,
1001
0000
1000
0010
0000
0010
0100
0000
0010
1000
0001
1000
0000
0000
0010
0000
,
1001
0000
1000
0010
0000
0100
0001
0010
0000
1000
0000
0001
0000
0100
0010
0000
,
1000
0000
0100
1000
0000
0010
1000
0000
0100
0001
0000
1000
0010
0100
0010
0100
,
0001
1000
0100
0010
0000
1000
0100
0001
0100
1000
0010
0001
0000
1000
0100
0001
,
1000
0100
0010
0001
1000
0010
0100
0001
1000
0010
1000
0001
1000
0010
0100
0001
,
2001
0000
0000
0000
0001
0000
0000
0000
0001
0000
0000
3100
0010
0000
1000
0000
,
1020
0000
0000
0000
1000
0000
0000
0000
1000
0000
0000
0130
0001
0000
1000
0000
,
0001
1000
0001
1000
0010
1000
0001
0100
0001
0100
0001
0100
0001
1000
0001
1000
,
0001
0010
0100
1000
0010
1000
0100
0010
0001
0000
1000
0000
0010
0000
0100
0000
,
0110
0000
0000
0000
,
0000
0000
0000
0000
,
0002
0000
2003
0000
3010
0100
0000
0100
0020
0000
0230
0000
0301
1000
0000
1000
,
0020
0000
2030
0000
3001
0100
0000
0100
0002
0000
2003
0000
3001
0100
0000
0100
,
0020
0000
2030
0000
3100
0010
0000
0010
0002
0000
0203
0000
0310
1000
0000
1000
,
0200
0000
0320
0000
0031
1000
0000
1000
0020
0000
0230
0000
0301
0100
0000
0100
,
0020
0000
2030
0000
3100
0010
0000
0010
0002
0000
0203
0000
0310
1000
0000
1000
,
0200
0000
0320
0000
1030
0010
0000
0010
0200
0000
0302
0000
1003
0001
0000
0001
,
0200
0000
0320
0000
0031
0100
0000
0100
0020
0000
2030
0000
3010
0100
0000
0100
,
0002
0000
2003
0000
3010
0100
0000
0010
2000
0000
3002
0000
0103
0010
0100
0010
,
1001
0000
0101
1010
,
0110
0000
0011
0110
,
1100
0000
1010
0110
,
0101
0000
0110
0000
1010
0000
1001
0110
,
0001
1000
0010
1000
0000
0000
0110
0000
0001
0100
0010
1000
0000
0000
0100
0000
,
1001
0000
1000
0010
0000
0010
0100
0000
0010
1000
0001
1000
0000
0000
1010
0000
,
1001
0000
1000
0010
0000
0100
0001
0010
0000
1010
0000
0011
0000
0100
0010
0000
,
1000
0010
1000
0010
0100
0001
0100
0001
0010
0001
0010
0001
1000
0100
1000
0100
,
0010
0000
0000
0000
;
