#TITLE:꿈속의 신부;
#SUBTITLE:(Remake);
#ARTIST:서의범;
#TITLETRANSLIT:Bride In Dream;
#SUBTITLETRANSLIT:(Remake);
#ARTISTTRANSLIT:Seo Ui Beom;
#GENRE:;
#CREDIT:DJSuperNOVA;
#MUSIC:Bride In Dream Remake.ogg;
#BANNER:Bride In Dream (Remake).png;
#BACKGROUND:Bride In Dream (Remake)-bg.png;
#CDTITLE:;
#SAMPLESTART:50.034;
#SAMPLELENGTH:16.000;
#SELECTABLE:YES;
#OFFSET:-0.034;
#BPMS:0.000=120.000;
#STOPS:;
#BGCHANGES:;
#FGCHANGES:;

//--------------- dance-single - DJSuperNOVA ----------------
#NOTES:
     dance-single:
     DJSuperNOVA:
     Challenge:
     16:
     0,0,0,0,0:
0000
0000
0000
0000
,
0100
0000
0010
0000
0001
0000
1000
0100
0000
0000
0100
0000
0100
0010
0100
0010
,
1000
0000
0010
0000
0100
0000
0001
0100
0000
0001
0000
0000
0000
0000
0000
0000
,
1000
0000
0100
0000
1000
0000
0010
0100
0000
0000
0100
0000
0010
0100
0010
0100
,
0001
0000
1000
0000
0010
1000
0000
0000
0010
1000
0000
0100
0010
0000
1000
0100
,
0001
0000
0100
0000
0010
0000
1000
0100
0000
0010
0001
0000
0100
0001
0100
0001
,
0100
0000
0010
0000
1000
0000
0001
1000
0000
0010
0000
0000
1010
0000
0100
0000
,
0022
0033
0011
0100
2020
3030
1010
0100
,
1001
0000
1000
0000
0001
1000
0000
1000
0001
1000
0000
0100
0010
0000
0100
0010
,
0100
0000
0101
0100
0010
1000
0010
1000
,
0000
1000
0100
0010
1000
0010
1010
0010
,
0011
0000
0000
0000
1100
0000
0000
0000
1000
0000
0100
0000
0001
0100
0000
0000
,
0110
0000
0000
0000
1001
0000
0000
0000
1010
0000
0000
1000
0010
0000
0110
0000
,
0101
0000
1010
0100
0010
1000
0000
0001
,
0100
0100
0010
1000
0010
0100
1100
0100
,
0011
0000
1010
0000
0100
0001
0010
0001
,
1000
0000
0010
0000
0100
0010
0000
0000
0010
0010
0000
0010
0100
0000
0001
0000
,
1010
0000
0101
0000
1000
0100
0001
0100
,
1100
0000
0000
0101
0000
0000
0110
0000
1000
0000
0001
0000
0100
0000
0010
0000
,
0000
0010
1000
0100
1000
0010
0100
0001
,
1000
0000
0001
0000
1000
0010
0000
0000
0100
0001
0000
0001
0100
0000
0010
0100
,
1010
0000
0101
0000
0001
0010
0100
1000
,
0010
0000
0000
0100
1000
0000
0010
0000
0100
0000
0001
0000
1001
0000
1000
0000
,
0010
0100
0010
0100
0001
0100
1000
0100
,
0012
0000
0203
0010
2300
0100
3020
0031
,
1000
0100
1000
0010
0100
0001
0010
0001
0010
0100
1000
0010
0100
0010
0100
0001
,
0100
0010
1000
0100
0010
0001
0010
0100
1000
0010
0100
0010
1000
0100
0010
0001
,
0100
0001
0010
0100
1000
0010
0100
0001
0100
0010
1000
0100
0010
1000
0010
0100
,
1000
0001
0100
0010
0100
0001
0010
0100
1000
0100
0010
0001
0100
0000
0100
0010
,
0100
1000
0001
0010
0100
0010
0100
0010
0001
1000
0010
0100
0001
0100
0010
1000
,
0100
0010
0100
1000
0100
1000
0010
0100
0001
1000
0100
1000
0001
0100
0010
1000
,
0010
0100
0001
0010
0100
0010
0100
1000
0001
0100
0010
1000
0100
0010
0001
0100
,
1000
0000
0001
0000
1000
0001
1000
0000
0100
0010
0000
0010
0100
0000
0001
0100
,
0010
0100
1001
0010
0001
0100
0010
1000
,
0010
0000
0100
0000
0001
0000
1000
0000
0100
0000
0000
0100
0010
0000
0010
0000
,
1001
0000
0100
0000
0010
0000
0001
0000
0100
0000
0010
0000
1000
0100
0000
0000
,
0110
0000
0001
0000
1000
0001
0000
0000
0001
0100
0000
0100
0010
0000
1000
0010
,
0110
0000
1001
0010
0001
0100
0010
1010
,
1000
0000
0100
0000
0010
0000
0001
0000
0100
0000
0000
0100
0010
0000
0110
0000
,
2002
3003
1000
0010
0220
0330
0100
0001
,
0011
0000
1000
0000
0010
1000
0000
0000
0100
0001
0000
0001
0100
0000
0010
0000
,
0110
1001
0220
0330
,
0100
0000
1100
0100
0010
0001
0000
1000
,
0000
0001
0100
0010
1000
0010
0100
0001
,
1010
0000
0000
0000
0101
0000
0000
0000
0001
0000
0100
0000
1000
0100
0000
0000
,
0100
0000
0010
0000
1000
0000
0000
0000
1001
0000
0000
0001
0010
0000
0100
0000
,
1100
0000
0011
0100
0010
0001
0000
1000
,
0000
0100
0010
0001
0010
0100
0101
0100
,
1010
0000
0011
0000
0100
1000
0010
1000
,
0001
0000
0010
0000
0100
0010
0000
0000
0010
0010
0000
0010
0100
0000
1000
0000
,
0011
0000
1100
0000
0001
0100
1000
0100
,
0101
0000
0000
1000
0100
0000
0110
0000
0001
0000
1000
0000
0100
0000
0110
0000
,
1000
0010
0001
0100
0001
0010
0100
1000
,
0001
0000
1000
0000
0001
0010
0000
0000
0100
1000
0000
1000
0100
0000
0010
0100
,
0011
0000
1100
0000
1000
0010
0100
0001
,
0010
0000
0000
0100
0001
0000
0010
0000
0100
0000
1000
0000
1001
0000
0001
0000
,
0010
0100
0010
0100
1000
0100
0001
0100
,
2010
0000
0000
3000
0200
0000
0010
0300
0002
0000
0100
0003
0020
0000
2030
0000
,
3001
0100
0010
1000
0100
0010
0100
1000
0001
0010
0001
0100
0010
1000
0100
1000
,
0010
0100
0001
0010
0100
1000
0100
0010
0001
0100
0001
0100
0010
1000
0100
1000
,
0010
0100
0001
0100
0010
1000
0001
0100
0001
0010
0001
0100
0010
1000
0001
0100
,
0010
0100
0001
0100
0010
0001
0010
0100
1000
0010
0100
0010
1000
0100
0010
0001
,
1000
0100
1000
0010
0100
0001
1000
0001
0100
0010
1000
0001
1000
0100
0010
0100
,
1000
0001
0100
0010
1000
0100
0010
0001
0100
0001
0010
0001
1000
0100
1000
0010
,
0100
0001
1000
0100
0010
0001
0100
0010
0100
1000
0100
0010
0100
0001
1000
0010
,
0100
0000
0001
0000
0100
0001
0000
0000
1000
0010
0000
0010
0110
0000
1000
0100
,
0001
0000
0100
0000
0001
0000
0100
0001
0000
0000
2000
0000
0000
3000
0010
0100
,
0010
0000
1000
0000
0010
0000
0100
0010
0000
0000
0200
0000
0000
0300
0010
0001
,
1000
0000
0010
0000
1000
0000
0010
1000
0000
0000
0020
0000
0000
0030
0100
0000
,
1000
0000
0010
0100
0000
0001
0010
0000
1000
0100
0000
0010
0001
0000
1000
0100
,
0001
0000
0100
0000
1000
0000
0010
0001
0000
0000
0200
0000
0000
0300
0020
0000
,
0000
0030
1000
0000
0100
0000
0010
1000
0000
0000
0200
0000
0000
0300
0010
0001
,
0100
0001
0000
1000
0100
0010
0001
2002
,
0000
0000
0000
0000
0000
0000
0000
0000
0000
0000
0000
0000
3003
0000
0100
0010
,
1000
1000
1002
1003
,
0110
1000
0100
0010
0000
0100
0010
0100
,
0010
0001
1000
0010
0000
0000
0000
0000
,
1000
0100
1000
0001
0000
0100
0001
0100
,
0010
1000
0100
0010
1000
0010
0000
0001
,
1000
0100
0010
0001
0000
0100
1000
0100
,
1000
0010
0100
0001
0000
1000
0100
0010
,
0011
0000
0000
0000
0000
0000
0000
0000
1100
0000
0000
0000
0000
0000
0000
1000
,
0001
0000
0010
0000
0100
0010
0000
0000
0010
0010
0000
0100
0010
0000
0100
0010
,
1000
0100
0010
0001
1000
0100
1000
0001
0010
0100
1000
0001
0010
0001
1000
0100
,
0010
0100
1000
0001
0010
0100
0010
0001
1000
0010
0100
0010
1000
0001
0010
0100
,
1000
0100
0010
0001
0100
0001
0010
0100
1000
0001
0100
0010
0100
0001
0010
0100
,
1000
0000
0001
0000
1000
0010
1000
0000
0010
0100
0000
0001
0100
0000
0010
1000
,
0100
1000
0010
0100
0001
0100
0010
1000
0100
1000
0010
0100
0010
0001
0010
0100
,
1000
0100
0010
0100
0010
0001
0100
0010
1000
0001
0010
0100
1000
0100
0010
0001
,
1000
0010
1000
0001
0100
0001
0010
0001
0100
0010
0001
1000
0100
0001
1000
0100
,
0001
0000
1000
0000
0001
0100
0000
0000
0100
0010
0000
0010
1000
0000
0100
0010
,
0100
0000
0000
0000
;
