#TITLE:Andromeda;
#SUBTITLE:;
#ARTIST:nao.paradigm;
#TITLETRANSLIT:;
#SUBTITLETRANSLIT:;
#ARTISTTRANSLIT:;
#GENRE:;
#CREDIT:DJSuperNOVA;
#MUSIC:Andromeda.ogg;
#BANNER:Andromeda.png;
#BACKGROUND:Andromeda-bg.png;
#CDTITLE:;
#SAMPLESTART:80.026;
#SAMPLELENGTH:26.122;
#SELECTABLE:YES;
#OFFSET:1.607;
#BPMS:0.000=147.000;
#STOPS:;
#BGCHANGES:;
#FGCHANGES:;

//--------------- dance-single - DJSuperNOVA ----------------
#NOTES:
     dance-single:
     DJSuperNOVA:
     Beginner:
     2:
     0,0,0,0,0:
0000
0000
0000
0000
,
0000
0000
0020
0000
,
0130
0000
0000
0000
,
0100
0000
0000
0000
,
0100
0000
0000
0000
,
0100
0000
0000
0000
,
0001
0000
0000
0000
,
0001
0000
0000
0000
,
0001
0000
0000
0000
,
0001
0000
1000
0000
,
0100
0000
0100
0000
,
1000
0000
1000
0000
,
0010
0000
0010
0000
,
0001
0000
0001
0000
,
1000
0000
1000
0000
,
0001
0000
0001
0000
,
1000
0000
0001
0000
,
2000
0000
0002
3003
,
0100
0000
0000
0000
,
0100
0000
0000
0000
,
0001
0000
0000
0000
,
0001
0000
0000
0000
,
1000
0000
0000
0000
,
1000
0000
0000
0000
,
0010
0000
0000
0000
,
0010
0000
0000
0000
,
1000
0000
0000
0000
,
0100
0000
0000
0000
,
0001
0000
0000
0000
,
0100
0000
0000
0000
,
1000
0000
0000
0000
,
0100
0000
0000
0000
,
0010
0000
0000
0000
,
0001
0000
0000
0000
,
1001
0000
1000
0000
,
0100
0000
1000
0000
,
0100
0000
0010
0000
,
0001
0000
0010
0000
,
0001
0000
0100
0000
,
0010
0000
1000
0000
,
0001
0000
1000
0000
,
0100
0000
0010
0000
,
0001
0000
0001
0000
,
1000
0000
1000
0000
,
0010
0000
0010
0000
,
0100
0000
0100
0000
,
0001
0000
0001
0000
,
1000
0000
1000
0000
,
0100
0000
0100
0000
,
1000
0000
0001
0000
,
1001
0000
0001
0000
,
0100
0000
0010
0000
,
0100
0000
1000
0000
,
0100
0000
0010
0000
,
0100
0000
0001
0000
,
0100
0000
1000
0000
,
0100
0000
0001
0000
,
0100
0000
0010
0000
,
1000
0000
0100
0000
,
0001
0000
0100
0000
,
0010
0000
0100
0000
,
1000
0000
0100
0000
,
1000
0000
0001
0000
,
0100
0000
0001
0000
,
1000
0000
0100
0000
,
1000
0000
0001
0000
,
1001
0000
0100
0000
,
1000
1000
1000
0000
,
0100
0000
0001
0000
,
0010
0010
0010
0000
,
1000
0000
0100
0000
,
0001
0001
0001
0000
,
1000
0000
0100
0000
,
0010
0100
0010
0000
;

//--------------- dance-single - DJSuperNOVA ----------------
#NOTES:
     dance-single:
     DJSuperNOVA:
     Easy:
     7:
     0,0,0,0,0:
0000
0000
0000
0000
,
0000
0000
0020
0000
,
0130
0100
0100
0100
,
0001
0001
0001
0001
,
1000
1000
1000
1000
,
0010
0010
0100
0100
,
0001
0001
0001
0001
,
1000
1000
1000
1000
,
0010
0010
0010
0010
,
0100
0100
0001
0001
,
1001
0100
0001
0100
,
1000
0100
0001
0100
,
0010
1000
0010
0001
,
0010
1000
0010
0001
,
0100
0001
0010
0001
,
0100
0001
0010
0100
,
1000
0010
0100
0010
,
1000
0100
0010
0001
,
1001
0000
1000
0000
,
0001
0000
0001
0000
,
0100
0000
0100
0000
,
0010
0000
0010
0000
,
1000
0000
1000
0000
,
0001
0000
0001
0000
,
0100
0000
0100
0000
,
0001
0000
0001
0000
,
1001
0100
0001
0100
,
1000
1000
0001
0001
,
0010
0100
1000
0100
,
0010
0010
0100
0100
,
1000
0100
0001
0100
,
0010
0010
1000
1000
,
0001
0100
1000
0100
,
0010
0001
0100
1000
,
1001
0010
0100
0000
,
0010
0100
1000
0000
,
0010
0001
0100
0000
,
0010
1000
0100
0000
,
0100
1000
0100
0000
,
0010
0001
0010
0000
,
0001
0100
1000
0000
,
1000
0100
0010
0000
,
0001
0100
0010
0010
,
0100
1000
0100
0010
,
0001
0100
0010
0010
,
1000
0100
0001
0010
,
1000
0100
1000
1000
,
0010
0100
0001
0100
,
0010
0100
1000
1000
,
0010
0100
0001
0100
,
1001
0010
0100
1000
,
0100
0100
0010
0010
,
0101
0010
0100
1000
,
0001
0001
1000
1000
,
1010
0100
0010
0001
,
0100
0100
0001
0001
,
1001
0010
0100
1000
,
0010
0100
1000
1000
,
0101
0010
0100
1000
,
1100
0100
0010
0001
,
0101
0010
0100
1000
,
1100
0100
1000
0010
,
0110
0100
1000
0001
,
0101
0010
0100
1000
,
1001
0010
0100
1000
,
0110
0100
1000
0001
,
0101
1000
0010
0100
,
0001
0001
0100
0100
,
1010
0100
0001
0010
,
1000
1000
0001
0001
,
0101
0010
0100
0100
,
1100
0100
0010
0001
,
1000
0100
0010
0001
,
0001
0100
0010
0110
;

//--------------- dance-single - DJSuperNOVA ----------------
#NOTES:
     dance-single:
     DJSuperNOVA:
     Medium:
     11:
     0,0,0,0,0:
0000
0000
0000
0000
,
0000
0000
0020
0000
,
0130
0010
0100
0010
,
1000
0100
1000
0100
,
0010
0001
0010
0001
,
0010
0100
0010
0100
,
1000
0100
0001
0100
,
0010
1000
0010
1000
,
0100
0001
0001
0010
,
0010
0100
0100
1000
,
0100
0010
0000
0010
0100
0010
0000
0010
,
0100
0001
0000
0001
0100
1000
0000
1000
,
0010
0100
0000
0100
0001
1000
0000
1000
,
0100
0001
0000
0001
0100
0010
0000
0010
,
0100
1000
0000
1000
0100
0001
0000
0001
,
0010
0001
0000
0010
1000
0010
0000
0010
,
0001
0010
0000
0100
0010
0100
0000
1000
,
0100
0001
0000
0010
0100
0010
0000
0100
,
0010
0000
0000
0000
0010
0000
0000
0010
0000
0000
0100
0000
0000
0000
0100
0000
,
0001
0000
0000
0000
0001
0000
0000
0001
0000
0000
1000
0000
0000
0000
1000
0000
,
0100
0000
0000
0000
0100
0000
0000
0100
0000
0000
0100
0000
0000
0000
0010
0000
,
0001
0000
0000
0000
0001
0000
0000
0001
0000
0000
0001
0000
0000
0000
0100
0000
,
0010
0000
0000
0000
0010
0000
0000
0010
0000
0000
0010
0000
0000
0000
1000
0000
,
0100
0000
0000
0000
0100
0000
0000
0100
0000
0000
0100
0000
0000
0000
0010
0000
,
0001
0000
0000
0000
0001
0000
0000
0001
0000
0000
0100
0000
0000
0000
0100
0000
,
0010
0000
0000
0000
0010
0000
0000
0010
0000
0000
1000
0000
0000
0000
1000
0000
,
0100
0000
0000
0000
0010
0000
0000
0100
0000
0000
0001
0000
0000
0000
0100
0000
,
0010
0000
0000
0000
1000
0000
0000
0100
0000
0000
0010
0000
0000
0000
0001
0000
,
0100
0000
0000
0000
0010
0000
0000
0001
0000
0000
0100
0000
0000
0000
0100
0000
,
0010
0000
0000
0000
0100
0000
0000
1000
0000
0000
0100
0000
0000
0000
0010
0000
,
0100
0000
0000
0000
0010
0000
0000
1000
0000
0000
0100
0000
0000
0000
1000
0000
,
0010
0000
0000
0000
0100
0000
0000
0001
0000
0000
0100
0000
0000
0000
0001
0000
,
0010
0000
0000
0000
0100
0000
0000
0010
0000
0000
1000
0000
0000
0000
1000
0000
,
0001
0100
0010
1000
0100
0010
0001
0000
,
1001
0010
0100
1000
,
0100
1000
0100
0010
,
0110
0001
0010
0100
,
1000
0010
0100
0010
,
1001
0010
0100
1000
,
1100
0010
0100
1001
,
0011
1000
0010
0100
,
0001
1000
0100
0001
,
1001
0000
0000
0000
0100
0000
0000
0010
0000
0000
0001
0000
0000
0100
0000
0000
,
0010
0000
0000
0100
0000
0000
0010
0000
0000
1000
0000
0100
0000
0010
0000
0001
,
1000
0000
0000
0000
0010
0000
0000
0100
0000
0000
0001
0000
0000
0010
0000
0000
,
0100
0000
0000
1000
0000
0000
0100
0000
0000
0010
0000
0001
0000
0100
0000
0001
,
0100
0000
0000
0000
0010
0000
0000
1000
0000
0000
0100
0000
0000
1000
0000
0000
,
0010
0000
0000
0100
0000
0000
0001
0000
0000
0010
0000
0100
0000
1000
0000
0001
,
0100
0000
0000
0000
0010
0000
0000
0100
0000
0000
1000
0000
0000
0100
0000
0000
,
0010
0000
0000
0001
0000
0000
0010
0000
0000
0001
0000
0010
0000
0100
0000
1000
,
0001
1100
0010
0101
,
1000
0100
0010
0100
1000
0100
0001
0000
,
0010
0101
1000
0011
,
0001
0100
1000
0100
0010
0100
0001
0000
,
0010
1001
0100
0110
,
0010
0100
0001
0100
1000
0100
0010
0000
,
1000
1100
0001
0101
,
1000
0001
0010
0100
1000
0100
0001
0000
,
0100
0000
0000
0000
0110
0000
0000
0010
0000
0000
0100
0000
0000
0000
0001
0000
,
1000
0100
1000
0010
0100
0010
0001
0000
,
0001
0000
0000
0000
0101
0000
0000
0100
0000
0000
1000
0000
0000
0000
0001
0000
,
0100
1000
0100
0010
1000
0010
0001
0000
,
1000
0000
0000
0000
1100
0000
0000
0001
0000
0000
0100
0000
0000
0000
0001
0000
,
0010
0001
0100
1000
0010
1000
0100
0000
,
0001
0000
0000
0000
0101
0000
0000
1000
0000
0000
0010
0000
0000
0000
0100
0000
,
0010
1000
0100
0001
1000
0010
0001
0000
,
1000
0100
1000
0010
0100
0010
0001
0010
,
0100
0001
0100
1000
0100
0010
1000
0000
,
0100
0001
0010
0001
0100
0010
1000
0100
,
0010
0001
0100
0010
0100
1000
0001
0000
,
1000
0001
0100
0010
1000
0100
0010
0001
,
0100
0010
1000
0001
0010
0100
1000
0000
,
0001
0010
0001
0010
0100
1000
0100
1000
,
0001
1000
0100
0001
1000
0010
0001
0100
;

//--------------- dance-single - DJSuperNOVA ----------------
#NOTES:
     dance-single:
     DJSuperNOVA:
     Hard:
     14:
     0,0,0,0,0:
0000
0000
0000
0000
,
0000
0000
0020
0000
,
0130
0001
0100
0001
0100
0001
0100
0001
,
0100
0001
1000
0001
1000
0001
1000
0001
,
1000
0010
0100
0010
0100
0010
0100
0010
,
1000
0010
1000
0010
1000
0010
1000
0010
,
0001
0100
0001
0100
0001
0100
0001
0100
,
0010
0100
0010
0100
0010
0100
0010
0100
,
1000
0100
1000
0100
0001
0100
0001
0100
,
0010
1000
0010
1000
0001
0010
0100
1000
,
0001
0001
0100
0010
1000
1000
0100
0010
,
0001
0001
0010
0100
1000
1000
0010
0100
,
0001
0001
1000
0010
0100
0100
0001
1000
,
0010
0010
1000
0001
0100
0100
0001
1000
,
0010
0010
0100
0001
1000
1000
0010
0100
,
0010
0010
0100
0001
1000
1000
0100
0010
,
0100
0100
0001
1000
0001
0001
0100
0001
,
0010
0010
0100
1000
0100
0100
0010
0001
,
1000
0000
0000
0000
1000
0000
0000
0010
0000
0000
0100
0000
0000
0000
0100
0000
,
0001
0000
0000
0000
0001
0000
0000
0010
0000
0000
0100
0000
0000
0000
0100
0000
,
1000
0000
0000
0000
1000
0000
0000
0001
0000
0000
1000
0000
0000
0000
1000
0000
,
0100
0000
0000
0000
0100
0000
0000
1000
0000
0000
0010
0000
0000
0000
0100
0000
,
0010
0000
0000
0000
0010
0000
0000
0001
0000
0000
0100
0000
0000
0000
0001
0000
,
0010
0000
0000
0000
0100
0000
0000
0010
0000
0000
0100
0000
0000
0000
0010
0000
,
0001
0000
0000
0000
0001
0000
0000
0010
0000
0000
0100
0000
0000
0000
0100
0000
,
1000
0000
0000
0000
1000
0000
0000
0100
0000
0000
0010
0000
0000
0000
0010
0000
,
0001
0000
0000
0000
1000
0000
0100
1000
0100
0000
0100
0000
0000
0000
0010
0000
,
0001
0000
0000
0000
0100
0000
0001
0010
0001
0000
0010
0000
0000
0000
0001
0000
,
0100
0000
0000
0000
0100
0000
0010
1000
0010
0000
0010
0000
0000
0000
1000
0000
,
0100
0000
0000
0000
0001
0000
1000
0100
1000
0000
0001
0000
0000
0000
1000
0000
,
0010
0000
0000
0000
0100
0000
0001
0100
0001
0000
1000
0000
0000
0000
0010
0000
,
1000
0000
0000
0000
0001
0000
1000
0010
1000
0000
0001
0000
1000
0000
0100
0000
,
0010
0001
0010
0001
1000
0010
0100
0001
,
0010
0100
1000
0100
0010
0001
0100
0010
,
2000
0000
0200
3000
,
0002
0000
0300
0000
0020
0000
0003
0001
,
0200
0030
2000
0300
,
0020
3000
0200
0030
,
0002
0000
0300
0000
2000
0000
0003
0010
,
0020
0000
3000
0000
0200
0030
0010
0000
,
0002
0300
0200
0300
,
2000
0000
0000
3003
,
1000
0100
1000
0000
1000
0100
0000
0100
0010
0000
0010
0001
0000
0001
0100
0000
,
0100
0010
0000
0010
1000
0000
1000
0100
0000
0010
0000
0100
0000
0010
0000
0100
,
0010
0100
0010
0000
0010
0001
0000
0001
0100
0000
0100
0010
0000
0010
1000
0000
,
1000
0010
0000
0010
0100
0000
0100
0010
0000
0010
0000
0100
0000
0001
0000
0100
,
0001
0100
0001
0000
0001
0010
0000
0010
0001
0000
0001
0100
0000
0100
0010
0000
,
0010
1000
0000
1000
0010
0000
0010
1000
0000
0001
0000
0010
0000
0100
0000
1000
,
0010
0100
0010
0000
1000
0100
0000
0100
1000
0000
0001
1000
0000
0010
1000
0000
,
0001
0100
0000
0001
0010
0000
0010
0001
0000
0100
0000
0010
0000
1000
0000
0100
,
0010
1000
0001
0100
0010
1000
0100
1000
,
0001
0010
0000
0010
0100
0000
0100
1000
0000
1000
0000
0100
0000
0010
0000
0001
,
1000
0100
1000
0010
0100
0001
0010
0001
,
0100
0010
0000
0010
1000
0000
1000
0100
0000
0010
0000
0100
0000
0001
0000
0100
,
0010
1000
0001
0010
0001
0100
0010
1000
,
0001
0100
0000
0100
0001
0000
0001
1000
0000
0010
0000
0100
0000
0001
0000
1000
,
0100
0010
0001
0100
0010
1000
0010
0100
,
0001
0100
0000
0010
0100
0000
0010
1000
0000
0100
0000
0010
0000
0001
0000
1000
,
0100
0000
0000
0000
1100
0000
0000
0001
0100
0000
0001
0000
0100
0000
0010
0000
,
1000
0100
0000
0010
0001
0000
0100
0010
0000
1000
0000
0100
0000
0010
0000
0001
,
1000
0000
0000
0000
0101
0000
0000
1000
0100
0000
1000
0000
0001
0000
0100
0000
,
0001
0100
0000
0010
1000
0000
0100
1000
0000
0010
0000
0100
0000
0001
0000
0010
,
0100
0000
0000
0000
1001
0000
0000
0100
0001
0000
1000
0000
0010
0000
1000
0000
,
0001
0100
0000
0010
0100
0000
1000
0100
0000
0010
0000
0001
0000
0100
0000
0010
,
1000
0000
0000
0000
1010
0000
0000
0010
0100
0000
0001
0000
0100
0000
0010
0000
,
1000
0100
0000
0010
0001
0000
0100
0010
0000
1000
0000
0100
0000
0010
0000
0001
,
1000
0000
0000
0000
1001
0000
0000
1000
0100
0000
0100
0000
0000
0000
0010
0000
,
0001
0100
0000
0001
0100
0000
0010
0100
0000
0010
0100
0000
1000
0000
0100
0000
,
0110
0000
0000
0000
0101
0000
0000
1000
0100
0000
0100
0000
0000
0000
0001
0000
,
1000
0100
0000
1000
0100
0000
0010
0001
0000
0010
0001
0000
0100
0000
0010
0000
,
1010
0000
0000
0000
0101
0000
0000
0001
0010
0000
0010
0000
0000
0000
0100
0000
,
1100
0000
0000
0000
1000
0100
1000
0000
0010
0000
0100
0000
0001
0000
0010
0000
,
0110
0100
0010
1000
0001
0100
0010
1000
,
0100
0001
0100
1000
0010
0100
0001
0100
,
1001
0000
0000
0000
;
