#TITLE:Amadeus;
#SUBTITLE:;
#ARTIST:BeautifulDay;
#TITLETRANSLIT:;
#SUBTITLETRANSLIT:;
#ARTISTTRANSLIT:;
#GENRE:;
#CREDIT:DJSuperNOVA;
#MUSIC:Amadeus.ogg;
#BANNER:Amadeus.png;
#BACKGROUND:Amadeus-bg.png;
#CDTITLE:;
#SAMPLESTART:28.531;
#SAMPLELENGTH:29.997;
#SELECTABLE:YES;
#OFFSET:-0.043;
#BPMS:0.000=80.007
,3.000=73.500
,4.000=79.000
,5.000=78.000
,6.000=77.000
,7.000=78.000
,11.000=77.000
,12.000=125.000
,13.000=231.000
,16.000=160.015
,62.000=320.030
,64.000=160.015
,184.000=80.007
,195.000=160.015
,241.000=40.004
,242.125=80.007
,243.000=200.019
,244.000=160.015
;
#STOPS:62.000=0.375
,195.000=0.375
;
#DISPLAYBPM:80.000:160.000;
#BGCHANGES:;
#FGCHANGES:;

//--------------- dance-single - DJSuperNOVA ----------------
#NOTES:
     dance-single:
     DJSuperNOVA:
     Beginner:
     5:
     0,0,0,0,0:
0000
0000
0000
0000
,
1000
0000
0001
0000
,
0100
0100
0010
0010
,
1001
0000
0000
0000
,
1000
0000
0000
0000
,
0001
0000
0000
0000
,
1000
0000
0000
0000
,
0001
0000
0000
0000
,
0010
0000
0010
0000
,
0010
0000
0010
0000
,
0100
0000
0100
0000
,
0100
0000
0100
0000
,
0001
0000
0001
0000
,
1000
0000
1000
0000
,
0001
0000
0010
0000
,
0100
0000
1000
0000
,
0002
0000
0000
0003
,
0020
0000
0000
0030
,
2000
0000
0000
3000
,
0002
0000
0000
0003
,
0200
0000
0000
0300
,
0020
0000
0000
0030
,
0200
0000
0000
0300
,
0002
0000
0000
0003
,
1000
0000
0100
0000
,
0010
0000
0001
0000
,
2000
0000
0000
3000
,
0002
0000
0000
0003
,
0001
0000
0100
0000
,
0010
0000
1000
0000
,
0002
0000
0000
0003
,
2000
0000
0000
3000
,
0001
0000
0010
0000
,
0100
0000
1000
0000
,
0020
0000
0000
0030
,
0200
0000
0000
0300
,
0010
0000
0100
0000
,
1000
0000
0001
0000
,
1000
0000
0100
0000
,
0001
0000
0010
0000
,
0100
0000
0100
0000
,
0010
0000
0010
0000
,
1000
0000
1000
0000
,
0001
0000
0001
0000
,
0100
0000
0010
0000
,
1000
0001
1001
0000
,
1000
0000
1000
0000
,
0100
0010
0001
0001
,
0010
0100
1000
1001
,
1000
0000
0000
0000
,
0100
0000
0000
0000
,
1000
0000
0000
0000
,
0100
0000
0000
0000
,
0001
0000
1000
0000
,
0001
0000
1000
0000
,
0010
0000
0010
0000
,
0100
0000
0100
0000
,
0010
0000
1000
0000
,
0001
0000
1000
0000
,
0100
0000
0010
0000
,
0100
0110
0000
0000
,
1000
1000
1000
0000
,
0010
0000
0001
0000
,
0100
0100
0100
0000
,
1000
0000
0010
0000
,
0001
0001
0001
0000
,
0100
0000
0001
0000
,
0010
0010
0010
0000
,
0001
0000
1000
0000
,
0100
0100
0100
0000
,
1000
0000
0010
0010
,
0010
0000
0000
0000
,
1000
0000
0000
0000
,
0001
0000
0000
0000
,
1000
0000
0000
0000
,
0100
0000
0100
0000
,
0010
0000
0010
0000
,
1000
0000
1000
0000
,
0001
0000
0001
0000
,
2002
0000
0000
0000
,
0000
0000
0000
3003
,
1000
0000
1000
0000
,
0001
0000
0001
0000
,
0010
0000
0010
0000
,
0100
0000
0100
0000
,
1000
0000
0001
0001
,
1000
0000
0010
0010
,
0100
0000
0001
0001
,
0100
0000
1000
1000
,
0010
0000
0100
0000
,
0001
0000
1000
0000
,
0010
0000
0100
0000
,
0010
0000
0100
0000
,
0010
0000
0100
0000
,
1000
0001
1000
0001
,
2002
0000
0000
0000
,
3003
0000
0000
0000
;

//--------------- dance-single - DJSuperNOVA ----------------
#NOTES:
     dance-single:
     DJSuperNOVA:
     Easy:
     8:
     0,0,0,0,0:
0000
0000
0000
0000
,
0001
0100
0010
0010
,
0100
0100
1000
0001
,
1001
0000
0000
0000
,
1000
1000
0000
0001
0000
1000
0000
0001
,
0001
0001
0000
0100
0000
0010
0000
0100
,
0100
0100
0000
0010
0000
1000
0000
0010
,
1000
0100
0001
1001
,
0010
0010
0010
0000
,
1000
1000
1000
0000
,
0001
0001
0001
0000
,
1000
1000
1000
0000
,
0100
0100
0001
0000
,
0010
0000
0100
0100
,
1000
1000
0001
0001
,
0100
0010
1001
0000
,
2000
0000
0000
3000
,
0002
0000
0000
0003
,
1000
0000
1000
1000
1000
0000
0000
0000
,
0100
0000
0100
0100
0100
0000
0000
0000
,
0001
0000
0001
0001
0001
0000
0000
0000
,
0010
0000
0010
0010
0010
0000
0000
0000
,
0100
0000
0100
0100
0100
0000
0000
0000
,
1000
0000
1000
1000
1000
0000
0000
0000
,
0100
0010
0001
0010
,
0100
1000
0100
0010
,
0001
0000
0001
0001
0001
0000
0000
0000
,
1000
0000
1000
1000
1000
0000
0000
0000
,
0100
1000
0100
0010
,
0001
0010
0100
1000
,
0001
0000
0001
0001
0001
0000
0000
0000
,
0001
0000
0001
0001
0001
0000
0000
0000
,
0100
0010
1000
0010
,
0100
0001
0100
0010
,
1000
0000
0010
0010
0010
0000
0000
0000
,
0010
0000
0100
0100
0100
0000
0000
0000
,
0001
0010
0100
1000
,
0001
0010
0100
1000
,
0001
0100
0010
1000
,
0001
0100
0010
1000
,
0100
0100
0001
0001
,
1000
1000
0010
0010
,
0100
0001
0010
0100
,
1000
0100
1000
0100
,
0010
0010
0100
0100
,
0110
1001
0110
0000
,
1000
0100
1000
0100
0010
0001
0010
0001
,
1000
1000
1000
1000
0001
0001
0001
0001
,
0100
0100
0100
0100
0010
0010
0110
0000
,
1000
0000
0000
0000
0000
0000
0001
1000
,
1000
0000
0000
0100
,
0010
0000
0000
0000
0000
0000
0001
0100
,
0100
0000
0000
1000
,
0010
0100
0010
0110
,
1000
0100
0001
0101
,
0100
1000
0100
1100
,
0100
0000
0010
0000
0010
0010
0010
0000
,
0001
0000
0100
0000
1000
1000
1000
0000
,
0001
0001
0001
0000
1000
0000
0100
0000
,
0001
0001
0100
0100
,
1000
1001
0000
0000
,
1000
0100
0020
0030
,
0001
0100
0020
0030
,
0001
1000
0200
0300
,
1000
0001
0200
0300
,
0010
1001
0000
1001
,
0100
0110
0000
0110
,
1000
0101
0000
0101
,
0010
1100
0000
1100
,
0010
0011
0000
0011
,
1000
1010
0101
1010
,
0100
0100
0001
0000
0001
0000
0001
0000
,
0000
1000
1000
1000
,
0000
0010
0010
0010
,
0000
0100
0100
0100
,
1000
0100
1000
0100
,
0001
0100
0001
0100
,
1000
0010
1000
0010
,
0001
0010
0001
0100
,
2002
0000
0000
3003
,
1000
1000
0001
0001
,
1000
1100
0001
0101
,
1000
1010
0001
0011
,
0100
1100
0100
0101
,
0010
1010
0010
0011
,
1000
0001
1001
0000
,
0001
1000
1001
0000
,
0100
0010
0110
0000
,
0010
0100
0110
0000
,
1000
0000
0100
0000
0010
0010
0010
0000
,
0100
0100
0100
0000
0001
0001
1000
1000
,
0001
0100
1000
0100
,
0010
0100
0010
0100
,
0001
1000
0001
1000
,
0001
0010
0100
1000
,
2002
0000
0000
0000
,
3003
0000
0000
0000
;

//--------------- dance-single - DJSuperNOVA ----------------
#NOTES:
     dance-single:
     DJSuperNOVA:
     Medium:
     11:
     0,0,0,0,0:
0000
0000
0000
0000
,
0001
0000
1000
0000
0100
0001
0100
0001
,
0010
0000
0100
0000
1000
0000
0100
0000
1000
0000
0000
0000
0001
0000
0000
0010
,
0100
0000
0000
0000
,
1001
1000
0000
1000
0000
0001
0000
0001
,
0100
0010
0000
0010
0000
0100
0000
0100
,
0010
1000
0000
1000
0000
0001
0000
0001
,
1000
0000
0001
0000
0100
0010
0100
0000
,
1001
0000
0100
0000
0001
0010
0001
0000
,
1100
0000
0010
0000
1000
0100
1000
0000
,
0101
0000
0010
0000
1000
0100
1000
0000
,
0110
0000
0001
0000
1000
0010
1000
0000
,
1100
0000
0001
0000
0100
0010
0100
0000
,
1000
0100
1000
0000
0001
0100
0010
0000
,
0011
0101
0110
1010
,
1100
0000
0000
0000
0000
0000
0000
0000
1001
0000
0000
0000
0000
0000
0000
0000
0020
0030
0000
0000
0000
0000
0000
0000
0000
0000
0000
0000
0000
0000
0000
0000
,
2001
0100
0100
0100
,
3002
0100
0100
0100
,
2003
0000
0010
0010
0020
0000
3030
0000
,
0020
0000
0100
0100
0200
0000
0330
0000
,
0200
0000
0001
0001
0002
0000
0303
0000
,
0002
0000
0010
0010
0020
0000
0033
0000
,
2000
0000
0100
0100
0200
0000
3300
0000
,
0002
0000
0100
0100
0200
0000
0303
0000
,
0100
1001
0010
1001
,
0001
0110
1000
0110
,
1000
0100
1000
0100
0001
0000
1001
0000
,
0001
0100
0001
0100
1000
0000
1001
0000
,
0100
1010
0100
0011
,
0010
1100
0010
0101
,
1000
0010
1000
0010
0001
0000
0110
0000
,
0001
0010
0001
0010
1000
0000
0110
0000
,
0001
1100
1000
0101
,
0100
1010
0100
0011
,
0001
0100
1000
0001
1000
0000
1100
0000
,
1000
0100
0001
1000
0001
0000
0101
0000
,
0002
0023
0230
2300
,
3002
0203
0320
2030
,
3020
0230
0302
2003
,
3200
0000
0320
0000
2030
0000
3002
0003
,
1100
0100
0101
0001
,
0011
0010
1010
1000
,
1010
0010
0011
0001
,
0101
0100
1100
1000
,
1000
0100
1000
0100
0010
0001
0010
0001
,
1000
0110
1001
0000
,
0001
0100
1000
0100
0001
0100
1000
0100
,
0010
0000
0001
0000
0100
1000
0100
0000
0010
0000
1000
0000
0001
0100
0001
0000
,
0010
0000
0100
0000
1000
0100
1000
0000
0010
0000
0100
0000
1001
0000
0000
0000
,
0110
0000
0000
0000
0000
0000
0001
0100
,
1000
0000
0000
0000
0000
0000
0000
0000
0000
0000
0000
0000
1001
0000
0000
0100
,
0010
0000
0000
0000
0000
0000
0100
1000
,
0001
0000
0000
0000
0000
0000
0000
0000
0000
0000
0000
0000
0110
0000
0000
0100
,
0001
0000
1010
0000
0100
0001
0001
0000
,
0010
0000
1001
0000
0100
1000
0001
0000
,
0001
0000
1010
0000
0001
1000
1000
0000
,
0100
0010
0100
0010
1000
0001
1000
0000
,
0001
0100
0012
0103
,
2010
3100
0101
1100
,
0001
0010
0100
1000
,
0110
2002
3003
0000
,
0020
0000
0230
0000
0320
0030
0000
1000
,
0200
0000
2300
0000
3200
0300
0000
0010
,
0002
0000
0203
0000
0320
0030
0000
1000
,
0020
0000
0230
0000
0302
0003
0000
1000
,
0100
0000
0011
0000
0100
0000
0001
1000
,
0100
0000
1100
0000
0100
0000
1000
0100
,
0010
0000
0100
0000
0001
0000
1000
0100
,
0001
0000
0100
0000
0001
0000
0001
0100
,
1000
0000
0110
0000
1000
0000
0001
0100
,
1000
0000
0010
0000
0100
0010
0100
0010
,
1000
0001
0001
0001
,
0000
0010
0010
0010
,
0000
1000
1000
1000
,
0000
0100
0100
0100
,
0000
1000
0100
0020
0000
0000
0030
0000
,
0000
0001
0100
0020
0000
0000
0030
0000
,
0000
0100
0001
2000
0000
0000
3000
0000
,
0000
0100
1000
0002
0000
0000
0003
0000
,
2002
0000
0000
3003
,
1000
0001
1000
0001
1000
0001
1000
0000
,
0010
0011
0100
0011
,
0010
1010
0100
1010
,
1000
1100
0001
1100
,
0100
0101
1000
0101
,
0010
0010
0010
0000
0220
0000
0330
0000
,
0100
0100
0100
0000
0220
0000
0330
0000
,
1000
1000
1000
0000
0202
0000
0303
0000
,
0001
0001
0001
0000
2200
0000
3300
0000
,
1000
0000
0100
0000
0010
0001
0010
0000
,
0100
0010
0100
0000
1000
0100
1000
0000
,
0001
0010
0100
1000
,
0001
1000
0001
1000
,
0010
0100
0010
0100
,
1000
0100
1000
0100
0010
0001
0010
0000
,
2002
0000
0000
0000
,
3003
0000
0000
0000
;

//--------------- dance-single - DJSuperNOVA ----------------
#NOTES:
     dance-single:
     DJSuperNOVA:
     Hard:
     14:
     0,0,0,0,0:
0000
0000
0000
0000
,
0010
0000
0100
0000
1000
0100
1000
0100
,
0001
0000
0010
0000
0100
0000
1000
0000
1000
0000
0000
0000
0001
0000
0000
1000
,
0100
0110
0000
0000
,
1001
1000
0000
1000
0000
1000
0000
1000
,
0010
0100
0000
0100
0000
0100
0000
0100
,
1000
0001
0000
0001
0000
0001
0000
0001
,
0100
0010
0100
0010
0001
0010
0100
1000
,
0010
0100
0010
0100
1001
1000
0001
0000
,
0001
0100
0010
1000
0110
0100
0010
0000
,
1000
0100
0010
0001
0101
0100
0001
0000
,
0001
1000
0010
0100
1001
0001
1000
0000
,
0010
0001
0100
0001
0010
0100
1000
0000
,
0100
1000
0010
0000
0100
0001
0010
0100
,
1000
0011
0101
0110
,
1010
0000
0000
0000
0000
0000
0000
0000
1100
0000
0000
0000
0000
0000
0000
0000
0020
0030
0000
0000
0000
0000
0000
0000
0000
0000
0000
0000
0000
0000
0000
0000
,
2010
0010
0010
3010
,
0210
0010
0010
0310
,
0001
0100
0010
0000
0010
0000
0010
0000
0010
0000
0000
0000
1001
0000
0000
0000
,
0100
1000
0001
0000
0001
0000
0001
0000
0001
0000
0000
0000
1100
0000
0000
0000
,
0001
0010
0100
0000
0100
0000
0100
0000
0100
0000
0000
0000
0011
0000
0000
0000
,
1000
0010
0100
0000
0100
0000
0100
0000
0100
0000
0000
0000
1001
0000
0000
0000
,
0100
0010
0100
0000
0100
0000
0100
0000
0100
0000
0000
0000
1010
0000
0000
0000
,
0100
0001
0010
0000
0010
0000
0010
0000
0010
0000
0000
0000
1001
0000
0000
0000
,
0100
1100
0100
0110
,
0010
0011
0010
0101
,
0001
0100
0010
0000
1000
0000
0010
0000
1000
0000
0100
0000
0010
0000
0100
0000
,
0001
0100
0010
0000
1000
0000
0010
0000
1000
0000
0100
0000
0110
0000
0010
0000
,
2000
3200
0320
0032
,
0203
0320
2030
3002
,
1003
0100
1000
0000
0010
0000
1000
0000
0010
0000
0100
0000
0001
0000
0010
0000
,
1000
0100
1000
0000
0010
0000
0100
0000
0010
0000
0100
0000
0001
0000
0010
0000
,
1000
1100
0100
0110
,
0010
1010
0100
0101
,
0001
0100
0010
0000
1000
0000
0010
0000
1000
0000
0010
0000
0100
0000
0001
0000
,
0100
0001
0010
0000
0100
0000
0001
0000
0010
0000
0100
0000
0010
0000
1000
0000
,
0002
0023
0230
2300
,
3001
0001
0010
0010
0100
0100
1000
1000
,
0002
0203
0320
2030
,
3001
0100
0001
0100
0010
1000
0010
0100
,
2000
3200
0320
0032
,
1003
1000
0100
0100
0010
0010
0001
0001
,
2000
3020
0230
0302
,
1003
0100
1000
0100
0010
0001
0010
0001
,
1000
0100
0001
0100
1000
0010
0001
0010
,
1000
0011
2200
3300
,
0001
0100
0010
0100
0001
0100
0010
0100
0010
1000
0100
1000
0010
0100
1000
0001
,
0100
0010
0100
0010
0100
0010
0100
1000
0100
0001
0100
0001
0100
0001
0010
0100
,
1000
0010
0100
0010
0100
0010
1000
0100
0010
0100
1000
0010
0110
0000
0000
0000
,
1001
0100
0000
0100
0000
0100
0010
1000
,
0001
0000
0100
0000
0000
0000
0100
0000
0000
0000
0100
0000
1000
0000
0010
1000
,
0100
0001
0000
0001
0000
0001
0100
1000
,
0100
0000
0010
0000
0000
0000
0010
0000
0000
0000
0010
0000
1000
0000
0010
0100
,
0001
1000
0100
0010
0001
1001
1001
0000
,
0010
0001
0100
0010
1000
0100
1001
0000
,
1000
0100
0010
0001
1000
0110
0110
0000
,
0001
0000
0100
0000
0010
0000
1000
0000
0010
0100
0010
0100
0010
0000
0000
0000
,
1000
0100
0010
0001
0100
0010
1000
0000
,
1000
0100
0001
0000
0001
0100
0010
1000
,
1001
0110
1010
1100
,
0101
0000
0000
0000
0220
0000
0000
0000
0000
0000
0000
0330
0000
0000
0000
0000
,
2001
0000
0000
0000
0200
0000
0000
3000
0020
0000
0000
0000
0330
0000
0002
0000
,
0200
0000
0000
0003
0020
0000
0000
0300
2000
0000
0000
0000
3030
0000
0200
0000
,
0002
0000
0000
0300
0020
0000
0000
0003
2000
0000
0000
0000
3030
0000
0200
0000
,
0002
0000
0000
0300
2000
0000
0000
0003
0200
0000
0000
0000
3300
0000
0010
0000
,
0001
0000
1100
0010
0001
0000
0001
1000
,
0010
0000
1001
0010
0100
0000
1000
0100
,
0001
0000
1010
0100
1000
0000
0100
0001
,
0010
0000
0101
0010
0001
0000
1000
0001
,
0100
0000
1001
0010
1000
0000
0100
0001
,
0010
0000
1001
0000
0100
0010
0100
0010
,
1000
0100
1000
0000
0010
0000
0000
0000
0010
0000
0000
0000
0010
0000
0000
0000
,
0001
0000
0100
0010
0001
0000
0000
0000
0001
0000
0000
0000
0001
0000
0000
0000
,
1000
0010
1000
0000
0100
0000
0000
0000
0100
0000
0000
0000
0100
0000
0000
0000
,
0010
0000
1000
0010
0100
0000
0000
0000
0100
0000
0000
0000
0100
0000
0000
0000
,
0001
1000
0200
0020
0000
0000
0330
0000
,
0010
0100
2000
0020
0000
0000
3030
0000
,
0001
0100
0020
0002
0000
0000
0033
0000
,
0010
0100
2000
0200
0000
0000
3300
0000
,
2002
0000
3003
0000
1000
0100
1000
0100
,
0001
0100
0001
0100
0010
1000
0010
0001
,
1000
0100
1000
0000
0010
0000
0100
0000
0001
0100
0001
0000
0010
0000
1000
0000
,
0010
0100
0010
0000
1000
0000
0001
0000
0100
0010
0100
0000
0001
0000
1000
0000
,
0100
1000
0100
0000
0010
0000
0001
0000
0100
0001
0100
0000
0010
0000
1000
0000
,
0100
0010
0001
0000
0100
0000
0010
0000
1000
0010
0100
0000
0001
0000
1000
0000
,
0001
0100
0001
0000
0010
0000
0100
0000
1000
0100
1000
0000
0001
0000
0000
0000
,
1000
0100
1000
0000
0100
0000
0010
0000
0001
0100
0001
0000
0100
0000
0000
0000
,
0010
0100
0010
0000
1000
0000
0001
0000
0100
0010
1000
0000
0010
0000
0000
0000
,
0001
0000
1000
0000
0010
0000
0100
0000
0001
0100
0010
0000
0100
0000
0000
0000
,
1000
0100
0010
0001
1000
0100
1000
0000
,
0001
0100
0001
0000
1000
0010
0100
0001
,
1000
0011
0101
0110
,
1001
0110
1001
0110
,
1000
0100
0001
0010
1000
0100
0001
0010
,
0001
0100
1000
0010
0001
0100
1000
0020
,
0002
0000
0000
0000
,
0033
0000
0000
0000
;

//--------------- dance-single - Mine Field ----------------
#NOTES:
     dance-single:
     Mine Field:
     Edit:
     15:
     0,0,0,0,0:
0000
0000
0000
0000
,
0001
0000
1000
0000
0100
0010
0100
0010
,
0001
0000
0010
0000
0100
0000
1000
0000
1000
0000
0000
0000
0001
0000
0000
0010
,
0100
MMMM
0110
MMMM
MMMM
MMMM
MMMM
MMMM
,
0001
1000
MMMM
1000
MMMM
1000
MMMM
1000
,
0100
0001
MMMM
0001
MMMM
0001
MMMM
0001
,
0100
0010
MMMM
0010
MMMM
0010
MMMM
0010
,
0100
MMMM
0110
MMMM
0010
MMMM
0110
MMMM
,
1001
MMMM
1100
MMMM
1001
0M10
01M0
0000
,
1100
MMMM
0011
MMMM
0101
001M
1M00
0000
,
1001
MMMM
0110
MMMM
1010
01M0
M001
0000
,
0011
MMMM
0110
MMMM
1100
00M1
001M
0000
,
0101
MMMM
1100
MMMM
0010
10M0
M100
0000
,
0M10
10M0
M001
0000
010M
0M01
100M
M010
,
0100
MMMM
0110
MMMM
1001
MMMM
0100
MMMM
,
1001
MMMM
0010
MMMM
1001
0000
MMMM
0000
,
2MM1
0000
0MMM
0000
0MMM
0000
3MMM
M000
,
1MM2
0000
MMM0
0000
MMM0
0000
MMM3
000M
,
0110
0000
MMMM
0000
0100
M0MM
0100
M0MM
0100
0000
MMMM
0000
1001
0000
MMMM
0000
,
0110
0000
MMMM
0000
0010
MM0M
0010
MM0M
0010
0000
MMMM
0000
1001
0000
MMMM
0000
,
1100
0000
MMMM
0000
0001
MMM0
0001
MMM0
0001
0000
MMMM
0000
0101
0000
MMMM
0000
,
1001
0000
MMMM
0000
1000
0MMM
1000
0MMM
1000
0000
MMMM
0000
0011
0000
MMMM
0000
,
1010
0000
MMMM
0000
01M0
M00M
0M10
M00M
01M0
0000
MMMM
0000
1001
0000
MMMM
0000
,
0011
0000
MMMM
0000
M010
0M0M
10M0
0M0M
M020
0000
MM3M
0000
00M0
0000
0000
0000
,
0100
MMMM
1001
MMMM
0010
MMMM
1000
MMM1
,
0100
MMMM
1001
MMMM
0010
MMMM
0001
1MMM
,
M100
0M10
MMMM
0011
MMMM
0001
MMMM
0101
,
MMMM
0100
MMMM
0110
MMMM
1000
M1MM
0M01
,
0101
MMMM
0100
MMMM
1100
MMMM
0100
MMMM
,
0011
MMMM
0010
MMMM
1010
MMMM
0010
M1MM
,
0M01
010M
MMMM
1100
MMMM
0100
MMMM
0110
,
MMMM
0010
MMMM
0011
MMMM
0001
MM1M
10M0
,
1010
MMMM
0001
MMMM
0110
MMMM
1000
MMMM
,
0101
MMMM
0010
MMMM
1100
MMMM
0010
MMMM
,
0001
010M
MMMM
1100
MMMM
0101
MMMM
11M0
,
0M10
0011
MMMM
1010
MMMM
0001
010M
1M00
,
MM2M
0000
MM32
00M0
M2M3
000M
23MM
0M00
,
3M2M
M000
2M3M
00M0
32MM
M000
M3M2
0M00
,
MM23
0000
MM32
00M0
M2M3
000M
23MM
0M00
,
32MM
M000
23MM
0M00
3MM2
M000
MM23
M00M
,
1030
10MM
M001
0M01
010M
01M0
0M10
0M10
,
01M0
010M
0M01
M001
100M
10M0
M010
0M10
,
01M0
M100
1M00
100M
M001
0M01
010M
01M0
,
0M10
M010
10M0
1M00
M100
010M
0M01
0001
,
100M
0100
1000
0100
0010
0001
0010
0001
,
1000
MMMM
0110
MMMM
2MM2
0000
3MM3
M00M
,
MMM1
MMMM
M1MM
MMMM
1MMM
MMMM
M1MM
MMMM
MMM1
MMMM
M1MM
MMMM
1MMM
MMMM
M1MM
MMMM
,
MM1M
MMMM
MM1M
MMMM
MM1M
MMMM
M1MM
MMMM
1MMM
MMMM
MMM1
MMMM
MMM1
MMMM
M1MM
MMMM
,
MM1M
0000
0000
0000
MMMM
0000
0000
0000
1MMM
0000
0000
0000
MMMM
0000
0000
0000
1MMM
0000
0000
0000
MMMM
0000
0000
0000
M1MM
0000
0000
0000
MMMM
0000
0000
0000
MM1M
0000
0000
0000
MMMM
0000
0000
0000
M1MM
0000
0000
0000
MMMM
0000
0000
0000
1001
MMMM
0000
0000
0000
0000
0000
0000
0000
0000
0000
0000
0000
0000
0000
0000
,
1MM1
0000
0000
0000
0000
0000
0101
M10M
,
1M00
0000
0000
0000
0000
0000
0000
0000
0000
0000
0000
0000
M11M
0000
0000
100M
,
M001
0000
0000
0000
0000
0000
1100
M10M
,
0M01
0000
0000
0000
0000
0000
0000
0000
0000
0000
0000
0000
1001
0000
0000
01M0
,
0M10
0000
0010
0000
0100
MM1M
M1MM
0000
,
0001
0000
1000
0000
1000
M10M
MMM1
0000
,
0001
0000
0000
0000
0100
0000
0000
0000
0010
0M0M
1MMM
0MMM
M1MM
0000
0000
0000
,
1M00
M1M0
0M1M
M0M1
100M
M001
100M
MMMM
,
1001
MMMM
0100
MMMM
0001
1MMM
M1MM
0M00
,
1000
MM1M
0001
MMMM
1010
M1MM
0M01
M1MM
,
0110
MMMM
1010
MMMM
0101
MMMM
0100
MMMM
,
1100
0000
MMMM
0000
M22M
0000
M00M
0000
M00M
0000
M00M
0330
M00M
0000
0000
M00M
,
2001
0000
000M
0000
0020
0000
0000
3000
0200
M000
0000
0330
0000
0MM0
0200
0000
,
0002
0000
0000
0300
2000
0M00
0000
0003
0020
000M
0000
0000
3030
M0MM
0002
0000
,
0200
0000
0000
0003
0020
000M
0300
0000
0M02
0000
0000
0033
0000
M0MM
2000
0000
,
0200
0000
0000
3000
0020
M000
0000
0300
2000
0M00
0000
3030
0000
M0M0
0010
0000
,
0001
MMMM
1010
MMMM
0100
MMMM
0001
1MMM
,
M010
MMMM
1001
MMMM
0100
MMMM
0001
1MMM
,
M100
MMMM
1010
MMMM
0100
MMMM
010M
MMM1
,
001M
MMMM
1001
MMMM
0010
MMMM
0001
1MMM
,
M010
MMMM
1001
MMMM
0100
MMMM
1001
MMMM
,
0010
MMMM
0101
MMMM
1MMM
M1MM
MM1M
MMM1
,
1001
MMMM
0100
0000
0100
0000
0100
0000
,
0000
0010
0010
0010
,
0000
1000
1000
1000
,
0000
0001
0001
0001
,
2000
0001
0001
3001
,
0200
1000
1000
1300
,
0020
0001
0001
0031
,
0002
0100
0100
0103
,
2002
0000
3003
0000
010M
0M01
100M
M100
,
0M01
M000
001M
0M00
10M0
0M00
M001
00M0
010M
00M0
1M00
000M
M010
0M00
00M1
0M00
,
100M
M000
0MMM
0000
0110
0MM0
M00M
0000
0001
000M
MMM0
0000
0110
0MM0
M00M
0000
,
0100
0M00
M0MM
0000
1001
M00M
0MM0
0000
0010
00M0
MM0M
0000
1001
M00M
0MM0
0000
,
0100
0M00
M0MM
0000
0011
00MM
MM00
0000
0100
0M00
M0MM
0000
1010
M0M0
0M0M
0000
,
0010
00M0
MM0M
0000
1100
MM00
00MM
0000
0010
00M0
MM0M
0000
0101
0M0M
M0M0
0000
,
10M0
0M01
10M0
0000
0M10
00M0
000M
0100
M020
0M00
0000
0000
0030
00M0
0000
0000
,
00M1
0100
M001
0M00
010M
0000
0M00
0000
2020
0000
0000
0000
3030
M0M0
0000
0000
,
010M
M010
0100
00M0
0M01
0000
0000
0001
2000
000M
0000
0000
3000
M000
0000
0000
,
1M00
001M
M100
00M0
0100
0000
0000
0000
0022
0000
0000
0000
0033
00MM
M000
0000
,
1M00
M1M0
0M1M
M0M1
1M0M
M100
1M00
M00M
,
0M01
010M
0M01
M00M
10M0
M010
10M0
M01M
,
00M1
MMMM
1100
MMMM
0101
MMMM
0011
MMMM
,
1010
MMMM
0100
MMMM
0011
MMMM
0100
MMMM
,
0001
M1MM
0010
M1MM
0001
M1MM
0010
1MMM
,
M1MM
M0M0
MMM1
0MM0
1MMM
0M0M
MM1M
MM00
MMM1
0MM0
1MMM
00MM
M1MM
M0M0
MMM1
0MM0
,
2MM2
0000
0000
0000
,
3003
0000
0000
0000
;
