#TITLE:0x1311;
#SUBTITLE:;
#ARTIST:nao.paradigm;
#TITLETRANSLIT:;
#SUBTITLETRANSLIT:;
#ARTISTTRANSLIT:;
#GENRE:;
#CREDIT:DJSuperNOVA;
#MUSIC:0x1311.ogg;
#BANNER:0x1311.png;
#BACKGROUND:0x1311-bg.png;
#CDTITLE:;
#SAMPLESTART:16.631;
#SAMPLELENGTH:14.769;
#SELECTABLE:YES;
#OFFSET:-0.016;
#BPMS:0.000=130.000
,36.000=260.000
,228.000=130.000
,288.000=65.000
,289.000=130.000
,290.000=260.000
,292.000=130.000
,298.000=260.000
,302.000=130.000
,308.000=260.000
,408.000=65.000
;
#STOPS:;
#DISPLAYBPM:130.000:260.000;
#BGCHANGES:;
#FGCHANGES:;

//--------------- dance-single - DJSuperNOVA ----------------
#NOTES:
     dance-single:
     DJSuperNOVA:
     Beginner:
     2:
     0,0,0,0,0:
0000
0000
0000
0000
,
0010
0000
0000
0000
,
0000
0000
0000
0000
0000
0000
0000
0000
0000
0000
0000
0000
0000
0100
0000
0000
,
0000
0000
0000
0000
0000
0000
0000
0000
0000
0000
0000
0000
0000
0100
0000
0000
,
0000
0000
0000
1001
,
1000
0000
0000
0000
,
0001
0000
0000
0000
,
1000
0000
0000
0000
,
0002
0000
0000
0000
,
1003
0000
0000
0000
,
0100
0000
0000
0000
,
0010
0000
0000
0000
,
0110
0000
0000
0000
,
0001
0000
0000
0000
,
0100
0000
0000
0000
,
0010
0000
0000
0000
,
0110
0000
0000
0000
,
1000
0000
0000
0000
,
0001
0000
0000
0000
,
1000
0000
0000
0000
,
1001
0000
0000
0000
,
0001
0000
0000
0000
,
0100
0000
0000
0000
,
1000
0000
0000
0000
,
1001
0000
0000
0000
,
1000
0000
0000
0000
,
0000
0000
0000
0000
,
0001
0000
0000
0000
,
0000
0000
0000
0000
,
0010
0000
0000
0000
,
0010
0000
0000
0000
,
0100
0000
0000
0000
,
0100
0000
0000
0000
,
1001
0000
0000
0000
,
0000
0000
0000
0000
,
0001
0000
0000
0000
,
0000
0000
0000
0000
,
1000
0000
0000
0000
,
1000
0000
0000
0000
,
0010
0000
0000
0000
,
0010
0000
0000
0000
,
1001
0000
0000
0000
,
0000
0000
0000
0000
,
1000
0000
0000
0000
,
0000
0000
0000
0000
,
0001
0000
0000
0000
,
0100
0000
0000
0000
,
0010
0000
0000
0000
,
0010
0000
0000
0000
,
1001
0000
0000
0000
,
0000
0000
0000
0000
,
1000
0000
0000
0000
,
0000
0000
0000
0000
,
0100
0000
0000
0000
,
1000
0000
0000
0000
,
0010
0000
0000
0000
,
0010
0000
0000
0000
,
1001
0000
0000
0000
,
0100
0000
0010
0000
,
0001
0000
0000
0000
,
1000
0000
0100
0000
,
0010
0000
0000
0000
,
1000
0000
1000
0000
,
1000
0000
0000
0000
,
0001
0000
0001
0000
,
0002
0000
0000
0003
,
2000
0000
0000
3000
,
0002
0000
0000
0003
,
2000
0000
0000
3000
,
0020
0000
0000
0030
,
0200
0000
0000
0300
,
0020
0000
0000
0030
,
0110
0000
0010
0000
,
0100
0000
0000
0000
,
0100
0000
0010
0000
,
0000
0000
0100
0000
,
0000
0000
0010
0000
,
2002
0000
3003
0000
,
1000
0000
0000
0000
,
0100
0000
0000
0000
,
0010
0000
0000
0000
,
0110
0000
0000
0000
,
0001
0000
0000
0000
,
0100
0000
0000
0000
,
0010
0000
0000
0000
,
0110
0000
0000
0000
,
1001
0000
0000
0000
,
0000
0000
0000
0000
,
1000
0000
0000
0000
,
0000
0000
0000
0000
,
0001
0000
0000
0000
,
0100
0000
0000
0000
,
0010
0000
0000
0000
,
0010
0000
0000
0000
,
1001
0000
0000
0000
,
0000
0000
0000
0000
,
1000
0000
0000
0000
,
0000
0000
0000
0000
,
0100
0000
0000
0000
,
1000
0000
0000
0000
,
0010
0000
0000
0000
,
0010
0000
0000
0000
,
2002
0000
3003
0000
;

//--------------- dance-single - DJSuperNOVA ----------------
#NOTES:
     dance-single:
     DJSuperNOVA:
     Easy:
     6:
     0,0,0,0,0:
0000
0000
0000
0000
,
1001
0000
0000
0000
,
0000
0000
0000
0000
0000
0000
0000
0000
0000
0000
0000
0000
0000
1000
0000
0000
,
0001
0000
0000
0000
0000
0000
0000
0000
0000
0000
0000
0000
0000
1000
0000
0000
,
0001
0000
0000
1001
,
0100
0001
0100
0001
,
1000
1000
0001
0001
,
0010
1000
0010
1000
,
1001
0000
0000
0000
0100
0010
0100
0000
,
1000
0000
1000
0000
,
0001
0000
1001
0000
,
0100
0000
0010
0000
,
0110
0000
0000
0000
,
0010
0000
0010
0000
,
0100
0000
0100
0000
,
0010
0000
0100
0000
,
0110
0000
1001
0000
,
1000
0000
0010
0000
,
0001
0000
0010
0000
,
1000
0000
0100
0000
,
1100
0000
0000
0000
,
0001
0000
0100
0000
,
1000
0000
0100
0000
,
0001
0000
0100
0000
,
0101
0000
1001
0000
,
1000
0000
0001
0000
,
0000
1000
0001
0000
,
1000
0000
0001
0000
,
0000
1000
0001
0000
,
0100
0000
0100
0000
,
0010
0000
0110
0000
,
0001
0000
0100
0000
,
1000
0000
0110
0000
,
0001
0000
1000
0000
,
0000
0001
1000
0000
,
0001
0000
1000
0000
,
0000
0001
1000
0000
,
1000
0000
1010
0000
,
0001
0000
0101
0000
,
1000
0000
0100
0000
,
0001
0000
1001
0000
,
1000
0000
0001
0000
,
0000
1000
0001
0000
,
1000
0000
0001
0000
,
0100
0100
0010
0000
,
1000
0000
0001
0000
,
0000
1000
0001
0000
,
1000
0000
0010
0000
,
0100
0100
0010
0000
,
0001
0000
0100
0000
,
0000
0001
0100
0000
,
1000
0000
0010
0000
,
1000
1000
1000
0000
,
0001
0000
0100
0000
,
0010
0000
1000
0000
,
0100
0000
0000
0010
0000
0001
0000
1000
,
0000
0000
0110
0000
,
1001
0000
0100
0000
,
0100
0000
0001
0000
,
1001
0000
0100
0000
,
0100
0000
1000
0000
,
1001
0000
0010
0000
,
0010
0000
0100
0000
,
1010
0000
0100
0000
,
0010
0000
0010
0000
,
0011
0010
0100
1000
,
0100
0001
0100
1000
,
0010
0001
0010
1000
,
0010
0001
0100
1000
,
0010
0010
0100
0100
,
0010
0100
0010
0110
,
1000
0000
0001
0000
1000
0001
1000
0001
,
1001
0000
0110
0000
,
1000
0000
0001
0000
,
1000
0001
1001
0000
,
0110
0000
1001
0000
,
0100
0000
0010
0000
,
0110
0000
1001
0000
,
1000
0000
1000
0000
,
0001
0000
1001
0000
,
0100
0000
0010
0000
,
0110
0000
0000
0000
,
0010
0000
0010
0000
,
0100
0000
0100
0000
,
0010
0000
0100
0000
,
0110
0000
1001
0000
,
1000
0000
0001
0000
,
0000
1000
0001
0000
,
1000
0000
0001
0000
,
0100
0100
0010
0000
,
1000
0000
0001
0000
,
0000
1000
0001
0000
,
1000
0000
0010
0000
,
0100
0100
0010
0000
,
0001
0000
0100
0000
,
0000
0001
0100
0000
,
1000
0000
0010
0000
,
1000
1000
1000
0000
,
0001
0000
0100
0000
,
0010
0000
1000
0000
,
0100
0000
0100
0010
0000
0001
0000
1000
,
0000
0000
0110
0000
,
2002
0000
3003
0000
;

//--------------- dance-single - DJSuperNOVA ----------------
#NOTES:
     dance-single:
     DJSuperNOVA:
     Medium:
     14:
     0,0,0,0,0:
0000
0000
0000
0000
,
0010
0000
0000
0000
,
0000
0000
0000
0000
0000
0000
0000
0000
0000
0000
0000
0000
0000
0100
0000
0000
,
0010
0000
0000
0000
0000
0000
0000
0000
0000
0000
0000
0000
0000
0100
0000
0000
,
0010
0000
0000
0000
0000
1000
1001
0000
,
0100
0000
0010
0000
1000
0000
0000
0010
0000
0010
0100
0000
0010
0000
1000
0000
,
0001
0000
0100
0000
1000
0000
0000
0010
0000
0010
0100
0000
0001
0000
0100
0000
,
0010
0000
0100
0000
1000
0000
0000
0100
0000
0100
0001
0000
1000
0000
0100
0000
,
2002
0000
3003
0000
0220
0000
0330
0000
1001
0000
0100
0000
0001
0010
0100
0000
,
2000
0000
3002
0000
1003
0100
0000
0101
,
0000
0002
0203
0320
,
2030
0000
3200
0000
0310
0001
0000
0101
,
0000
0010
0100
0001
0000
0100
0001
0000
,
2000
0000
3002
0000
0103
0010
0000
0110
,
0000
0002
0023
0230
,
2300
0000
3002
0000
1003
0100
0000
0100
,
0001
0000
0010
0100
0000
0100
0010
0000
,
2000
0000
3020
0000
0130
0001
0100
0010
,
0000
2000
3020
0230
,
0302
0000
2003
0000
3010
0100
0000
0010
,
0100
0000
0010
0000
0100
0000
0010
0000
0000
0100
0000
0000
0000
0000
0000
0100
0000
0000
0010
0000
0000
0000
0000
0000
,
2000
0000
3020
0000
0130
0001
1000
0100
,
0000
0002
0203
0302
,
2003
0000
3020
0000
0130
0001
0000
0001
,
1000
0100
1000
0100
0000
0000
0000
0000
0000
0010
0001
0010
,
0001
0000
1000
0000
1001
0000
0100
0001
,
0000
0001
0100
0000
1010
0000
1000
0100
,
0001
0000
0100
0000
1010
0000
0001
0100
,
0000
1000
0010
0000
0110
0000
1001
0000
,
0100
0000
0100
0000
0010
0100
0000
0001
,
0000
0100
0001
0000
1001
0000
0100
0010
,
1000
0000
0100
0000
1000
0001
0000
0100
,
0000
0001
0100
0000
1001
0000
0100
0000
,
1010
0000
0010
0000
0101
0000
1000
0100
,
0000
0010
0100
0000
1010
0000
0100
0010
,
0001
0000
0100
0000
1001
0000
0100
0010
,
0000
0010
0100
0000
0011
0000
1000
0010
,
0100
0000
0000
0000
1000
0000
0000
0000
0110
0000
0000
0000
0000
0000
0100
0010
,
0100
0000
0100
0010
0001
0000
1000
0100
,
0010
0000
0000
0000
1000
0000
0100
0000
0001
0000
0000
0000
1000
0000
0010
1000
,
0010
1000
0000
0001
1000
0000
0110
0000
,
1010
0000
0110
0000
0001
0100
0000
0010
,
0000
1000
0100
0000
1000
0010
0000
0100
,
0001
0101
1001
0110
,
0011
0000
1100
0000
0001
0100
1000
0000
,
0110
0000
1010
0000
0001
1000
0000
0100
,
0000
0001
0100
0000
0110
0000
1000
0100
,
0001
0000
1010
0000
1000
0100
0000
0001
,
0000
0100
0010
0000
1010
0000
0100
0000
,
1010
0000
0110
0000
0001
0100
0000
0010
,
0000
1000
0100
0000
1000
0010
0000
0100
,
0001
0010
0001
0000
1001
0000
0110
0000
,
0011
0000
1100
0000
0001
0100
0001
0000
,
0110
0000
1010
0000
0001
1000
0000
0100
,
0000
0001
0100
0000
0110
0000
1000
0100
,
0001
0000
1000
0010
0000
0110
0000
1001
,
0000
0000
0001
0100
0001
0000
1000
0000
,
0110
0000
0000
0100
0001
0000
1000
0000
,
0010
1010
0101
0010
,
1100
0000
0000
0100
1000
0000
0100
0000
,
0001
1000
0011
1000
,
0101
0000
0000
0100
0010
0000
0110
0000
,
0101
1000
1010
0100
,
1001
0000
0000
0100
0001
0000
1000
0000
,
0110
0010
1001
0010
,
1000
0100
1000
0000
0100
0001
0010
0000
,
0100
0010
1000
0000
1000
0010
0100
0000
,
0010
0001
0100
0000
0100
0010
1000
0000
,
0100
0001
0100
0000
1000
0010
1000
0000
,
1000
0010
1000
0000
0001
0100
0010
0000
,
1000
0010
0100
0000
0010
0001
1000
0100
,
1000
0010
0100
0001
1000
0001
1000
0010
,
2002
3003
1001
0000
,
1000
0000
0001
0000
0000
0010
0000
1000
0000
0000
0010
0000
0001
0000
0100
0000
,
0010
0000
1000
0000
0100
0010
0000
0100
0010
0000
0000
0000
0000
0000
0110
0000
,
0000
0000
0000
0000
1010
0000
0000
0000
0001
0000
0100
0000
0000
1000
0000
0010
,
0000
0000
0001
0000
0100
0000
0010
0000
1000
0000
0010
0000
1000
0100
0000
1000
,
0001
0000
1010
0000
1000
0010
1000
0000
,
2000
0000
3002
0000
1003
0100
0000
0101
,
0000
0002
0203
0320
,
2030
0000
3200
0000
0310
0001
0000
0101
,
0000
0010
0100
0001
0000
0100
0001
0000
,
2000
0000
3002
0000
0103
0010
0000
0110
,
0000
0002
0023
0230
,
2300
0000
3002
0000
1003
0100
0000
0100
,
0001
0000
0000
0110
0000
0000
1100
0000
,
1010
0000
0110
0000
0001
0100
0000
0010
,
0000
1000
0100
0000
1000
0010
0000
0100
,
0001
0101
1001
0110
,
0011
0000
1100
0000
0001
0100
1000
0000
,
0110
0000
1010
0000
0001
1000
0000
0100
,
0000
0001
0100
0000
0110
0000
1000
0100
,
0001
0000
1010
0000
1000
0100
0000
0001
,
0000
0100
0010
0000
1010
0000
0100
0000
,
1010
0000
0110
0000
0001
0100
0000
0010
,
0000
1000
0100
0000
1000
0010
0000
0100
,
0001
0010
0001
0000
1001
0000
0110
0000
,
0011
0000
1100
0000
0001
0100
0001
0000
,
0110
0000
1010
0000
0001
1000
0000
0100
,
0000
0001
0100
0000
0110
0000
1000
0100
,
0001
0000
1000
0010
0000
0110
0000
1001
,
0000
0000
0001
0100
0001
0000
0100
0000
,
2002
0000
3003
0000
;

//--------------- dance-single - DJSuperNOVA ----------------
#NOTES:
     dance-single:
     DJSuperNOVA:
     Hard:
     15:
     0,0,0,0,0:
0000
0000
0000
0000
,
0010
0000
0000
0000
,
0000
0000
0000
0000
0000
0000
0000
0000
0000
0000
0000
0000
0000
0100
0010
0000
,
0010
0000
0000
0000
0000
0000
0000
0000
0000
0000
0000
0000
0000
0100
0010
0000
,
0010
0000
0000
0000
0000
1000
0001
1000
,
0010
0100
0010
0000
1000
0000
0100
0010
0000
0010
0100
0001
0010
0000
1000
0000
,
0001
0010
0001
0000
1000
0000
0100
0010
0000
0010
0100
1000
0001
0000
0100
0000
,
0010
0100
0010
0000
1000
0000
0001
0100
0000
0100
0001
1000
0010
0000
0100
0000
,
1000
0001
0100
0000
0010
0000
0000
0000
1001
0000
0100
0000
0001
0010
0100
0000
,
2000
0000
3002
0000
1003
0100
0010
0001
,
0000
0002
0203
0320
,
2030
0000
3200
0000
0310
0001
1000
0010
,
0100
0010
0100
0001
0000
0100
0001
0000
,
2000
0000
3002
0000
0103
0010
1000
0100
,
0000
0002
0023
0230
,
2300
0000
3002
0000
1003
0100
1000
0001
,
0010
0000
0010
0000
0001
0100
0010
0000
,
2000
0000
3020
0000
0130
0001
0100
0010
,
0000
2000
3020
0230
,
0302
0000
2003
0000
3010
0100
1000
0001
,
0100
0000
0010
0000
0100
0000
0010
0000
0000
0100
0000
0000
0000
0000
0000
0100
0000
0000
0010
0000
0000
0010
0000
0000
,
2000
0000
3020
0000
0130
0001
1000
0100
,
0000
0002
0203
0302
,
2003
0000
3020
0000
0130
0001
0000
0001
,
1000
0000
0100
0000
1000
0000
0100
0000
0000
1000
0000
0000
0000
0000
0000
0100
0000
0000
0010
0000
0001
0000
0010
0000
,
0001
0000
1000
0000
1001
0000
0100
0001
,
0010
0001
0100
0000
1010
0000
1000
0100
,
0001
0000
0100
0000
1010
0000
0001
0100
,
0000
1000
0010
0100
0110
0000
1001
0000
,
0100
0000
0100
0000
0010
0100
0000
0001
,
0000
0100
0001
0000
1001
0000
0100
0010
,
1000
0000
0100
0000
1000
0001
0000
0100
,
0000
0001
0100
0000
1001
0000
0100
0000
,
1010
0000
0010
0000
0101
0000
1000
0100
,
1000
0010
0100
0000
1010
0000
0100
0010
,
0001
0000
0100
0000
1001
0000
0100
0010
,
1000
0010
0100
0000
0011
0000
1000
0010
,
0100
0000
0010
0000
1000
0000
0000
0000
1000
0000
0010
0000
0000
0000
0100
0010
,
0100
0000
0100
0010
0001
0000
1000
0100
,
0010
0000
0000
0000
1000
0000
0100
0000
0001
0000
0100
0000
1000
0000
0010
1000
,
0010
1000
0000
0001
1000
0000
0110
0000
,
1010
0000
0110
0000
0001
0100
0000
0010
,
0000
1000
0100
0000
1000
0010
0000
0100
,
0001
0010
0001
0000
1001
0000
0100
0010
,
0011
0000
1100
0000
0001
0100
0001
0100
,
0010
0000
1010
0000
0001
1000
0000
0100
,
0000
0001
0100
0000
0110
0000
1000
0100
,
0001
0000
1010
0000
1000
0100
0000
0001
,
0000
0100
0010
1000
1010
0000
0100
0010
,
1010
0000
0110
0000
0001
0100
0000
0010
,
0000
1000
0100
0000
1000
0010
0000
0100
,
0001
0010
0001
0000
1001
0000
0100
0010
,
0011
0000
1100
0000
0001
0100
0001
0100
,
0010
0000
1010
0000
0001
1000
0000
0100
,
0000
0001
0100
0000
0110
0000
1000
0100
,
0001
0000
1000
0010
0000
0110
0000
0101
,
0000
0000
0001
0100
1000
0000
0010
0000
,
1001
0000
0000
0100
0001
0000
1000
0000
,
0010
0000
1010
0000
0101
0000
0010
1000
,
0100
0000
0001
0100
1000
0000
0100
0010
,
0001
0000
1000
0010
0001
0100
1000
0000
,
0101
0000
1000
0100
0010
0000
0110
0000
,
0101
0000
1000
0100
0010
0100
1000
0000
,
1001
0000
0010
0100
0001
0000
1000
0010
,
1000
0101
1001
1010
,
1000
0100
1000
0010
0100
0001
0010
0001
,
0100
0010
1000
0100
1000
0010
0100
0001
,
0010
0001
0100
0001
0100
0010
1000
0010
,
0100
0001
0100
0010
1000
0010
1000
0001
,
1000
0010
1000
0100
0001
0100
0010
0001
,
1000
0010
0100
0001
0010
0001
1000
0100
,
1000
0100
0010
0000
0100
0000
0001
0000
1000
0010
0001
0000
1000
0100
0010
0000
,
0220
0330
1001
0000
,
1000
0000
0001
0000
0100
0010
0000
1000
0000
0000
0010
0000
0001
0000
0100
0010
,
0100
0000
0001
0000
1000
0010
0000
0100
0010
0000
0010
0000
0100
0000
0010
0000
,
0100
0000
0100
0000
0010
0000
0000
0000
0110
0000
0100
0000
1000
0100
0000
0010
,
0000
0000
0001
0000
0100
0000
0010
0100
1000
0000
0010
0000
1000
0100
0000
0100
,
0001
0000
1010
0000
1000
0100
0010
0001
,
2000
0000
3002
0000
1003
0100
0010
0001
,
0000
0002
0203
0320
,
2030
0000
3200
0000
0310
0001
1000
0010
,
0100
0010
0100
0001
0000
0100
0001
0000
,
2000
0000
3002
0000
0103
0010
1000
0100
,
0000
0002
0023
0230
,
2300
0000
3002
0000
1003
0100
1000
0001
,
0010
0100
0010
1000
0010
0100
0010
0000
,
1010
0000
0110
0000
0001
0100
0000
0010
,
0000
1000
0100
0000
1000
0010
0000
0100
,
0001
0010
0001
0000
1001
0000
0100
0010
,
0011
0000
1100
0000
0001
0100
0001
0100
,
0010
0000
1010
0000
0001
1000
0000
0100
,
0000
0001
0100
0000
0110
0000
1000
0100
,
0001
0000
1010
0000
1000
0100
0000
0001
,
0000
0100
0010
1000
1010
0000
0100
0010
,
1010
0000
0110
0000
0001
0100
0000
0010
,
0000
1000
0100
0000
1000
0010
0000
0100
,
0001
0010
0001
0000
1001
0000
0100
0010
,
0011
0000
1100
0000
0001
0100
0001
0100
,
0010
0000
1010
0000
0001
1000
0000
0100
,
0000
0001
0100
0000
0110
0000
1000
0100
,
0001
0000
1000
0010
0000
0110
0000
0101
,
0000
0000
0001
0100
1000
0000
0010
0000
,
2002
0000
3003
0000
;

//--------------- dance-single - DJSuperNOVA ----------------
#NOTES:
     dance-single:
     DJSuperNOVA:
     Challenge:
     17:
     0,0,0,0,0:
0000
0000
0000
0000
,
0010
0000
0000
0000
,
0000
0000
0000
0000
0000
0000
0000
0000
0000
0000
0000
0000
0000
0100
0010
0100
,
0010
0100
0010
0000
0000
0000
0000
0000
0000
0000
0000
0000
0000
1000
0001
1000
,
0001
1000
0001
0000
0000
0000
0000
0000
0000
0000
1000
0100
0010
0000
0001
0000
,
1000
0100
1000
0001
0010
0000
0100
0001
0100
0010
0100
1000
0001
0000
0100
0010
,
0001
0010
1000
0100
0010
0000
0100
0001
0010
0001
0100
0010
1000
0000
0001
1000
,
0010
0100
0001
0010
0100
0000
0100
1000
0010
0100
0001
0010
0001
0000
0010
0100
,
0001
0000
0000
1000
0100
0010
0001
0000
0100
1000
0100
0010
0001
0000
0000
0000
1001
0000
0000
0000
0100
0000
0010
0000
0001
0000
0010
0000
0100
0000
1000
0000
,
1020
0000
0130
0010
0110
0100
0001
1000
,
0000
2010
3002
0203
,
0310
0000
1010
0000
0100
0001
0100
1000
,
0010
0010
0100
0110
0000
0001
0101
0000
,
2010
0000
3010
0000
1010
0010
0100
0010
,
0000
0012
0203
0320
,
1030
0000
1010
0000
0110
0100
0001
1000
,
1010
0000
0001
0100
0110
1000
0100
0000
,
0210
0000
0301
0100
0110
0100
1000
0001
,
0000
2000
3020
0230
,
0301
0000
0101
0000
0110
0010
0100
0010
,
1000
0000
0010
0000
1000
0000
0010
0000
0000
0001
0000
0000
0000
0000
0000
0100
0000
0000
0001
0000
0000
0100
0000
0000
,
0201
0000
0310
1000
1100
0100
0010
0001
,
0000
0020
0032
0203
,
1300
0000
1010
0000
0001
0100
0100
0010
,
0100
0000
0001
0000
0100
0000
0001
0000
0000
1000
0000
0000
0000
0000
0000
0010
0000
0000
1000
0000
0100
0000
0010
0000
,
0001
1000
0100
1000
0010
0100
0001
0100
,
0000
0100
1000
0100
0001
0100
0010
0100
,
1000
0010
0001
0100
0010
1000
0001
1000
,
0000
1000
0001
0100
0010
0001
0100
0010
,
1000
0000
1100
0000
0011
0010
0000
0010
,
0000
0100
0010
0000
1100
0000
1000
0010
,
0100
0000
0101
0000
1100
0100
0000
1000
,
0000
0100
0010
0000
0110
0000
1001
0000
,
1010
0000
0110
0000
0101
0000
1000
0100
,
0001
0100
1000
0010
0001
0000
0001
0100
,
0010
0100
1000
0010
1000
0000
0100
0010
,
1000
0001
0100
0010
0001
1000
0001
1000
,
0010
0000
0010
0000
0010
0000
0000
0000
0101
0000
0100
0000
0000
0000
0010
0100
,
0010
0000
1100
0100
0110
0001
0100
0001
,
0101
0000
0000
0000
1000
0000
0010
0000
0001
0000
0100
0000
0001
0000
0010
0001
,
0010
0000
0001
0000
0000
0000
1000
0000
0010
0000
0000
0000
1000
0100
1000
0100
,
0010
0100
0001
0100
0010
1000
0100
0001
,
0000
0001
0100
1000
0001
0100
0010
1000
,
0001
0010
0100
1000
0100
0001
0100
1000
,
1001
0000
0000
0000
0110
0000
0000
0000
0100
0000
0010
0000
0100
0010
0100
0010
,
0001
0100
0010
1000
0001
0100
0001
1000
,
0000
0001
1000
0010
0100
1000
0100
0010
,
0100
0000
0101
0000
0010
1000
0000
1001
,
0000
0100
0010
0001
0100
0010
1000
0100
,
0010
0100
0001
0100
0010
1000
0100
0001
,
0000
0001
0100
1000
0001
0100
0010
1000
,
0001
0010
0100
1000
0100
0001
0100
1000
,
1001
0000
0000
0000
0110
0000
0000
0000
0100
0000
0010
0000
0100
0010
0100
0010
,
0001
0100
0010
1000
0001
0100
0001
1000
,
0000
0001
1000
0010
0100
1000
0100
0010
,
0100
0000
1000
0100
0000
0010
0000
0001
,
0000
0000
1000
0010
0100
0000
0001
0000
,
1001
0000
0000
0000
0000
0000
0100
0000
0010
0100
1000
0100
0000
0000
0001
0000
,
0100
0010
0100
1000
0000
0000
0001
0000
1000
0010
0100
0010
0000
0000
0001
0000
,
1000
0000
0000
0000
0001
0000
0100
0000
0010
0001
0010
0100
0000
0000
1000
0000
,
0010
0100
0001
0100
0000
0000
0010
0000
1000
0100
1000
0001
0000
0000
0100
0000
,
0010
0000
0000
0000
1000
0000
0001
0000
1000
0010
0100
0001
0000
0000
1000
0000
,
0001
0010
0100
1000
0000
0000
0010
0000
1000
0100
0010
0001
0000
0000
0100
0000
,
0001
0000
0000
0000
1000
0000
0100
0000
0001
0100
1000
0100
0000
0000
0010
0000
,
1000
0100
0001
0010
0000
0000
0100
0000
0001
0010
1000
0100
0000
0000
1000
0000
,
0100
0001
0010
0100
1000
0010
1000
0100
1000
0001
0010
0100
0010
0100
1000
0010
,
1000
0100
1000
0010
0100
0010
1000
0100
1000
0010
0100
0001
1000
0010
0100
0010
,
1000
0100
0010
0001
0100
0001
0100
0010
1000
0001
0100
0010
1000
0100
0010
0001
,
0100
0010
1000
0100
0010
0100
0010
0001
0010
0100
1000
0010
0100
0010
1000
0100
,
1000
0001
0100
0010
0100
0001
0100
0010
1000
0100
0010
0001
1000
0100
1000
0010
,
0100
0000
0001
0000
1000
0000
0100
0000
1000
0000
0001
0000
0100
0000
0010
0000
1000
0100
0010
0000
0100
0000
0001
0000
0010
0000
0001
0000
1000
0000
0010
0000
,
0100
0000
0000
1000
0000
0000
0010
0000
0000
0000
0000
0000
1000
0000
0000
0000
0000
0000
0010
0000
0000
0000
0000
0000
0100
0000
0000
0000
0000
0000
0001
0000
0000
0000
0000
0000
0010
0000
0000
0000
0000
0000
0001
0000
0000
0000
0000
0000
0100
0000
0000
0000
0000
0000
0010
0000
0000
0000
0000
0000
1000
0000
0000
0000
0000
0000
0001
0000
0000
0000
0000
0000
0010
0000
0000
0000
0100
0000
0000
0000
0010
0000
0000
0000
0100
0000
0000
0000
0010
0000
0000
0000
0100
0000
0000
0000
,
0010
0000
0000
0000
0220
0000
0000
0330
,
0002
0000
2003
0000
3100
0010
0100
0001
0000
0000
2000
0000
3002
0000
0103
0010
,
0100
0000
0000
0000
0000
0000
1000
0000
0000
0001
0000
0000
1000
0000
0000
0100
0000
0000
1000
0000
0000
0001
0000
0000
0100
0000
0000
0000
0001
0000
0000
0000
0100
0000
0000
0000
0010
0000
0000
0000
0000
0000
0010
0000
0000
0000
0000
0000
,
0100
0000
0100
0000
0010
0000
0000
0000
2000
0000
3002
0000
1003
0010
1000
0001
,
0100
0010
0002
0000
2003
0000
3010
0100
0010
1000
0001
0010
0100
0010
0100
1000
,
0001
0000
1000
0000
0001
0000
1000
0000
0000
0000
0000
0000
0010
0000
0000
1000
0000
0000
0010
0000
0000
0100
0000
0000
,
0201
0000
0310
1000
1100
0100
0010
0001
,
0000
0020
0032
0203
,
1300
0000
1010
0000
0001
0100
0100
0010
,
0100
0000
0001
0000
0100
0000
0001
0000
0000
1000
0000
0000
0000
0000
0000
0010
0000
0000
1000
0000
0000
1000
0000
0000
,
0120
0000
0130
0000
1010
0010
0100
0010
,
0000
0012
0203
0320
,
1030
0000
1010
0000
0110
0100
0001
0100
,
1000
0000
0100
0000
0010
0000
0001
0000
0000
0100
0000
0000
0000
0000
0000
0010
0000
0000
0001
0000
0010
0000
0100
0000
,
1000
0100
0001
0100
0010
1000
0100
0001
,
0000
0001
0100
1000
0001
0100
0010
1000
,
0001
0010
0100
1000
0100
0001
0100
1000
,
1001
0000
0000
0000
0110
0000
0000
0000
0100
0000
0010
0000
0100
0010
0100
0010
,
0001
0100
0010
1000
0001
0100
0001
1000
,
0000
0001
1000
0010
0100
1000
0100
0010
,
0100
0000
0101
0000
0010
1000
0000
1001
,
0000
0100
0010
0001
0100
0010
1000
0100
,
0010
0100
0001
0100
0010
1000
0100
0001
,
0000
0001
0100
1000
0001
0100
0010
1000
,
0001
0010
0100
1000
0100
0001
0100
1000
,
1001
0000
0000
0000
0110
0000
0000
0000
0010
0000
0100
0000
0010
0100
0010
0100
,
1000
0100
0010
1000
0001
0100
0001
1000
,
0000
0001
1000
0010
0100
1000
0100
0010
,
0100
0000
1000
0100
0000
0010
0000
0001
,
0000
0000
1000
0010
0100
0000
0001
0000
,
2002
0000
3003
0000
;
