#TITLE:%10;
#SUBTITLE:;
#ARTIST:Pory;
#TITLETRANSLIT:;
#SUBTITLETRANSLIT:;
#ARTISTTRANSLIT:;
#GENRE:;
#CREDIT:DJSuperNOVA;
#MUSIC:%10.ogg;
#BANNER:%10.png;
#BACKGROUND:%10-bg.png;
#CDTITLE:;
#SAMPLESTART:33.261;
#SAMPLELENGTH:14.769;
#SELECTABLE:YES;
#OFFSET:-0.030;
#BPMS:0.000=130.000;
#STOPS:;
#BGCHANGES:;
#FGCHANGES:;

//--------------- dance-single - DJSuperNOVA ----------------
#NOTES:
     dance-single:
     DJSuperNOVA:
     Beginner:
     2:
     0,0,0,0,0:
0000
0000
0000
0000
,
0000
0000
0000
0000
,
0010
0000
0010
0000
,
0000
0000
0000
0000
,
0001
0000
0001
0000
,
0000
0000
0000
0000
,
1000
0000
1000
0000
,
0001
0000
0001
0000
,
0100
0000
0100
0000
,
0010
0000
0010
0000
,
1000
0000
0100
0000
,
0001
0000
0100
0000
,
0010
0000
0010
0000
,
1000
0000
1000
0000
,
1001
0000
0100
0000
,
0010
0000
0010
0000
,
1000
0000
0001
0000
,
0020
0000
0200
0330
,
1000
0000
0001
0000
,
1000
0000
0010
0000
,
0100
0000
0010
0000
,
0100
0000
0001
0001
,
1000
0000
1000
0000
,
0010
0000
0010
0000
,
0001
0000
0100
0000
,
0100
0000
0010
0010
,
0110
0000
1000
0000
,
0001
0000
1000
0000
,
0010
0000
0010
0000
,
1000
0000
0000
0100
0000
0000
0010
0000
,
0010
0000
0001
0000
,
1000
0000
0001
0000
,
1000
0000
0100
0000
,
0100
0000
1001
0000
,
0010
0000
0000
0000
,
0100
0000
0000
0000
,
0001
0000
0000
0000
,
1000
0000
0000
0000
,
1000
0000
0000
0000
,
0001
0000
0000
0000
,
0100
0000
0000
0000
,
0010
0010
0100
0100
,
1001
0000
0000
0000
,
0010
0000
0000
0000
,
1000
0000
1000
0000
,
0001
0000
0000
0000
,
0010
0000
0100
0000
,
0010
0000
0010
0000
,
0001
0000
1000
0000
,
0001
0000
0001
0000
,
0200
0000
0000
0000
,
0000
0000
0000
0300
,
0020
0000
0000
0000
,
0000
0000
0000
0030
,
0002
0000
0000
0000
,
0000
0000
0000
0003
,
2000
0000
0000
0000
,
0000
0000
0000
3000
,
0010
0000
0010
0000
,
0100
0000
0100
0000
,
1000
0000
1000
0000
,
0010
0000
0110
0000
,
0001
0000
0001
0000
,
0010
0000
0100
0000
,
1000
0000
0100
0000
,
0010
0000
0001
0001
,
1001
0000
0000
0000
;

//--------------- dance-single - DJSuperNOVA ----------------
#NOTES:
     dance-single:
     DJSuperNOVA:
     Easy:
     6:
     0,0,0,0,0:
0000
0000
0000
0000
,
0000
0000
0000
0000
,
0100
0100
0001
0010
,
0000
0000
0000
0000
,
0001
0100
1000
1000
,
0000
0000
0000
0000
,
1000
0100
0001
0100
,
1000
1000
0001
0001
,
0010
0100
1000
1000
,
0100
0010
0001
1001
,
0010
0100
0010
0100
,
0001
0100
0010
0010
,
1000
0010
0100
0001
,
1000
0010
1000
1000
,
0010
0000
0000
0010
0000
0000
0010
0000
0100
0000
0000
0100
0000
0000
0100
0000
,
0001
1000
0010
1001
,
0100
0000
0010
0000
0100
0010
0100
0000
,
1000
0001
0220
0330
,
1000
0100
0001
0001
,
0100
0001
1000
1000
,
0010
0100
0010
0010
,
1000
0000
0001
0000
0100
0000
0010
0010
,
0110
1000
0001
0001
,
0010
1000
0100
0100
,
0001
1000
0010
0010
,
0001
1000
2002
3003
,
0010
0010
0100
0100
,
0001
1000
0001
1000
,
0001
0001
1000
1000
,
0010
0000
0000
0001
0000
0000
0100
0000
0000
1000
0000
0000
0100
0000
0010
0000
,
0100
0001
1000
1000
,
0100
0001
0100
1001
,
0010
0000
0100
0000
0001
0010
0001
0000
,
1000
0000
0010
0000
0100
0010
0010
0000
,
1001
0000
0100
0000
,
0001
0000
0010
0000
,
1000
0000
0001
0000
,
0100
0000
0001
0000
,
1000
0100
0001
0100
,
1000
0010
0001
0100
,
1000
0001
0010
0100
,
1000
0000
0001
0000
1000
1000
0001
0001
,
0200
0000
0310
0000
,
0002
0000
1003
0000
,
0100
0000
0000
0100
0000
0000
0100
0000
0001
0000
0000
0000
0000
0000
0000
0000
,
0010
0100
1000
1001
,
0100
0001
0100
0001
,
1000
1000
1000
0000
0010
0000
0010
0000
,
0100
0001
0100
0001
,
1010
0101
0011
1100
,
0012
0100
1000
0100
,
1000
0010
1000
0103
,
2000
0100
0001
0100
,
0010
0100
0001
3010
,
0200
0001
1000
0010
,
1000
0001
0010
0001
,
1000
0001
0010
0010
,
0001
0310
1001
1001
,
0100
0000
1000
0000
0001
0010
0001
0000
,
0100
0100
0010
1000
,
0001
0000
0010
0000
1000
0100
1000
0000
,
0110
0000
0000
0000
0000
0000
0000
0000
0010
0000
0000
0100
0000
0000
0010
0000
,
0001
0000
0001
0000
1000
0010
1000
0000
,
0100
0100
0001
1000
,
0010
0000
0100
0000
0001
1000
0001
0000
,
0010
0100
1010
0101
,
1001
0000
0000
0000
;

//--------------- dance-single - DJSuperNOVA ----------------
#NOTES:
     dance-single:
     DJSuperNOVA:
     Medium:
     12:
     0,0,0,0,0:
0000
0000
0000
0000
,
0000
0000
0000
0000
,
0001
0010
0100
0000
0001
0010
0010
0000
,
1000
0010
0100
0000
0010
1000
1000
0000
,
0001
0010
0100
0000
1000
0001
0001
0000
,
1000
0100
1000
0000
0010
0100
0100
0000
,
1000
0010
0100
0001
0001
0100
0010
0000
,
1000
0100
1000
0100
0001
0010
0001
0000
,
0010
1000
0100
1000
0010
0100
0010
0000
,
0100
0001
0010
0000
0001
1000
0001
1000
,
0010
0001
0100
0000
0010
0000
0110
0000
,
0001
1000
0100
0000
0001
0000
1010
0000
,
1000
0100
0010
0000
0100
0000
0101
0000
,
1000
0001
0010
0000
1000
0001
0100
0000
,
0010
0000
0001
0010
0000
0000
0010
0000
0100
0000
1000
0100
0000
0000
0100
0000
,
0001
0000
1000
0000
0010
0010
1000
0000
,
0100
1000
0010
1000
0100
0010
0100
0000
,
1010
0000
0101
0000
1000
1000
0001
0001
,
1000
0010
0100
1000
0001
0010
0001
0000
,
0100
0010
0001
0100
0010
0100
0010
0000
,
1000
0100
0010
0001
0010
0100
0010
0000
,
1000
0100
0010
1000
0100
0100
0010
0010
,
0110
1000
0010
0100
0001
0100
0001
0000
,
0010
0001
1000
0010
0100
0010
0100
0000
,
0001
0100
1000
0100
0010
1000
0010
0000
,
0001
0100
1000
0100
0010
0010
1000
1000
,
0010
0001
0010
0001
0100
0010
0100
0000
,
0001
0010
1000
0010
0001
0010
1000
0000
,
0001
0100
0001
0010
1000
0100
1000
0000
,
0110
0000
0000
0001
0000
0000
0110
0000
0000
1000
0000
0000
0100
0000
0010
0000
,
0110
1000
0001
0010
0001
1000
0010
0000
,
0100
0010
0001
0010
1000
0010
1000
0000
,
0010
1000
0100
1000
0001
0010
0001
0000
,
1000
0100
0010
1000
0100
0010
0001
0010
,
1010
0010
0100
0010
,
0001
1000
0010
1000
,
0100
0001
0010
0001
,
0100
0010
0001
0100
,
1000
0100
0001
0100
,
1000
0010
0001
0100
,
1000
0001
0010
0100
,
1000
0000
0001
0000
1000
1000
0001
0001
,
0200
0001
0310
1000
,
0002
0010
1003
0010
,
0100
0000
1000
0100
0000
1000
0100
0000
0001
0000
0100
0000
0010
0000
0000
0000
,
0010
0001
0100
0010
1000
0100
0101
0000
,
0100
0010
0001
0000
0100
1000
0001
0000
,
1000
0100
1000
0000
0001
0000
0100
0000
0010
0000
1000
0000
0010
0000
0000
0000
,
1100
0000
0001
0000
0100
1000
0001
0000
,
1010
0000
0101
0000
0001
0010
0100
1000
,
0012
0100
1000
0100
,
1000
0010
1000
0103
,
2000
0100
0001
0100
,
0010
0000
0100
0000
3001
0001
0010
0010
,
0200
0001
1000
0010
,
1000
0001
0010
0001
,
1000
0001
0010
0010
,
0001
0000
0310
0000
1000
0100
0010
0001
,
0001
0010
1000
0010
0001
0010
0001
0000
,
0100
1000
0100
1000
0010
0100
1000
0000
,
0001
0100
0010
0000
1000
0100
1000
0000
,
0110
0000
0000
0000
0000
0000
0000
0000
0110
0000
0000
1001
0000
0000
0110
0000
,
0001
0100
0001
0010
1000
0010
1000
0000
,
0100
0010
0100
0001
0100
0010
1000
0000
,
0010
0001
0100
0000
0001
1000
0100
0100
,
0010
1001
1010
0101
,
1001
0000
0000
0000
;

//--------------- dance-single - DJSuperNOVA ----------------
#NOTES:
     dance-single:
     DJSuperNOVA:
     Hard:
     15:
     0,0,0,0,0:
0000
0000
0000
0000
,
0000
0000
0000
0000
,
0001
0000
1000
0000
1000
0000
0100
0000
0010
0001
0010
0000
0010
0000
0000
0000
,
0100
0000
1000
0000
1000
0000
0010
0000
0100
0001
0100
0000
0001
0000
0000
0000
,
0010
0000
0001
0000
1000
0000
0010
0000
0100
0001
0100
0000
0010
0000
0000
0000
,
1000
0000
0100
0000
0001
0000
0100
0000
1000
0100
1000
0000
0010
0000
0000
0000
,
1010
0000
1000
0000
0010
0000
0100
0010
0100
0000
0010
0000
0001
0000
0100
0000
,
1000
0000
0100
0000
0001
0000
0100
0010
0100
0000
1000
0000
0010
0000
0000
0000
,
0101
0000
1000
0000
0010
0000
0100
0000
0001
0100
0001
0000
0010
0000
1000
0100
,
0010
0000
0100
0000
0010
0000
0001
0100
1000
0010
1000
0000
1000
0100
0010
0001
,
1000
0000
0100
0000
0110
0000
0010
0001
0100
0001
0010
0000
1010
0000
1000
0100
,
0010
0000
0010
0000
0110
0000
0100
0010
0100
0001
0100
0000
1010
0000
0100
0010
,
1000
0000
0100
0000
0110
0000
0100
0001
0010
0001
0100
0000
0110
0000
1000
0100
,
0001
0000
0100
0000
0100
0010
1000
0000
0100
0010
0001
0000
0001
0000
1000
0010
,
0100
0000
0100
0010
0000
0001
1000
0100
0010
0001
0000
0010
0001
0000
1000
0100
,
1000
0000
0100
0010
0001
0000
1000
0010
1000
0001
0100
0000
1001
0000
0010
0100
,
1000
0000
1000
0000
1010
0000
0100
0010
0001
0010
0001
0100
0001
0100
0010
0000
,
2000
0000
0000
0000
3002
0000
0000
0000
0103
0000
0100
0000
0010
0100
0010
0100
,
1000
0000
0010
0000
0001
0000
0100
0010
0100
0010
0100
0000
1000
0000
0100
0000
,
0010
0000
0100
0000
0001
0000
1000
0010
1000
0010
1000
0000
0001
0000
0100
0000
,
0010
0000
1000
0000
0010
0000
0100
0001
0100
0001
0100
0000
0010
0000
1000
0000
,
0100
0000
0001
0000
0100
0000
1000
0010
1000
0010
1000
0000
1000
0000
0001
0100
,
1000
0000
0100
0000
0001
0000
0010
0100
1000
0100
0010
0000
0100
0000
0100
1000
,
0010
0000
0100
0000
0001
0000
0100
0010
0100
0001
0100
0000
0010
0000
0010
0001
,
0100
0000
0100
0000
1000
0000
0010
0001
1000
0100
0010
0000
0001
0000
0100
1000
,
0001
0000
0100
0000
1000
0000
0100
0000
0001
0000
0010
0000
1000
0100
0010
0100
,
0001
0000
0010
0000
1000
0000
0010
0001
0100
0001
0010
0000
0100
0000
1000
0010
,
1000
0000
0100
0000
0010
0000
0100
0001
0010
0001
1000
0000
0010
0000
0100
1000
,
0001
0000
0100
0000
0001
0000
0010
1000
0010
1000
0100
0000
0001
0000
1000
0100
,
0011
0000
0100
1000
0000
0010
0001
0000
1000
0010
0000
0000
0101
0000
0110
0000
,
1010
0000
0100
0000
0001
0000
0100
0010
1000
0010
0001
0000
0100
0000
1000
0010
,
0100
0000
0100
0000
0001
0000
1000
0010
1000
0100
0001
0000
0010
0000
1000
0100
,
0001
0000
0010
0000
1000
0000
0100
0010
0100
0001
1000
0000
0100
0000
0001
0100
,
0010
0000
0010
0000
1000
0000
0100
0010
0001
0100
0001
0000
0100
0010
0100
0010
,
0001
0100
0010
1000
0010
0100
1000
0100
,
0010
0000
1000
0000
0010
0000
0001
0000
0000
0000
0100
0000
0001
0000
1000
0100
,
0010
0000
0100
0000
0010
0000
1000
0000
0001
0000
0100
0000
0010
0000
0001
0010
,
1000
0000
0100
0000
1000
0000
0100
0010
1000
0000
0010
0000
0100
0000
1000
0000
,
0010
0100
0010
0001
1000
0010
0100
0001
,
1000
0000
0010
0000
0100
0000
0100
1000
0001
0000
1000
0000
0010
0000
0100
0010
,
1000
0010
0100
0010
0001
0100
0010
0100
,
0202
0000
0303
0000
2020
0000
3030
0000
0001
0000
0100
0001
0100
0001
0100
0001
,
0101
0000
0100
0000
0010
1000
0000
0010
1000
0000
0100
0000
0010
0000
0100
0000
,
1000
0000
0100
0000
0010
0001
0000
0010
0001
0000
0100
0000
0010
0000
1000
0000
,
0001
0000
1000
0001
0000
0100
0001
0000
0010
0100
0010
0000
1000
0000
0100
0000
,
0001
0010
0010
0010
1000
0100
1000
1000
,
0001
0000
0100
0000
0010
1000
0000
0010
1000
0000
0100
0000
0010
0001
0000
0010
,
0001
0010
0001
0000
0100
0010
0000
1000
0010
0000
0100
0000
0001
0000
0100
0000
,
0110
1000
0010
1000
0001
0100
0010
1000
,
0100
1000
0100
0000
0010
0001
0010
0000
1000
0000
1000
0100
0010
0100
0010
0100
,
0110
0000
1000
0000
0001
0000
0100
0010
0001
0010
0100
0000
0110
0000
0001
0100
,
0001
0000
0010
0000
1010
0000
0100
0010
0100
0001
0100
0000
0101
0000
1000
0010
,
1000
0000
0010
0000
1010
0000
0100
0010
0001
0010
1000
0000
1010
0000
0100
0010
,
0001
0000
0010
0000
1010
0000
0100
0010
0001
0000
0001
0000
1000
0000
1000
0000
,
1001
0000
0100
0000
0110
0000
0100
0001
0100
0001
0010
0000
1010
0000
0100
0010
,
0001
0000
1000
0000
0011
0000
0100
1000
0010
0100
1000
0000
1010
0000
0100
0010
,
0100
0000
0010
0000
0011
0000
1000
0100
0010
0001
1000
0000
1100
0000
0001
0010
,
0200
0000
0000
0000
2300
0000
0000
0000
3002
0000
0203
0000
0310
0100
0010
0100
,
0110
0000
0010
0000
1010
0000
1000
0100
1000
0100
1000
0000
0101
0000
0010
0001
,
0100
0000
0010
0000
1100
0000
0001
0010
0100
1000
0010
0000
0101
0000
1000
0010
,
0001
0000
0100
0000
0011
0000
1000
0010
0100
0010
1000
0000
0101
0000
1000
0100
,
0011
0000
0000
0000
0000
0000
0000
0000
1010
0000
0000
0101
0000
0000
0110
0000
,
1001
0000
0100
0000
0011
0000
1000
0100
0010
0100
1000
0000
0101
0000
0010
0100
,
1000
0000
1000
0000
0101
0000
0010
0001
1000
0100
1000
0000
0110
0000
1000
0010
,
0001
0000
0100
0000
1010
0000
0100
0001
0100
0010
1000
0000
0100
0001
0100
0010
,
0001
0000
1000
0000
0110
0000
0100
0000
0110
0000
0010
0000
0100
0010
0100
0010
,
1001
0000
0000
0000
0000
0000
0010
0010
0200
0000
0000
0000
0300
0000
0000
0000
;

//--------------- dance-single - ArrowVortex Bot ----------------
#NOTES:
     dance-single:
     ArrowVortex Bot:
     Edit:
     16:
     0,0,0,0,0:
0000
0000
0000
0000
,
0000
0000
0000
0000
,
0100
0000
0100
0000
0001
0000
0010
1000
0010
0100
0001
0000
0001
0000
0000
0000
,
0010
0000
0100
0000
0001
0000
0001
0010
0100
0010
0001
0000
0010
0000
0000
0000
,
0001
0000
0100
0000
0001
0000
0100
1000
0010
0100
0001
0000
0100
0000
0000
0000
,
0001
0000
0001
0000
0010
0000
0100
1000
0010
1000
0100
0000
0001
0000
0000
0000
,
0101
0000
0010
0000
0001
0000
0001
0010
0100
0010
0100
0000
0010
0000
0001
0010
,
0001
0000
0100
0000
0001
0000
0010
1000
0100
0010
0100
0000
0001
0000
0000
0000
,
1100
0000
0001
0000
0001
0000
0100
0010
0100
0010
0001
0000
0100
0000
0010
0100
,
0010
0000
0001
0000
0010
0000
0001
1000
0100
1000
0100
0010
0100
0010
0001
0100
,
0001
0010
0100
0000
0001
0000
0010
1000
0100
0010
0100
0000
0100
0010
0001
1000
,
0001
0000
0100
0000
0100
1000
0010
0100
0001
1000
0010
0000
0001
0010
0001
0100
,
0001
0010
0100
0000
0100
0000
0100
0010
0001
1000
0100
0000
0010
0100
0001
0100
,
0010
0000
0001
1000
0001
1000
0010
0000
0100
0010
0100
0000
0001
0100
0001
0010
,
0100
0010
0001
0100
0010
1000
0100
0010
0001
0100
0010
1000
0010
0100
0010
1000
,
0100
0010
0001
0100
0010
1000
0100
1000
0010
0100
0001
1000
0010
0100
0010
1000
,
0001
1000
0010
0000
0100
0010
0001
0100
0010
1000
0100
0010
0001
0100
0010
1000
,
0100
0010
0001
1000
0001
0010
0001
0100
0010
1000
0001
1000
0001
0100
0001
1000
,
0100
0010
0001
0010
0001
0100
0010
1000
0100
1000
0100
0010
0100
0010
0001
0010
,
0100
1000
0100
0010
0100
1000
0010
0100
0001
1000
0010
0100
0001
0010
0100
1000
,
0010
1000
0100
1000
0010
0100
0010
1000
0010
1000
0001
0010
0001
0010
0100
0010
,
0100
1000
0100
1000
0001
0100
0001
1000
0001
0000
0100
0000
0010
0000
1000
0100
,
0010
1000
0001
0010
0100
1000
0001
0100
0001
0100
0010
1000
0100
1000
0010
1000
,
0100
0010
0001
0100
0010
0100
0010
1000
0100
0010
0100
1000
0100
1000
0010
1000
,
0001
0100
0010
0100
0001
0010
0001
1000
0100
0010
0100
1000
0001
1000
0001
1000
,
0010
0100
0001
1000
0100
0010
0001
0010
0100
0010
0100
1000
0100
0001
0100
0001
,
0010
1000
0100
1000
0010
0100
0010
0100
0001
0010
0001
0100
0010
0100
0001
1000
,
0001
0010
0100
0010
0100
1000
0100
1000
0010
0100
0010
0100
0001
0100
0010
1000
,
0100
0010
0001
0010
0001
0010
0100
1000
0001
0010
0100
0010
0001
1000
0001
0010
,
0001
0000
0010
0100
0001
0010
0100
0000
0001
0010
0100
1000
0010
1000
0100
0010
,
0100
1000
0010
1000
0001
0010
0001
0100
0001
0100
0010
0100
0001
1000
0010
0100
,
0010
1000
0001
0100
0001
0010
0100
0010
0001
1000
0001
0010
0100
0010
0001
1000
,
0100
0010
0001
1000
0010
1000
0100
0010
0001
1000
0100
0010
0100
0010
0100
1000
,
0001
0100
0010
0100
0010
0100
0001
0010
0100
0010
0001
0100
0001
1000
0010
0000
,
0001
0010
0001
0100
0010
0100
0001
0010
0001
0100
0001
0010
0100
1000
0100
1000
,
0001
0100
0010
1000
0100
0010
0001
0100
0010
1000
0010
0100
0010
1000
0100
0010
,
0100
1000
0001
0100
0010
1000
0001
0100
0010
1000
0010
1000
0001
0010
0001
0100
,
0010
0100
0001
0010
0100
1000
0010
0100
0001
0100
0010
0100
0001
0010
0100
1000
,
0010
1000
0001
0010
0100
0010
0001
1000
0010
0100
0001
0100
0001
1000
0100
0010
,
0001
0100
0010
1000
0001
0010
0100
0010
0100
1000
0010
0100
0001
1000
0010
1000
,
0100
0010
0100
1000
0010
1000
0100
1000
0010
0100
0001
0010
0001
0010
0100
1000
,
0200
0000
0000
0000
0302
0000
0000
0000
2003
0000
3010
1000
0100
1000
0010
0100
,
0010
1000
0001
1000
0001
0100
0010
1000
0001
0010
0100
1000
0001
0100
0010
1000
,
0100
0010
0001
0100
0010
0100
0010
0100
0001
0010
0001
1000
0001
0100
0010
1000
,
0100
0010
0100
1000
0001
0010
0100
1000
0010
1000
0001
0100
0010
0100
0010
1000
,
0001
0100
0001
0010
0001
0100
0010
1000
0100
0010
0001
1000
0100
0010
0001
0100
,
0001
0100
0001
1000
0010
0100
0001
0010
0100
1000
0010
1000
0100
0010
0001
0100
,
0001
0001
0100
1000
0100
0010
0100
0010
0001
0100
0010
0100
0001
0010
0100
1000
,
0010
1000
0010
1000
0001
0010
0001
0100
0001
0010
0100
0010
0100
1000
0010
0100
,
0001
0010
0001
0100
0010
0100
0001
0010
0100
0010
0001
1000
0010
0100
0001
0010
,
0100
1000
0010
0100
0001
0010
0001
0100
0001
0010
0100
1000
0010
0100
0001
0010
,
0001
0100
0001
0010
0100
1000
0100
1000
0100
0010
0001
1000
0001
0100
0010
1000
,
0100
1000
0010
0100
0001
1000
0100
0010
0001
1000
0100
0010
0100
1000
0010
1000
,
0010
1000
0001
0100
0010
1000
0100
0010
0101
0000
0101
0000
1010
0000
1010
0000
,
0001
1000
0100
1000
0001
0010
0100
0010
0001
0100
0010
0100
0001
1000
0010
0100
,
0001
0010
0100
0010
0001
1000
0010
0100
0010
1000
0100
0010
0001
1000
0001
0010
,
0001
1000
0010
0100
0001
0010
0100
0010
0001
0100
0010
1000
0100
0010
0100
1000
,
0010
0100
0001
0010
0100
1000
0010
0100
0010
1000
0100
0010
0001
0100
0010
1000
,
0100
1000
0010
0100
0001
1000
0001
0010
0100
0010
0100
0010
0001
0100
0010
1000
,
0001
0100
0010
1000
0001
0010
0100
0010
0001
0010
0001
0100
0001
0010
0100
1000
,
0100
1000
0001
0010
0001
1000
0010
0100
0001
0010
0001
0100
0010
1000
0100
1000
,
0001
0000
0000
0000
0001
0000
0000
0000
0001
0100
1000
0100
0010
0000
0001
0100
,
0010
1000
0010
1000
0100
1000
0010
0100
0010
0100
0010
1000
0100
0010
0001
0010
,
0100
0010
0001
0100
0010
0100
0001
0010
0100
0010
0100
1000
0010
0100
0001
0010
,
0100
1000
0001
0010
0001
0010
0001
1000
0010
0100
0001
1000
0100
0010
0001
1000
,
0010
0100
0010
1000
0100
1000
0001
0100
0010
1000
0100
1000
0100
1000
0010
0100
,
1001
0000
0000
0000
0000
0000
0100
0100
0020
0000
0000
0000
0000
0000
0000
0000
,
0030
0000
0000
0000
;
