
//----- song ID: vvan -----//
#TITLE:vs.VIGVANGS;
#ARTIST:MisoilePunch ♪;
#GENRE:ナムコオリジナル;
#MUSIC:vs VIGVANGS.ogg;
#BANNER:vs VIGVANGS.png;
#BACKGROUND:vs VIGVANGS-bg.png;
#CDTITLE:./CDTitles/NSD WORLD.png;
#SAMPLESTART:59.330;
#SAMPLELENGTH:15.000;
#SELECTABLE:YES;
#OFFSET:0.000;
#BPMS:0.000=360.000
,292.000=90.000
,296.000=360.000
,320.000=90.000
,322.000=360.000
,466.000=300.000
,474.000=150.000
,486.000=600.000
,518.000=150.000
,526.000=600.000
,558.000=160.000
,559.000=162.000
,561.000=164.000
,564.000=166.000
,566.000=168.000
,568.000=170.000
,570.000=172.000
,571.000=174.000
,572.000=176.000
,573.000=178.000
,574.000=720.000
,590.000=180.000
,602.000=90.000
,606.000=360.000
,717.000=45.000
,718.000=360.000
,759.000=720.000
,807.000=180.000
,811.000=360.000
,827.000=90.000
,830.000=720.000
;
#STOPS:;
#BGCHANGES:;
#FGCHANGES:;

//--------------- dance-single - ----------------
#NOTES:
     dance-single:
     :
     Beginner:
     9:
     0,0,0,0,0:
0000
0000
0000
0000
,
0000
0000
0000
0000
,
0000
0000
0000
0000
,
0000
0000
0000
0000
,
0000
0000
0000
0000
,
0000
0000
0000
0000
,
0000
0000
0000
0000
,
0000
0100
0000
0000
0010
0000
0000
0100
,
0000
0010
1000
0100
,
0010
0000
0001
0000
,
1000
0000
0010
0000
,
1000
0000
0100
0000
,
1000
0000
0001
0000
,
0100
0000
0010
0000
,
0100
0000
0010
0000
,
1001
0000
0000
0000
,
0000
0000
0001
0010
,
0100
0000
0001
0000
,
0100
0000
0010
0000
,
0100
0000
0010
0000
,
1000
0000
0100
0000
,
1000
0000
0010
0000
,
0100
0000
0010
0000
,
0000
0100
0000
0000
0100
0000
0000
0100
,
0000
0100
0001
0010
,
0100
0000
0001
0000
,
0010
0000
0001
0000
,
1000
0000
0010
0000
,
1000
0000
0010
0000
,
0100
0000
0010
0000
,
1000
0100
0001
1000
,
0000
0001
0000
0000
1000
0000
0000
0001
,
0000
1000
0001
0000
,
1001
0000
0000
0000
,
0000
0000
0000
0000
,
0110
0000
0000
0000
,
0000
0000
0000
0000
,
0100
0001
1000
0000
,
0100
0010
0100
0000
,
1000
0001
1000
0000
,
0001
0100
0010
0000
,
0110
0000
0000
0000
,
0000
0000
0000
0000
,
1010
0000
0000
0000
,
0000
0000
0000
0000
,
0110
0000
1000
0001
,
1000
0000
0010
0100
,
0100
0000
0001
1000
,
0001
0000
0100
0010
,
0001
0000
0100
0000
,
0010
1000
0001
0000
,
0010
0000
0100
0000
,
1000
0100
0001
0000
,
1000
0000
0010
0000
,
1000
0001
0100
0000
,
0010
0000
0100
0001
,
1000
0100
0010
0001
,
0100
0000
0001
0000
,
0100
0000
0001
0000
,
0010
0000
0100
0000
,
0010
0000
0001
0000
,
0100
1000
0010
0000
,
0100
0001
0010
0000
,
1000
0100
0010
1000
,
0100
0000
0001
0000
,
0100
0000
0100
0000
,
0101
0000
1000
0000
,
1010
0000
0100
0000
,
0110
0000
0001
0000
,
1010
0000
0100
0000
,
1000
0000
0001
0000
,
1000
0000
0001
0000
,
1000
0000
0001
0000
,
2002
0000
0000
3003
,
0010
0100
0010
0100
,
0010
0001
0100
0010
,
1000
0001
0100
0010
,
0100
0001
0100
0001
,
1000
1000
1000
1000
,
0001
0001
0001
0001
,
2002
3003
0100
0000
,
0010
0000
0001
0000
,
1000
0000
0001
0000
,
1000
0000
0001
0000
,
1000
0000
1001
0000
,
0100
1000
0001
0000
,
0100
0000
0001
0100
,
1000
0100
0010
0000
,
1000
0000
0100
0001
,
0010
1000
0001
0010
,
0000
1010
0000
0000
1002
0000
0000
0000
,
0010
0000
0103
0010
,
1000
0000
0100
0000
,
0010
1000
0001
0000
,
0010
0000
0001
1000
,
0100
0000
0001
0010
,
0100
0000
0010
0100
,
1000
0010
0100
0000
,
1000
0100
0010
0000
,
0100
0000
1000
2001
,
0000
0000
3001
0010
,
1000
0000
0100
0001
,
0010
0000
0100
1000
,
0010
0000
0001
1000
,
0100
0000
0010
0001
,
0100
1000
0010
0000
,
0100
0000
0001
0000
,
0010
1000
0000
1001
,
0000
0110
0000
1000
,
0001
1000
0010
0100
,
0010
0000
0001
0000
,
0100
0000
0001
0000
,
1000
0000
0010
0000
,
1000
0000
0100
0000
,
0010
0000
0001
0000
,
0010
0000
0100
0000
,
1000
0000
0200
0000
,
0000
0000
0000
0000
,
0320
0000
0000
0000
1030
0100
0010
0100
,
1000
0001
1000
0010
1000
0001
0010
0001
,
1000
0001
0100
0010
0100
0010
0100
0001
,
1000
0010
0100
0010
1000
0000
0000
0000
,
0000
0000
0010
0000
,
0000
0000
0100
0000
,
0000
0000
0010
0000
,
0001
1000
0100
0000
,
0000
0000
0001
0000
,
0000
0000
0100
0000
,
0000
0000
0001
0000
,
0000
0000
0000
0000
0100
0010
0100
0001
,
0010
0100
0010
0001
0010
0001
0100
0010
,
0100
0010
0100
0001
0100
0000
0000
0000
,
0000
0000
0010
0000
,
0000
0000
1000
0000
,
0000
0000
0010
0000
,
1000
0001
0100
0000
,
0000
0000
0001
0000
,
0000
0000
0100
0000
,
0000
0000
0010
0000
,
0010
0100
2000
0000
,
0000
3001
1002
0000
,
0000
0000
1003
0000
0100
0010
1000
0001
,
0010
0100
1000
0010
1000
0100
0010
0001
,
1000
0010
1000
0100
2002
0000
0000
0000
,
0000
0000
0000
0000
,
0000
0000
0000
0000
,
0000
0000
0000
0000
,
0000
0000
3003
0000
,
0000
0000
0000
0000
0000
1000
0001
0010
,
0001
1000
0100
0010
1000
0100
0100
0100
,
0100
0010
0010
0010
0010
0000
0000
0000
,
0000
0000
0000
0000
1000
0001
0000
2002
,
0000
0000
3003
0110
,
0000
1001
0000
0000
0012
0000
0000
0000
,
0000
0000
0000
1003
,
0010
0001
0010
1000
,
0010
0100
1000
0100
,
0010
0100
0010
0001
,
0010
0001
1000
0001
,
0010
0100
0010
0100
,
1000
0001
0010
0001
,
0100
0001
0010
0100
,
0010
0001
0100
0001
,
0100
0010
0200
0320
,
1030
0100
0010
0001
,
0010
0001
0100
0001
,
1000
0100
1000
0100
,
0010
0100
0010
0001
,
0100
0001
0010
0100
,
0010
0001
1000
0100
,
1000
0001
0000
1000
,
0010
0100
0010
0100
,
0010
1000
0100
1000
,
0100
0010
0001
0100
,
0001
1000
0100
0010
,
0100
0010
0001
0100
,
0001
0010
0100
0010
,
0100
0010
0001
1000
,
0001
0100
0001
1000
,
0100
0020
0130
0001
,
0010
0100
0010
0001
,
0100
0010
0100
0010
,
0100
0001
0010
0001
,
0100
0001
1000
0010
,
0100
0001
1000
0100
,
0010
0001
0100
0010
,
1000
0010
1000
0010
,
0100
0001
0010
0100
,
1000
0010
0100
0001
,
0100
0010
0000
1000
,
0000
0000
0000
0010
,
0000
0000
0000
1000
,
0000
0000
0000
0001
,
0000
0000
0000
0010
,
0000
0000
0000
0100
,
0000
0000
0000
0010
,
0000
0000
0000
0001
,
0000
0000
0000
1000
,
0000
0000
0000
0001
,
0000
0000
0000
1000
,
0000
0000
0000
0010
,
0000
0000
0000
0000
0000
0000
1000
0001
,
0010
1000
0001
0010
0002
0000
0103
0000
,
0010
1000
0001
0100
,
0010
0100
0010
0100
,
0001
1000
0001
0100
,
0001
0000
1000
0000
0100
0000
0000
0220
,
0000
0000
0000
0330
0000
0000
0000
0000
,
0100
0000
0100
0000
,
2000
0000
0000
0000
,
0000
0000
3000
0000
,
1000
0001
1001
0000
;

//--------------- dance-single - ----------------
#NOTES:
     dance-single:
     :
     Easy:
     11:
     0,0,0,0,0:
0000
0000
0000
0000
,
0000
0000
0000
0000
,
0000
0000
0000
0000
,
0000
0000
0000
0000
,
0000
0000
0000
0000
,
0000
0000
0000
0000
,
0000
0000
0000
0000
,
0000
0101
0000
0000
0101
0000
0000
0101
,
0000
0101
1000
0010
,
1000
0100
0001
0000
,
1000
0001
0100
0000
,
0100
0010
1000
0000
,
0001
1000
0001
0000
,
0100
0010
1000
0001
,
0100
0010
0100
1000
,
1001
0000
0000
0000
,
0000
0000
0000
0000
,
0001
0010
0001
0010
,
0100
0010
0100
1000
,
0010
0100
0010
1000
,
0010
1000
0001
1000
,
0010
0100
0010
0100
,
0010
1000
0100
1000
,
0000
0110
0000
0000
0101
0000
0000
1010
,
0000
0101
1000
0001
,
1000
0100
0010
0001
,
0100
0010
1000
0010
,
1000
0001
1000
0100
,
0010
0100
0010
0100
,
1000
0000
0010
0001
0100
0000
0010
0100
,
1000
0000
0001
0010
1000
0000
0001
0000
,
0000
1001
0000
0000
0101
0000
0000
1010
,
0000
0101
2002
3003
,
0110
0000
0000
0000
,
0000
0000
0000
0000
,
1001
0000
0000
0000
,
0000
0000
0000
0000
,
0101
0000
0010
0100
,
0010
0100
0010
0001
,
1000
0010
0100
0010
,
1000
0001
1000
0100
,
1001
0000
0000
0000
,
0000
0000
0000
0000
,
0101
0000
0000
0000
,
0000
0000
0000
0000
,
1000
0100
0001
0100
,
0001
1000
0001
1000
,
0100
0010
0001
0100
,
0010
0100
0010
0100
,
0001
0010
0100
0010
,
0001
0100
0001
1000
,
0010
1000
0001
0010
,
0100
0010
0001
0100
,
0001
1000
0001
0100
,
0010
0100
0001
0010
,
0100
1000
0001
1000
,
0010
0100
0010
0100
,
0010
1000
0001
1000
,
0001
1000
0010
0100
,
0010
1000
0001
1000
,
0100
0010
0100
0010
,
0001
0100
0010
0100
,
0001
1000
0001
1000
,
0100
0010
0100
0010
,
0001
1000
0001
1000
,
0100
0000
0000
0000
0000
0000
0001
0000
0000
0000
1000
0000
,
0001
0000
0000
0000
0000
0000
0010
0000
0000
0000
0001
0000
,
1000
0000
0000
0000
0000
0000
0100
0000
0000
0000
1000
0000
,
0001
0000
0000
0000
0010
0000
0100
0000
0000
0000
0001
0000
,
1000
0000
0000
0000
0000
0000
0010
0000
0000
0000
0100
0000
,
1000
0000
0000
0000
0000
0000
0001
0000
0000
0000
0010
0000
,
0100
0000
0000
0000
0000
0000
0010
0000
0000
0000
0001
0000
,
0100
0000
0000
0000
0001
0000
1000
0000
0000
0000
0001
0000
,
2000
0000
3002
0000
0203
0000
0320
2030
,
3001
1000
0010
0001
,
1000
0100
0010
0100
,
0010
0001
1000
0100
,
0010
0001
0010
0100
,
0010
0100
0010
0100
,
0020
0100
0100
0100
,
0230
0000
0310
0000
,
0000
0000
0101
0000
,
0020
0000
1030
0100
,
0001
0100
2000
0000
,
3010
0000
1001
1000
,
0100
1000
0010
0100
,
0001
0010
0001
0010
,
0001
0100
0010
0100
,
0001
0100
0010
1000
,
0010
1000
0001
0010
,
0001
0100
0001
1000
,
0010
0100
0001
0010
,
0100
0010
0001
1000
,
0100
0010
0100
1000
,
0010
0100
0010
1000
,
0001
0100
0001
0100
,
0010
0100
0010
1000
,
0100
1000
0100
1000
,
0010
0200
0000
0310
,
0001
0100
1000
2002
,
0000
3003
1000
0100
,
1000
0100
0010
0100
,
1000
0010
0100
0001
,
1000
0001
0010
0100
,
0010
0100
1000
0001
,
1000
0010
1000
0001
,
0010
0100
0010
0000
,
1000
0001
0000
0110
,
0000
0110
0000
1000
,
0001
1000
0100
0001
,
1000
0010
0100
0010
,
0100
0010
1000
0001
,
0100
0001
0100
0010
,
1000
0001
0010
0100
,
0010
0001
0100
0010
,
1000
0100
1000
0001
,
1000
0100
0010
0010
,
0010
0100
0100
0100
,
0010
0000
0100
0000
0010
0001
1000
0100
,
1000
0001
1000
0001
0100
0001
0010
0100
,
1000
0010
1000
0001
0100
0001
0010
0100
,
1000
0100
1000
0100
1000
0000
0000
0000
,
0001
0000
0100
0000
,
0001
0000
1000
0000
,
0010
0000
0100
0000
,
0010
0100
1000
0000
,
0100
0000
0010
0000
,
0001
0000
1000
0000
,
0100
0000
1000
0000
,
0001
0000
0000
0000
0100
0010
0100
0001
,
0010
0001
1000
0001
0010
0100
1000
0010
,
1000
0001
0010
0001
1000
0000
0000
0000
,
0001
0000
0100
0000
,
1000
0000
0010
0000
,
1000
0000
0001
0000
,
0100
1000
0010
0000
,
0100
0000
0001
0000
,
0010
0000
0100
0000
,
1000
0000
0001
0000
,
0010
0001
0220
0000
,
0330
0000
2002
0000
,
3003
0000
0110
0000
,
0101
0000
1001
0110
,
1000
0100
0001
0100
2002
0000
0000
0000
,
0000
0000
0000
0000
,
0000
0000
0000
0000
,
0000
0000
0000
0000
,
0000
0000
3003
0000
,
0000
0000
0000
0000
,
0000
0000
0000
0000
0000
0100
0100
0100
,
0100
0100
0010
0100
0010
0000
0000
0000
,
0000
0000
0000
0000
1000
0001
0000
2002
,
0000
0000
3003
0110
,
0000
1001
0000
0000
0012
0000
0000
0000
,
0000
0000
0000
1003
,
0010
0001
0010
1000
,
0010
0100
1000
0100
,
0010
0100
0010
0001
,
0010
0001
1000
0001
,
0010
0100
0010
0100
,
1000
0001
0010
0001
,
0100
0001
0010
0100
,
0010
0001
0100
0001
,
0100
0010
0200
0320
,
1030
0100
0010
0001
,
0010
0001
0100
0001
,
1000
0100
1000
0100
,
0010
0100
0010
0001
,
0100
0001
0010
0100
,
0010
0001
1000
0100
,
1000
0001
0000
1000
,
0010
0100
0010
0100
,
0010
1000
0100
1000
,
0100
0010
0001
0100
,
0001
1000
0100
0010
,
0100
0010
0001
0100
,
0001
0010
0100
0010
,
0100
0010
0001
1000
,
0001
0100
0001
1000
,
0100
0020
0130
0001
,
0010
0100
0010
0001
,
0100
0010
0100
0010
,
0100
0001
0010
0001
,
0100
0001
1000
0010
,
0100
0001
1000
0100
,
0010
0001
0100
0010
,
1000
0010
1000
0010
,
0100
0001
0010
0100
,
1000
0010
0100
0001
,
0100
0010
0000
1000
,
0000
0010
0000
1000
,
0000
0001
0000
0010
,
0000
0100
0000
0010
,
0000
0001
0000
1000
,
0000
0001
0000
1000
,
0000
0010
0000
1000
,
0000
0001
0000
0100
,
0000
0010
0000
0100
,
0000
0001
0000
1000
,
0000
0001
0000
1000
,
0000
0100
0000
1000
,
0000
0000
0001
0000
0000
0000
0100
0001
,
0010
1000
0001
0010
0200
0300
0100
0000
,
0010
1000
0001
0100
,
0010
0100
0010
0100
,
0001
1000
0001
0100
,
0001
0000
1000
0000
0100
0000
0000
0220
,
0000
0000
0000
0330
0000
0000
0000
0000
,
0010
0000
0010
0000
,
0002
0000
0000
0000
,
0000
0000
0003
0000
,
1000
0001
1001
0000
;

//--------------- dance-single - ----------------
#NOTES:
     dance-single:
     :
     Medium:
     14:
     0,0,0,0,0:
0000
0000
0000
0000
,
0000
0000
0000
0000
,
0000
0000
0000
0000
,
0000
0000
0000
0000
,
0000
0000
0000
0000
,
0000
0000
0000
0000
,
0000
0000
0000
0000
,
0000
1001
0000
0000
0101
0000
0000
1001
,
0000
0000
0110
0000
1000
0001
1000
0001
,
0100
0000
0010
0000
0100
1000
0010
0000
,
0001
1000
0010
0000
0001
0010
1000
0000
,
0001
0000
0010
0001
0100
0000
1000
0000
,
0001
0100
0010
0100
,
0001
1000
0100
0010
,
0100
1000
0010
0100
,
0010
0000
0000
0000
,
0000
0000
2002
3003
,
0001
0010
0001
0010
,
0100
0010
0100
1000
,
0010
0100
0010
1000
,
0010
1000
0001
1000
,
0010
0100
0010
0100
,
0010
1000
0100
1000
,
0000
0110
0000
0000
0101
0000
0000
1010
,
0000
0101
1000
0001
,
1000
0100
0010
0001
,
0100
0010
1000
0010
,
1000
0001
1000
0100
,
0010
0100
0010
0100
,
1000
0000
0010
0001
0100
0000
0010
0100
,
1000
0000
0001
0010
1000
0000
0001
0000
,
0000
1001
0000
0000
0101
0000
0000
1010
,
0000
0101
2002
3003
,
0110
0000
1000
0000
0001
0000
1000
0001
,
0000
0010
0100
1000
0000
0000
0000
0000
,
1001
0000
1000
0000
0001
0000
1000
0100
,
0000
0001
1000
0001
0000
0000
0000
0000
,
0010
1000
0010
1000
,
0001
0100
0001
1000
,
0001
0010
0100
1000
,
0010
1000
0100
0000
,
1001
0000
0100
0000
0010
0000
0001
1000
,
0000
0001
1000
0001
0000
0000
0000
0000
,
1001
0000
0001
0000
0100
0000
1000
0100
,
0000
0001
1000
0001
0000
0000
0000
0000
,
0001
0010
1000
0010
,
1000
0001
1000
0001
,
0010
0100
1000
0010
,
0100
0010
0100
0010
,
1000
0100
0010
0100
,
1000
0010
1000
0001
,
0100
0001
1000
0100
,
0010
0100
1000
0010
,
1000
0001
1000
0010
,
0100
0010
1000
0100
,
0010
0001
1000
0001
,
0100
0010
0100
0010
,
0100
0001
1000
0001
,
1000
0001
0100
0010
,
0100
0001
1000
0001
,
0010
0100
0010
0100
,
1000
0010
0100
0010
,
1000
0001
1000
0001
,
0010
0100
0010
0100
,
1000
0001
1000
0001
,
0010
0000
0000
0000
0000
0000
1000
0000
0000
0000
0001
0000
,
1000
0000
0000
0000
0000
0000
0100
0000
0000
0000
1000
0000
,
0001
0000
0000
0000
0000
0000
0010
0000
0000
0000
0001
0000
,
1000
0000
0000
0000
0100
0000
0010
0000
0000
0000
1000
0000
,
0001
0000
0000
0000
0000
0000
0100
0000
0000
0000
0010
0000
,
0001
0000
0000
0000
0000
0000
1000
0000
0000
0000
0100
0000
,
0010
0000
0000
0000
0000
0000
0100
0000
0000
0000
1000
0000
,
0010
0000
0000
0000
1000
0000
0001
0000
0000
0000
1000
0000
,
0002
0000
2003
0000
3020
0000
0230
0302
,
1003
0001
0100
1000
,
0001
0010
0100
0010
,
0100
1000
0001
0010
,
0100
1000
0100
0010
,
0100
0010
0100
0010
,
0200
0010
0010
0010
,
0320
0000
0130
0000
,
0000
0000
1010
0000
,
0200
0000
0301
0010
,
1000
0010
0002
0000
,
0103
0000
1001
0001
,
0010
0001
0100
0010
,
1000
0100
1000
0100
,
1000
0010
0100
0010
,
1000
0010
0100
0001
,
0100
0001
1000
0100
,
1000
0010
1000
0001
,
0100
0010
1000
0100
,
0010
0100
1000
0001
,
0010
0100
0010
0001
,
0100
0010
0100
0001
,
1000
0010
1000
0010
,
0100
0010
0100
0001
,
0010
0001
0010
0001
,
0100
0020
0000
0130
,
1000
0010
0001
2002
,
0000
3003
0001
0010
,
0001
0010
0100
0010
,
0001
0100
0010
1000
,
0001
1000
0100
0010
,
0100
0010
0001
1000
,
0001
0100
0001
1000
,
0100
0010
0100
0000
,
0001
1000
0000
0110
,
0000
0110
0000
0001
,
1000
0001
0010
1000
,
0001
0100
0010
0100
,
0010
0100
0001
1000
,
0010
1000
0010
0100
,
0001
1000
0100
0010
,
0100
1000
0010
0100
,
0001
0010
0001
1000
,
0001
0010
0100
0100
,
0100
0010
0010
0010
,
0100
0000
0010
0000
0100
0100
1000
0100
,
0010
0001
1000
0010
1000
0010
1000
0100
,
0010
0001
0010
0001
0100
0010
0100
0010
,
1000
0100
1000
0001
0010
0000
0000
0000
,
0100
0000
0010
0000
,
0001
0000
0010
0000
,
0100
0000
1000
0000
,
0001
0010
1000
0000
,
0100
0000
1000
0000
,
0010
0000
0100
0000
,
0010
0000
0100
0000
,
0001
0000
0000
0000
1000
0010
1000
0100
,
1000
0010
0100
0010
1000
0001
0010
0100
,
0010
0001
0100
0001
0100
0000
0000
0000
,
0001
0000
1000
0000
,
0010
0000
0100
0000
,
0001
0000
1000
0000
,
0001
0100
0010
0000
,
0100
0000
1000
0000
,
0001
0000
1000
0000
,
0100
0000
1000
0000
,
0100
0000
0001
0000
1000
0100
0010
0100
,
1000
0100
0010
0001
0010
0001
0010
0100
,
1000
0010
1000
0100
1000
0100
0010
0001
,
0010
0001
0100
0010
1000
0001
0010
0100
,
1000
0001
0100
0010
2002
0000
0000
0000
,
0000
0000
0000
0000
,
0000
0000
0000
0000
,
0000
0000
0000
0000
,
0000
0000
3003
0000
,
0000
0000
0000
0000
0000
1000
0100
0010
,
0100
1000
0001
1000
0001
1000
0010
0100
,
0001
1000
0100
0010
1001
0000
0000
0000
,
0000
0000
0000
0000
1000
0001
0000
2002
,
0000
0000
3003
0110
,
0000
1001
0000
0000
0102
0000
0000
0000
,
0000
0000
0000
1003
,
0100
0001
0020
1030
,
0100
0010
1000
0010
,
0100
0010
0100
0001
,
0100
0001
1000
0001
,
0100
0010
0100
0010
,
1000
0001
0100
0001
,
0010
0001
0100
0010
,
0100
0001
0010
0001
,
0010
0100
0020
0230
,
1300
0010
0100
0001
,
0100
0001
0010
0001
,
1000
0010
1000
0010
,
0100
0010
0100
0001
,
0010
0001
0100
0010
,
0100
0001
1000
0010
,
1000
0001
0000
1000
,
0100
0010
0100
0010
,
0100
1000
0010
1000
,
0010
0100
0001
0010
,
0001
1000
0010
0100
,
0010
0100
0001
0010
,
0001
0100
0010
0100
,
0010
0100
0001
1000
,
0001
0010
0001
1000
,
0010
0200
0310
0001
,
0100
0010
0100
0001
,
0010
0100
0010
0100
,
0010
0001
0100
0001
,
0010
0001
1000
0100
,
0010
0001
1000
0010
,
0100
0001
0010
0100
,
1000
0100
1000
0100
,
0010
0001
0100
0010
,
1000
0100
0010
0001
,
0010
0100
0010
1000
,
0100
1000
0001
0100
,
0010
0100
0001
1000
,
0001
1000
0100
1000
,
0001
0010
0100
0010
,
0001
1000
0001
1000
,
0010
1000
0001
0010
,
0100
0010
0100
1000
,
0001
0010
0100
1000
,
0001
0010
0100
0010
,
0100
1000
0001
1000
,
0100
0010
0100
1000
,
0100
0000
1000
0000
0010
0000
1000
0001
,
0100
1000
0001
0100
0020
0030
0010
0000
,
0100
1000
0001
0010
,
0100
0010
0100
0010
,
0001
1000
0001
0010
,
0001
0000
1000
0000
0010
0000
0000
0220
,
0000
0000
0000
0330
0000
0000
0000
0000
,
0100
0000
0100
0000
,
0002
0000
0000
0000
,
0000
0000
0003
0000
,
1000
0001
1001
0000
;

//--------------- dance-single - ----------------
#NOTES:
     dance-single:
     :
     Hard:
     18:
     0,0,0,0,0:
0000
0000
0000
0000
,
0000
0000
0000
0000
,
0000
0000
0000
0000
,
0000
0000
0000
0000
,
0000
0000
0000
0000
,
0000
0000
0000
0000
,
0000
0000
0000
0000
,
0000
1010
0000
0000
1001
0000
0000
1001
,
0000
0000
0110
0000
0001
1000
0001
1000
,
1000
0001
0010
0100
1000
0001
0010
0100
,
0010
0001
1000
0001
0100
0010
1000
0010
,
1000
0100
0010
0100
0010
0001
0010
0001
,
0100
0010
0100
0010
1000
0100
0010
0001
,
1000
0010
0100
0010
0100
0001
0100
0010
,
0100
0010
0100
1000
0010
1000
0010
1000
,
0100
0000
0000
0000
,
0000
0000
0000
0000
0001
1000
0010
0001
,
0100
0010
0100
0010
1000
0001
1000
0001
,
1000
0100
0010
0001
0010
0100
0010
0001
,
1000
0001
0010
0100
0010
0001
0100
0001
,
1000
0010
1000
0100
0010
0100
0010
0100
,
1000
0010
1000
0010
0100
0010
0100
0001
,
0100
0010
1000
0010
0100
0001
0100
0001
,
0000
2002
0000
3003
2020
0000
3030
0202
,
0000
0303
2002
0000
3003
0100
0001
1000
,
0001
0100
0010
0100
0001
0010
0100
1000
,
0010
1000
0001
0010
0100
1000
0010
0100
,
0001
0010
0100
1000
0001
0010
0100
1000
,
0010
0100
0010
1000
0001
0010
0100
1000
,
0001
1000
0100
1000
0001
0010
0001
0100
,
0010
0100
0001
0100
0010
1000
0100
1000
,
0000
2002
0000
3003
0220
0000
0330
2020
,
0000
3030
2002
3003
0220
0000
0000
0330
,
1001
0000
1000
0010
0100
0000
0001
1000
,
0000
0001
1000
0001
0010
0200
0000
0300
,
0101
0000
1000
0100
0010
0000
0001
0010
,
0000
0100
1000
0100
0010
0001
0010
0000
,
1001
0000
0100
0010
1000
0001
0010
0100
,
0010
0001
0100
0010
0100
0001
0010
0001
,
1000
0010
0100
0001
0100
0010
0100
0001
,
1000
0010
1000
0100
0010
0100
0010
0100
,
0010
0000
0001
0010
0100
0000
1000
0100
,
0000
0010
0001
0010
0100
1000
0010
0100
,
0110
0000
0001
0010
0100
0000
1000
0100
,
0000
0001
0010
0100
1000
0100
0010
0000
,
0100
0010
1000
0100
1000
0001
0010
0100
,
0010
0100
0010
0001
0100
0001
0010
0100
,
0010
0001
1000
0100
1000
0001
1000
0010
,
0100
0010
1000
0010
1000
0001
0100
0010
,
1000
0100
0010
0001
0100
0010
1000
0001
,
0100
0010
0100
0001
0100
0001
0010
0001
,
0010
0100
1000
0100
1000
0001
1000
0001
,
0100
0001
0010
0100
1000
0010
1000
0010
,
0100
0010
1000
0100
1000
0001
0100
0010
,
0100
0010
1000
0010
0010
1000
0001
0100
,
0010
0001
0100
0010
0100
0001
0010
0100
,
1000
0100
1000
0001
0100
0001
0100
0001
,
0010
0100
1000
0010
1000
0100
0010
0001
,
1000
0100
1000
0100
1000
0010
0100
0010
,
1000
0010
0100
0001
1000
0001
0100
0010
,
0100
0010
1000
0001
0100
0010
0100
0001
,
1000
0010
1000
0100
0010
0100
1000
0100
,
1000
0001
0010
0100
0010
0100
1000
0100
,
1000
0010
1000
0001
0010
0001
0010
0100
,
1000
0100
1000
0001
0010
0001
1000
0010
,
0001
0000
0010
0000
0100
0000
0010
0000
0100
0000
1000
0000
,
0100
0000
0000
0000
1000
0000
0010
0000
0000
0000
0100
0000
,
0001
0000
0010
0000
0100
0000
1000
0000
0100
0000
0010
0000
,
0001
0000
0000
0000
0100
0000
1000
0000
0000
0000
0010
0000
,
0100
0000
0010
0000
0001
0000
1000
0000
0100
0000
0010
0000
,
0001
0000
0000
0000
1000
0000
0010
0000
0000
0000
0100
0000
,
0001
0000
0000
0000
1000
0000
0010
0000
0000
0000
0001
0000
,
0100
0000
1000
0000
0100
0000
0010
0000
0100
0000
1000
0000
,
0020
0230
2300
3002
0023
0230
2300
3000
,
0100
0001
0010
0100
0010
0100
1000
0100
,
1000
0010
1000
0001
0010
0001
1000
0001
,
1000
0010
0100
0001
1000
0001
0100
0010
,
0100
0010
0100
0001
0010
0001
0100
0010
,
1001
1001
1001
1001
,
0001
1000
0001
1000
0001
1000
0001
1000
,
0020
0000
0130
1000
,
0100
0010
0001
0010
,
0200
0000
0000
0000
0310
1000
0010
1000
,
0100
1000
0010
1000
0002
0000
0000
0000
,
2003
0000
0000
3000
1000
0001
1000
0010
,
0100
0010
1000
0010
1000
0001
1000
0010
,
0100
0010
1000
0100
0010
0100
0010
0001
,
0010
0001
1000
0010
1000
0100
1000
0010
,
0100
0010
0100
0001
0010
0001
0100
0001
,
0100
0010
0100
0010
1000
0001
0010
0000
,
0000
1010
0000
0000
2002
0000
0000
0000
,
0000
0000
3003
0000
0100
0010
1000
0010
,
0100
0001
0100
0001
0100
0010
1000
0001
,
0100
0001
0100
0010
0100
0010
1000
0001
,
1000
0100
1000
0010
0100
0001
0010
0001
,
0010
0001
1000
0100
0010
0100
1000
0010
,
0100
0001
0010
0001
0100
0001
0100
0010
,
0100
0010
1000
0010
1000
0001
0010
0001
,
0010
0001
0200
0000
0000
0000
0310
0001
,
0010
0001
0010
0100
2000
0000
0002
0000
,
0000
0000
3003
0000
0100
0010
0100
0010
,
0100
0001
1000
0100
1000
0001
0010
0100
,
1000
0001
0100
0010
1000
0010
1000
0100
,
1000
0001
0010
0001
0100
0010
0100
0001
,
0010
0100
0010
0001
0010
0100
1000
0001
,
1000
0001
1000
0010
0100
0001
0010
0001
,
1000
0001
0100
0010
0001
0000
0000
0000
,
0002
2003
0000
3001
,
0000
0110
0000
0001
,
0010
0000
0010
0100
0010
0100
1000
0001
,
0010
0001
1000
0010
0100
0010
0100
0010
,
1000
0001
1000
0100
0010
0001
1000
0001
,
0100
0001
0100
0010
1000
0001
0010
0001
,
0010
0001
0100
0010
0100
0001
1000
0001
,
0010
0100
0010
0100
1000
0001
0100
0010
,
0100
0010
0100
0001
1000
0010
1000
0100
,
0010
0000
1001
1010
,
1001
0110
1001
0110
,
2000
0000
0000
0000
0000
0000
0000
0000
3100
0001
1000
0001
0100
0001
0010
0100
,
0010
0000
0100
0000
1000
0000
0100
0000
0010
0000
0001
0000
1000
0001
1000
0001
0010
0000
0100
0000
1000
0000
0001
0000
0100
0000
0010
0000
0100
0000
0001
0000
,
0100
0010
1000
0001
1000
0010
1000
0010
0100
0001
1000
0100
1000
0100
0010
0001
,
1000
0100
1000
0100
0010
0100
0010
0001
0110
0000
0000
0000
0000
0000
0000
0000
,
1010
0000
1001
0000
,
1010
0000
1001
0000
,
0110
0000
1010
0000
,
0010
0100
0010
0000
,
0101
0000
1010
0000
,
0110
0000
1001
0000
,
1010
0000
1001
0000
,
0010
0000
0000
0000
0100
0000
0000
0000
0100
0010
1000
0010
0100
0001
0100
0001
,
1000
0010
0100
0010
0100
0001
1000
0010
0100
0010
1000
0100
1000
0010
1000
0010
,
0100
0001
1000
0001
0010
0001
1000
0100
0010
0000
0000
0000
0000
0000
0000
0000
,
0101
0000
0110
0000
,
1010
0000
1001
0000
,
0110
0000
1010
0000
,
0001
1000
0001
0000
,
1010
0000
1001
0000
,
0110
0000
1010
0000
,
1001
0000
0011
0000
,
0010
0000
0000
0000
1000
0000
0000
0000
0010
0001
1000
0001
0010
0001
0010
0100
,
1000
0010
0100
0010
0100
0001
1000
0100
0010
0100
0010
0100
1000
0001
0010
0001
,
0100
0010
0100
0001
0100
0001
0010
0100
0010
0100
0010
0001
1000
0100
1000
0001
,
1000
0000
0000
0100
0000
0000
0010
0000
0000
0001
0000
0000
0100
0000
0000
0010
0000
0000
1000
0000
0000
0010
0000
0000
0010
0000
0100
0000
0010
0000
0001
0000
1000
0000
0100
0000
0010
0000
0100
0000
0010
0000
0100
0000
1000
0000
0001
0000
,
0010
0001
0010
0001
1000
0010
0100
0010
1000
0100
0010
0001
0020
0000
0000
0000
0000
0000
0000
0000
0000
0000
0000
0000
,
0000
0000
0000
0000
,
0000
0000
0000
0000
,
0000
0000
0000
0000
,
0000
0000
0130
0000
,
0000
0000
0000
0000
0000
0001
1000
0010
,
1000
0000
0100
0000
1000
0000
0100
0000
1000
0100
0010
0001
0100
1000
0001
0010
0100
0000
0000
0000
1000
0100
0000
0000
0001
0010
0000
0000
1000
0100
0000
0000
,
0001
0010
0000
0000
1000
0100
0000
0000
0001
0010
0100
1000
0001
1000
0010
0100
0020
0000
0000
0000
0000
0000
0000
0000
0000
0000
0000
0000
0000
0000
0000
0000
,
0000
0000
0000
0000
0000
0000
0000
0030
1000
0100
0010
0100
0000
0000
2002
0000
,
0000
0000
0000
0000
0000
3003
1001
0000
,
0000
1010
0000
0000
0010
0100
0001
0100
,
0001
1000
0001
0010
0100
1000
0010
1000
,
0001
1000
0010
0100
0020
0000
0000
0030
,
0010
0001
0010
0100
0010
0100
1000
0010
,
1000
0100
1000
0001
0010
0001
0010
0100
,
0010
0100
1000
0001
0010
0001
0100
0010
,
0100
0010
1000
0010
0100
0001
0100
0010
,
0100
0001
1000
0100
1000
0010
1000
0010
,
0100
0001
0100
0001
0010
0100
0010
0100
,
1000
0100
1000
0001
0100
0010
1000
0001
,
0010
0000
0000
0000
0001
0000
0000
0000
0100
0000
0000
0000
0001
0000
0000
0000
0200
0000
0000
0000
0000
0000
0000
0000
0301
1000
0001
1000
0001
1000
0001
1000
,
0100
0001
0010
0100
0010
0100
0010
0001
,
0100
0001
0010
0001
1000
0100
0010
0001
,
0010
0100
0001
0010
1000
0000
0100
0000
1000
0000
0100
0000
0010
0000
0001
0000
,
1000
0010
0100
0010
1000
0010
0100
0001
,
0100
0010
0100
0010
1000
0010
1000
0100
,
0010
0100
1000
0100
0010
0001
0100
0001
,
1000
0100
0010
0100
0000
0000
1000
0001
,
1000
0000
0010
0100
0010
0000
0001
1000
,
0001
0100
0010
0100
0010
0100
0010
0100
,
1000
0010
0100
0001
0010
0100
1000
0001
,
1000
0100
1000
0010
0100
0010
1000
0010
,
0100
0001
0100
0001
0100
0010
1000
0100
,
0010
0100
1000
0010
0100
0001
0010
0001
,
1000
0100
1000
0001
0100
0010
1000
0010
,
0010
1000
0001
1000
0100
0010
0001
0100
,
0001
0000
1000
0000
0020
0130
2000
3001
0100
0000
0010
0000
1000
0000
0100
0000
,
1000
0010
1000
0010
0100
0010
1000
0100
,
0010
0001
0100
0001
0100
0010
0100
0001
,
0010
0100
0001
1010
0100
0001
0100
0001
,
0010
0100
0010
0100
0010
1000
0001
0010
,
1000
0010
0100
0001
1000
0010
0100
0010
,
0010
0100
0010
1000
0100
0010
1000
0100
,
0010
0001
0100
0010
0100
0001
1000
0100
,
0010
0100
1000
0010
0100
0010
0100
0001
,
1000
0100
0010
0100
0010
0001
1000
0001
,
0010
0100
1001
0000
0000
0000
0100
0000
,
0010
0001
1000
0001
,
0010
0100
1000
0001
,
1000
0001
0100
0010
,
0100
0010
0100
0001
,
0010
0001
0010
0100
,
0010
0001
0100
0001
,
1000
0001
0010
0100
,
0010
0100
0010
0001
,
1000
0010
0100
0010
,
1000
0010
1000
0001
,
0010
0100
1000
0010
,
1000
0000
0000
0000
0100
0000
0000
0000
1000
0000
0000
0000
0100
0010
1000
0100
,
0010
0000
0100
0000
1000
0000
0001
0000
0100
0000
0010
0000
1000
0000
0100
0000
0010
0100
0010
0100
0010
0100
0010
0100
0010
0000
0000
0000
0010
0000
0000
0000
,
0001
1000
0100
1000
,
0001
0100
0010
0100
,
0010
1000
0010
0100
,
0001
0000
0000
0000
0010
0000
0000
0000
0100
0000
0001
0000
0000
0220
0000
0000
,
0000
0000
0330
0000
,
0100
0000
0100
0000
,
0002
0000
0000
0000
,
0000
0000
0003
0000
,
1000
0001
1001
0000
;

//--------------- dance-single - ----------------
#NOTES:
     dance-single:
     :
     Challenge:
     19:
     0,0,0,0,0:
0000
0000
0000
0000
,
0000
0000
0000
0000
,
0000
0000
0000
0000
,
0000
0000
0000
0000
,
0000
0000
0000
0000
,
0000
0000
0000
0000
,
0000
0000
0000
0000
,
0000
0101
0000
0000
1001
0000
0000
1001
,
0000
0000
0110
0000
1000
0001
1000
0001
,
0001
1000
0100
0010
0001
1000
0100
0010
,
0100
1000
0001
1000
0010
0100
0001
0100
,
0001
0010
0100
0010
0100
1000
0100
1000
,
0010
0100
0010
0100
0001
0010
0100
1000
,
0001
0100
0010
0100
0010
1000
0010
0100
,
0100
0010
0001
0010
0100
0010
0100
1000
0001
0010
0100
0010
0100
0010
0001
1000
,
0010
0000
0000
0000
,
0000
0000
0000
0000
0000
0000
0000
0000
0000
0000
0000
0000
0000
0000
0000
0000
0100
0000
0010
0000
0001
0000
0010
0000
0001
0100
1000
0001
0010
1000
0100
0001
,
0010
0100
0010
0100
0001
1000
0001
1000
,
0001
0010
0100
1000
0100
0010
0100
1000
,
0001
1000
0100
0010
0100
1000
0010
1000
,
0001
0100
0001
0010
0100
0010
0100
0010
,
0001
0100
0001
0100
0010
0100
0010
1000
,
0010
0100
0001
0100
0010
1000
0010
1000
,
0000
2002
0000
3003
0202
0000
0303
2020
,
0000
3030
2002
0000
3003
0010
1000
0001
,
1000
0010
0100
0010
1000
0100
0010
0001
,
0100
0001
1000
0100
0010
0001
0100
0010
,
1000
0100
0010
0001
1000
0100
0010
0001
,
0100
0010
0100
0001
1000
0100
0010
0001
,
1000
0000
0001
0000
0010
1000
0100
0010
0100
0010
0001
1000
0010
1000
0010
1000
,
0100
0010
0001
0100
0010
1000
0100
0010
0100
0010
0100
1000
0010
0100
0001
0000
,
0000
2002
0000
3003
0220
0000
0330
0202
,
0000
0303
2002
3003
0220
0000
0000
0330
,
1001
0000
0001
0100
0010
0000
1000
0001
,
0000
1000
0001
1000
0100
0020
0000
0030
,
1010
0000
0001
0010
0100
0000
1000
0100
,
0000
0010
0001
0010
0100
1000
0100
0000
,
1001
0000
0010
0100
0001
1000
0100
0010
,
0100
1000
0010
0100
0010
1000
0100
1000
,
0001
0100
0010
1000
0010
0100
0010
1000
,
0001
0100
0001
0010
0100
0010
0100
0010
,
0100
0000
1000
0100
0010
0000
0001
0010
,
0000
0100
1000
0100
0010
0001
0100
0010
,
0110
0000
1000
0100
0010
0000
0001
0010
,
0000
1000
0100
0010
0001
0010
0100
0000
,
0010
0100
0001
0010
0001
1000
0100
0010
,
0100
0010
0100
1000
0010
1000
0100
0010
,
0100
1000
0001
0010
0001
1000
0001
0100
,
0010
0100
0001
0100
0001
1000
0010
0100
,
0001
0010
0100
1000
0010
0100
0001
1000
,
0010
0100
0010
1000
0010
1000
0100
1000
,
0100
0010
0001
0010
0001
1000
0001
1000
,
0010
1000
0100
0010
0001
0100
0001
0100
,
0010
0100
0001
0010
0001
1000
0010
0100
,
0010
0000
0100
0000
0001
0000
0100
0000
0001
0000
0010
0100
0001
1000
0010
0001
,
0100
1000
0010
0100
0010
1000
0100
0010
,
0001
0010
0001
1000
0010
1000
0010
1000
,
0100
0010
0001
0100
0001
0010
0100
1000
,
0001
0010
0001
0010
0001
0100
0010
0100
,
0001
0100
0010
1000
0001
1000
0010
0100
,
0010
0100
0001
1000
0010
0100
0010
1000
,
0001
0100
0001
0010
0100
0010
0001
0010
,
0001
1000
0100
0010
0100
0010
0001
0010
,
0001
0100
0001
1000
0100
1000
0100
0010
,
0001
0010
0001
1000
0100
1000
0001
0100
,
0002
0023
0032
0203
,
0320
0230
0302
0023
,
0032
2003
3020
0230
,
0302
0023
0230
2300
,
3020
2030
3020
0230
,
0302
0203
0320
2030
,
3200
0320
0032
2003
,
3020
2030
3200
2300
,
3200
0320
0032
2003
3200
0320
0032
0003
,
0010
1000
0100
0010
0100
0010
0001
0010
,
0001
0100
0001
1000
0100
1000
0001
1000
,
0001
0100
0010
1000
0001
1000
0010
0100
,
0010
0100
0010
1000
0100
1000
0010
0100
,
1001
1001
1001
1001
,
1000
0001
1000
0001
1000
0001
1000
0001
,
0200
0000
0310
0001
,
0010
0100
1000
0100
,
0010
0100
0010
0100
0010
0100
0010
0100
0010
0000
0001
0000
0100
0000
0001
0000
,
0010
0001
0100
0001
2000
0000
0000
0000
,
3002
0000
0000
0003
0001
1000
0001
0100
,
0010
0100
0001
0100
0001
1000
0001
0100
,
0010
0100
0001
0010
0100
0010
0100
1000
,
0100
1000
0001
0100
0001
0010
0001
0100
,
0010
0100
0010
1000
0100
1000
0010
1000
,
0010
0100
0010
0100
0001
1000
0100
0000
,
0000
0101
0000
0000
2002
0000
0000
0000
,
0000
0000
3003
0000
0010
0100
0001
0100
,
0010
1000
0010
1000
0010
0100
0001
1000
,
0010
1000
0010
0100
0010
0100
0001
1000
,
0001
0010
0001
0100
0010
1000
0100
1000
,
0100
1000
0001
0010
0100
0010
0001
0100
,
0010
1000
0100
1000
0010
1000
0010
0100
,
0010
0100
0001
0100
0001
1000
0100
1000
,
0100
0000
1000
0000
0100
0010
0100
0010
0100
0010
0100
0010
0100
0000
1000
0000
,
0100
1000
0100
0010
0002
0000
2000
0000
,
0000
0000
3003
0000
0010
0100
0010
0100
,
0010
1000
0001
0010
0001
1000
0100
0010
,
0001
1000
0010
0100
0001
0100
0001
0010
,
0001
1000
0100
1000
0010
0100
0010
1000
,
0100
0010
0100
1000
0100
0010
0001
1000
,
0001
1000
0001
0100
0010
1000
0100
1000
,
0001
1000
0010
0100
1000
0000
0000
0000
,
2000
3002
0000
1003
,
0000
0110
0000
1000
,
0100
0000
0100
0010
0100
0010
0001
1000
,
0100
1000
0001
0100
0010
0100
0010
0100
,
0001
1000
0001
0010
0100
1000
0001
1000
,
0010
1000
0010
0100
0001
1000
0100
1000
,
0100
1000
0010
0100
0010
1000
0001
1000
,
0100
0010
0100
0010
0001
1000
0010
0100
,
0010
0100
0010
1000
0001
0100
0001
0010
,
0100
0000
1001
0101
,
1001
0110
1001
0110
,
1000
0001
1000
0001
1000
0001
1000
0001
0010
1000
0001
1000
0010
1000
0100
0010
,
0100
0000
0010
0000
0001
0000
0010
0000
0100
0000
1000
0000
0001
1000
0001
1000
0100
0000
0010
0000
0001
0000
1000
0000
0010
0000
0100
0000
0010
0000
1000
0000
,
0010
0100
0001
1000
0001
0100
0001
0100
0010
1000
0001
0010
0001
0010
0100
1000
,
0001
0010
0001
0010
0100
0010
0100
1000
0110
0000
0000
0000
0000
0000
0000
0000
,
0101
0000
1001
0000
,
0101
0000
1001
0000
,
0110
0000
0101
0000
,
0100
0010
0100
0000
,
1010
0000
0101
0000
,
0110
0000
1001
0000
,
0101
0000
1001
0000
,
0100
0000
0000
0000
0010
0000
0000
0000
0010
0100
0001
0100
0010
1000
0010
1000
,
0001
0100
0010
0100
0010
1000
0001
0100
0010
0100
0001
0010
0001
0100
0001
0100
,
0010
1000
0001
1000
0100
1000
0001
0010
0100
0000
0000
0000
0000
0000
0000
0000
,
1010
0000
0110
0000
,
0101
0000
1001
0000
,
0110
0000
0101
0000
,
1000
0001
1000
0000
,
0101
0000
1001
0000
,
0110
0000
0101
0000
,
1001
0000
1100
0000
,
0100
0000
0000
0000
0001
0000
0000
0000
0100
1000
0001
1000
0100
1000
0100
0010
,
0001
0100
0010
0100
0010
1000
0001
0010
0100
0010
0100
0010
0001
1000
0100
1000
,
0010
0100
0010
1000
0010
1000
0100
0010
0100
0010
0100
1000
0001
0010
0001
1000
,
0001
0000
0000
0010
0000
0000
0100
0000
0000
1000
0000
0000
0010
0000
0000
0100
0000
0000
0001
0000
0000
0100
0000
0000
0100
0000
0010
0000
0100
0000
1000
0000
0001
0000
0010
0000
0100
0000
0010
0000
0100
0000
0010
0000
0001
0000
1000
0000
,
0100
1000
0100
1000
0001
0100
0010
0100
0001
0010
0100
1000
0200
0000
0000
0000
0000
0000
0000
0000
0000
0000
0000
0000
,
0000
0000
0000
0000
,
0000
0000
0000
0000
,
0000
0000
0000
0000
,
0000
0000
0310
0000
,
0000
0000
0000
0000
0000
1000
0001
0100
,
0001
0000
0010
0000
0001
0000
0010
0000
0001
0010
0100
1000
0010
0001
1000
0100
0010
0000
0000
0000
0001
0010
0000
0000
1000
0100
0000
0000
0001
0010
0000
0000
,
1000
0100
0000
0000
0001
0010
0000
0000
1000
0100
0010
0001
1000
0001
0100
0010
0200
0000
0000
0000
0000
0000
0000
0000
0000
0000
0000
0000
0000
0000
0000
0000
,
0000
0000
0000
0000
0000
0000
0000
0300
0001
0010
0100
0010
0000
0000
2002
0000
,
0000
0000
0000
0000
0000
3003
1001
0000
,
0000
0000
0101
0000
0000
0000
0000
0000
0010
1000
0001
0010
0001
0010
0001
0100
,
0010
1000
0100
0010
0100
1000
0001
1000
0100
1000
0001
0100
0010
0100
0010
1000
,
0010
1000
0100
1000
0001
0100
0010
1000
0200
0000
0000
0000
0000
0000
0300
0000
,
0100
1000
0100
0010
0100
0010
0001
0100
,
0001
0010
0001
1000
0100
1000
0100
0010
,
0100
0010
0001
1000
0100
1000
0010
0100
,
0010
0100
0001
0100
0010
1000
0010
0100
,
0010
1000
0001
0010
0001
0100
0001
0100
,
0010
1000
0010
1000
0100
0010
0100
0010
,
0001
0010
0001
1000
0010
0100
0001
1000
,
0100
0000
0000
0000
1000
0000
0000
0000
0010
0000
0000
0000
1000
0000
0000
0000
0020
0000
0000
0000
0000
0000
0000
0000
1030
0001
1000
0001
1000
0001
1000
0001
,
0010
1000
0100
0010
0100
0010
0100
1000
,
0010
1000
0100
1000
0001
0010
0100
1000
,
0100
0010
1000
0100
0001
0000
0010
0000
0001
0000
0010
0000
0100
0000
1000
0000
,
0001
0100
0010
0100
0001
0100
0010
1000
,
0010
0100
0010
0100
0001
0100
0001
0010
,
0100
0010
0001
0010
0100
1000
0010
1000
,
0001
0000
0010
0000
0100
0000
0010
0000
0000
0000
0000
0000
0001
1000
0001
1000
,
0001
0000
0000
0000
0100
0010
0100
0010
0100
0000
0000
0000
1000
0001
1000
0001
,
1000
0100
0010
0100
0010
0100
0010
0100
0010
0100
0010
0100
0010
0100
0010
0100
,
0010
0100
0010
1000
0100
0010
0001
1000
,
0001
0000
0010
0000
0001
0000
0100
0000
0010
0001
0100
0010
0001
1000
0100
0001
,
0010
1000
0010
1000
0010
0100
0001
0010
,
0100
0010
0001
0100
0010
1000
0100
1000
,
0001
0010
0001
1000
0010
0100
0001
0100
,
0010
1000
0001
1000
0100
0010
0100
0010
0100
1000
0010
0100
0010
1000
0001
1000
,
0001
0100
0001
1000
0200
0310
0002
1003
0010
0000
0100
0000
0001
0000
0010
0000
,
0001
0100
0001
0100
0010
0100
0001
0010
,
0100
1000
0010
1000
0010
0100
0010
1000
,
0001
0100
0010
1000
0001
0010
0100
0001
0010
0000
1000
0000
0010
0000
1000
0000
,
0001
0000
0100
0000
0001
0100
1000
0001
0010
0100
1000
0010
0001
0000
0100
0000
,
0001
0100
0010
1000
0001
0100
0010
0100
,
0010
0000
1000
0000
0010
0100
1000
0001
0100
0010
1000
0100
0001
0000
0010
0000
,
0100
1000
0010
0100
0010
1000
0001
0010
,
0100
0000
0010
0000
0001
0100
1000
0100
0010
0001
1000
0100
0001
0000
1000
0000
,
0001
0010
0100
0010
0100
1000
0001
1000
,
0100
0010
1001
0000
0000
0000
0001
0010
,
0100
1000
0100
1000
0100
0010
0001
0100
,
0001
0100
0010
0100
0010
1000
0010
0100
,
0001
0010
0001
0100
0010
1000
0010
1000
,
0001
1000
0001
0100
0010
0100
0010
1000
,
0100
0010
0100
0010
0100
1000
0001
0010
,
0100
1000
0010
0100
0001
0010
0001
1000
,
0001
0010
0100
1000
0100
0010
0100
0010
,
0001
1000
0100
1000
0001
0100
0010
1000
,
0010
1000
0100
0010
0100
1000
0010
1000
,
0010
1000
0100
0010
0001
0100
0010
1000
,
0010
0100
0001
0100
0001
1000
0100
0010
,
0001
0000
1000
0000
0001
0000
0100
0000
0010
0000
0100
0000
0010
0100
0001
0010
,
0100
0000
0010
0000
0001
0000
1000
0000
0010
0000
0100
0000
0001
0000
0010
0000
0100
0010
0100
0010
0100
0010
0100
0010
0100
0000
0000
0000
0100
0000
0000
0000
,
0010
0000
1000
0000
0001
0000
0100
0000
0001
1000
0010
0100
0001
1000
0010
0000
,
0100
0000
0010
0000
0001
0000
1000
0000
0010
0100
1000
0001
0100
1000
0010
0001
,
0100
0000
0010
0000
0001
0000
0100
0000
0010
1000
0100
0010
0001
0100
1000
0001
,
0010
0000
1000
0000
0001
0000
0100
0000
0001
0000
1000
0000
0000
0220
0000
0000
,
0000
0000
0330
0000
,
0100
0000
0100
0000
,
0002
0000
0000
0000
,
0000
0000
0003
0000
,
0001
1000
1001
0000
;
