#TITLE:siren's eye;
#ARTIST:かたぎり + Frums;
#ARTISTTRANSLIT:Katagiri + Frums;
#GENRE:ナムコオリジナル;
#MUSIC:siren's eye.ogg;
#BANNER:siren's eye.png;
#BACKGROUND:siren's eye-bg.png;
#CDTITLE:./CDTitles/NSD WORLD.png;
#SAMPLESTART:72.435;
#SAMPLELENGTH:15.000;
#SELECTABLE:YES;
#OFFSET:0.000;
#BPMS:0.000=270.000
,306.000=67.500
,310.000=135.000
,332.000=270.000
,542.000=67.500
,549.000=135.000
,550.000=270.000
,560.000=67.500
;
#STOPS:;
#BGCHANGES:;
#FGCHANGES:;

//--------------- dance-single - ----------------
#NOTES:
     dance-single:
     :
     Beginner:
     5:
     0,0,0,0,0:
0000
0000
0000
0000
,
0000
0000
0001
0000
,
0000
0000
0000
0000
,
0000
0000
0000
0000
,
0000
0000
0000
0000
,
0000
0000
0000
0000
,
0000
0000
0000
0000
,
0000
0000
0000
0000
,
0000
0000
0000
0000
,
0000
0000
0000
0000
,
0000
0000
0000
0000
,
0000
0000
0220
0000
,
0000
0000
0000
0000
,
0000
0000
0330
0000
,
1000
0000
0000
0001
0000
0000
1000
0000
,
0000
0000
0000
0000
0010
0000
0000
0100
,
0000
0010
0000
0000
,
0001
0000
0000
0000
0100
0000
0000
1000
,
0000
0000
0000
0000
,
0010
0000
1000
0000
,
0010
0000
0100
0000
,
0000
0000
0000
0000
,
0010
0000
0000
0100
0000
0000
1000
0000
,
0000
0000
0000
0000
0000
0100
0000
0000
,
0000
0000
0000
0000
,
0000
0000
0001
0000
0000
1000
0000
0000
,
0000
0000
0010
0000
0000
0100
0000
0000
,
0000
0000
1000
0000
0000
0001
0000
0000
,
0000
0000
0010
0000
0000
1000
0000
0000
,
0000
0000
0000
0000
,
0000
0000
0010
0000
,
0100
0000
0000
0001
0000
0000
0000
0000
,
0000
0000
0000
0000
,
0000
0000
0000
0000
,
0001
0000
1000
0000
,
0001
0000
0100
0000
,
0010
0000
0000
0000
,
0000
0010
0000
0100
,
0000
0000
0000
0000
,
1000
0000
0000
0001
,
0000
0000
0100
0000
,
0000
0000
0010
0000
0000
0100
0000
0000
,
0010
0000
0000
0000
,
1000
0000
0000
0000
,
0001
0000
0100
0000
,
0000
0010
0000
0000
0000
0000
0100
0000
,
0000
0000
0000
0000
,
0000
0010
0000
0000
0000
0100
0000
0000
,
0000
1000
0000
0000
0000
0000
0000
0000
,
0001
0000
0100
0000
,
0010
0000
1000
0000
,
0002
0000
0000
0000
,
0003
0000
0000
0000
,
0000
0000
0000
0000
,
0000
0000
0000
0000
,
0000
0000
0000
0000
,
0100
0000
0101
0000
,
0100
0000
0000
0010
0000
0000
0000
0000
,
0000
0000
1000
0000
,
0000
0000
0010
0000
,
0100
0000
0000
0000
,
0000
0000
0001
0000
,
0100
0000
0000
0010
0000
0000
0000
0000
,
0000
0000
1000
0000
,
0000
0000
0010
0000
,
0100
0000
0000
0010
,
0000
0000
0001
0000
,
1000
0000
0000
0010
0000
0000
0000
0000
,
0000
0000
0001
0000
,
0000
0000
0100
0000
,
0010
0000
0000
0000
,
0000
0000
1000
0000
,
0010
0000
0000
0100
0000
0000
0000
0000
,
0000
0000
0001
0000
,
0000
0000
0000
1000
,
0000
0100
0000
0000
0010
0000
0000
0001
,
0000
0000
2002
0000
,
0000
0000
3003
0000
,
0010
0000
0000
0000
0000
1000
0000
0000
,
0000
0000
0010
0000
0000
0000
0000
0100
,
0000
0000
0001
0000
,
0000
1000
0000
0000
0000
0000
0001
0000
,
0000
0000
0000
0000
0000
0000
0100
0000
0000
0000
0000
0010
0000
0000
0000
0000
,
0100
0000
0000
0000
,
0000
1000
0000
0000
,
0000
0000
0001
0000
,
0000
0100
0000
0000
0000
0000
1000
0000
,
0000
0000
0000
0001
0000
0000
0000
0000
,
2000
0000
0000
0000
,
0000
3001
0000
0000
,
0000
0000
0000
0000
,
0000
0000
0000
0010
0000
0000
0000
0000
,
0000
0000
2002
0000
,
0000
0000
0000
0000
,
0000
0000
0000
0000
,
3003
0000
0010
1000
,
0001
0100
0010
0000
,
0000
1000
0000
0000
,
0100
0010
0001
0100
,
1000
0000
0000
0000
,
0010
0000
1000
0001
,
0100
0000
0001
0000
,
1000
0000
0001
0000
,
0100
0010
0001
0000
,
0000
0000
0000
0100
0000
0000
0000
0000
,
0000
0000
1000
0001
,
0100
0010
0100
0000
,
0000
0000
0000
0000
0000
0001
0000
0000
,
0100
0010
0100
0010
,
0100
0000
0000
0000
,
1000
0000
0001
1000
,
0100
0000
0100
0000
,
0001
0000
1000
0000
,
0010
0100
0001
0000
,
0000
0000
0000
1000
0000
0000
0000
0001
,
0000
0000
1000
0001
,
0100
0000
0001
0000
0000
1000
0000
0000
,
0000
0001
0000
0000
0000
0000
0000
0000
1000
0000
0000
0000
0000
0000
0000
0000
,
0010
0100
1000
0001
,
0000
0000
0000
1000
0000
0000
0000
0000
0000
0000
0001
0000
0000
0000
0000
0000
,
1000
0000
0001
0100
,
0010
0000
0000
0000
1000
0000
0000
0000
0000
0000
0000
0001
0000
0000
0000
0000
,
0000
1000
0000
0000
0000
0000
0000
0000
0010
0000
0000
0000
0000
0000
0000
0000
,
0100
0010
1000
0001
,
0000
0000
0000
0100
0000
0000
0000
0000
0000
0001
0000
0000
0000
0000
0000
0000
,
1000
0000
0000
0000
0000
0000
0000
0000
0010
0000
0000
0000
0000
0000
0000
1000
,
0000
0000
0000
0000
0000
0000
0001
0000
0000
1000
0000
0000
0001
0000
0000
0000
,
0000
0000
0000
0010
0000
0000
0000
0000
0000
1000
0000
0000
0000
0000
0000
0000
,
0001
0000
0000
0000
0000
0000
0000
0100
0000
0000
0000
0000
0000
0010
0000
0000
,
0000
1000
0000
0000
0001
0000
0000
0000
0000
0000
0000
0100
0000
0000
0000
0000
,
0000
0000
0010
0000
0000
0000
0000
0000
1000
0000
0000
0000
0000
0000
0000
0001
,
0000
0000
0000
0000
0000
1000
0000
0000
0000
0001
0000
0000
0100
0000
0000
0000
,
0000
0000
0010
0000
0000
0000
0000
0000
0000
1000
0000
0000
0000
0000
0000
0000
,
0001
0000
0000
0100
0000
0000
0001
0000
,
1000
0000
0001
0000
0000
1000
0000
0000
,
0010
0100
0010
0000
,
0000
0010
0000
0000
0000
0000
0100
0000
,
0000
0000
0220
0000
,
0000
0000
0000
0000
,
0000
0000
0000
0000
,
0330
0000
0000
0000
;

//--------------- dance-single - ----------------
#NOTES:
     dance-single:
     :
     Easy:
     7:
     0,0,0,0,0:
0000
0000
0000
0000
,
0000
0000
0000
0000
,
0000
0000
0000
0000
,
0000
0000
0000
0000
,
0000
0000
0000
0000
,
0000
0000
0000
0000
,
0000
0000
0000
0000
,
0000
0000
0000
0000
,
0000
0000
0000
0000
,
0000
0000
0000
0000
,
0000
0000
0000
0000
,
0000
0000
0220
0000
,
0000
0000
0000
0000
,
0000
0000
0330
0000
,
1000
0000
0000
0001
0000
0000
1000
0000
,
0000
0001
0000
0000
0010
0000
0000
0100
,
0000
0010
0000
0000
,
0001
0000
0010
0000
0100
0000
0000
1000
,
0000
0000
0000
0000
,
0010
0000
1000
0000
,
0010
0000
0100
0000
,
0000
0000
0000
0000
,
0010
0000
0000
0100
0000
0000
1000
0000
,
0010
0100
0000
1000
,
0000
0000
0000
0000
,
0000
0000
1000
0000
0000
0001
0000
0000
,
0000
0000
0010
0000
0000
0100
0000
0000
,
0000
0000
1000
0000
0000
0001
0000
0000
,
0000
0000
1000
0000
0000
0001
0000
0000
,
0000
0000
0000
0000
,
0000
0000
0010
0000
,
1000
0000
0000
0001
0000
0000
0000
0000
,
0000
0000
0000
0000
,
0000
0000
0000
0000
,
1000
0000
0010
0000
,
0100
0000
0001
0000
,
1000
0000
0000
0001
0000
0000
1000
0000
,
0000
0010
0000
0100
,
0000
0000
0000
0000
,
0001
0000
1000
0001
,
0000
0100
0010
0000
,
0000
0000
0001
0000
0000
0010
0000
0000
,
0100
0000
0010
0000
,
0100
0000
0010
0000
,
0001
0000
0100
0000
,
0000
0010
0000
0000
0000
0000
0100
0000
,
0000
0000
0001
0000
,
0000
0100
0000
0000
0000
0000
0000
0000
,
1000
0000
0001
0000
,
1000
0000
0010
0100
,
0010
0100
0010
0000
,
2002
0000
0000
0000
,
0000
0000
0000
0000
,
0000
0000
0000
0000
,
3003
0000
0000
0000
,
0000
0000
0000
0000
,
0010
0000
1001
0000
,
0100
0000
0000
0010
0000
0000
0000
0000
,
1000
0001
1000
0000
,
0000
0010
0100
0010
,
0100
0010
1000
0000
,
0000
0000
0001
0000
,
0010
0000
0000
0100
0000
0000
0000
0000
,
0000
0000
1000
0000
,
0000
0100
0001
0100
,
0001
0100
0000
0010
,
0000
0100
0000
0000
1000
0000
0000
0000
,
0010
0000
0000
0100
0000
0000
0000
0000
,
0100
0001
1000
0000
,
0000
0100
0010
0010
,
0001
0100
1000
0000
,
0010
0000
1000
0100
,
0001
0000
0000
0100
0000
0000
0000
0000
,
0000
0000
0101
0000
,
0000
1000
0100
1000
,
0000
0100
0000
0000
0010
0000
0000
0100
,
0000
0000
2002
0000
,
0000
0000
0000
3003
,
1002
0000
0000
0000
0000
0203
0000
0000
,
0000
0000
2300
0000
0000
0000
0000
3001
,
0000
0000
2010
0000
,
0000
3020
0000
0000
0000
0000
0032
0000
,
0000
0000
0000
0000
0000
0000
1003
0000
0100
0000
0000
0001
0000
0000
0000
0000
,
1001
0000
0000
0000
,
0000
0000
0010
0000
0000
0100
0000
0000
,
0000
0000
1001
0000
,
0000
0101
0000
0000
0000
0000
0110
0000
,
0000
0000
0000
0010
0000
0000
0000
0000
,
1001
0000
0000
0000
,
0000
0011
0000
0000
,
0000
0000
0000
0000
,
0000
0000
0000
0020
0000
0000
0000
0000
,
0000
0000
0030
2002
,
0000
0000
0000
0000
,
0000
0000
0000
0000
,
3003
0000
0000
0000
1000
0100
0001
0000
,
1000
0000
0001
0000
0100
0000
0000
1000
,
0000
0000
0010
0000
0000
0100
0000
0000
,
0010
0100
0010
0000
0100
0000
0010
0000
,
1000
0000
0000
0000
0000
0001
0000
0000
,
0100
0000
0000
0000
1000
0001
1000
0000
,
0010
0000
0100
0010
,
0100
0010
0001
0000
,
0010
0100
0010
0000
0100
0000
0000
0000
,
0001
0000
0000
0100
0000
0000
1000
0000
,
0000
0010
0000
0000
1000
0001
1000
0000
,
0001
0000
0100
0000
0010
0000
0000
1000
,
0000
0000
0001
0000
0000
0100
0000
0000
,
0010
0100
0010
0000
0100
0000
1000
0000
,
0002
0000
0000
0000
0000
1003
0000
0000
,
0100
0000
0000
0000
0001
0100
0001
0000
,
0010
0000
0100
0010
,
0100
0010
0001
0000
,
0100
0001
0100
0000
0010
0000
0000
1000
,
0000
0001
0000
1000
0000
0000
0000
0010
,
0000
1000
0000
0000
0001
1000
0001
0000
,
0100
0000
0000
0000
0010
0000
0000
0000
0000
0000
0000
1000
0000
0000
0000
0001
,
0000
0000
1000
0000
0000
0001
0000
0000
0100
0000
0000
0000
0000
0000
0000
0000
,
0010
0100
0010
0000
0100
0000
0010
0000
,
0000
0000
0000
0001
0000
0000
1000
0000
0000
0001
0000
0000
0000
1000
0000
0000
,
0001
0000
0000
0000
0100
0010
0100
0000
,
1000
0000
0000
0000
0010
0000
0000
0000
0000
0000
0000
1000
0000
0000
0001
0000
,
0000
1000
0000
0000
0000
0001
0000
0000
0100
0000
0000
0000
0000
0000
0000
0000
,
0010
0100
1000
0000
0010
0000
0100
0000
,
0000
0000
0000
1000
0000
0000
0001
0000
0000
0000
0100
0000
0000
0010
0000
0000
,
1000
0000
0000
0000
0000
0000
0000
0000
0010
0000
0000
0000
0000
0000
0000
1000
,
0000
0000
0001
0000
0000
0000
1000
0000
0000
0100
0000
0000
0010
0000
0000
0000
,
0000
1000
0000
0001
0000
0100
0000
0000
,
0001
0000
0000
0000
0000
0000
0000
1000
0000
0000
0001
0000
0000
0100
0000
0000
,
0000
0010
0000
0000
1000
0000
0000
0000
0000
0000
0000
0001
0000
0000
0100
0000
,
0000
0000
0001
0000
0000
0100
0000
0000
0010
0000
0000
0000
0000
0000
0000
1000
,
0000
0000
0001
0000
0000
1000
0000
0000
0000
0010
0000
0000
0100
0000
0000
0000
,
0000
0000
0000
0001
0000
0000
0100
0000
0000
1000
0000
0000
0000
0000
0000
0000
,
0010
0000
0000
0010
1000
0000
0010
0000
,
0100
0000
0010
0000
0000
0001
0000
0000
,
1000
0001
0000
0000
0120
0000
0000
0000
,
0000
0100
0000
0000
0000
0000
0001
0000
,
0000
0030
2002
0000
,
0000
0000
0000
0000
,
0000
0000
0000
0000
,
3003
0000
0000
0000
;

//--------------- dance-single - ----------------
#NOTES:
     dance-single:
     :
     Medium:
     10:
     0,0,0,0,0:
0000
0000
0000
0000
,
0000
0000
0000
0000
,
0000
0000
0000
0000
,
0000
0000
0000
0000
,
0000
0000
0000
0000
,
0000
0000
0000
0000
,
0000
0000
0000
0000
,
0000
0000
0000
0000
,
0000
0000
0000
0000
,
0000
0000
0000
0000
,
0000
0000
0000
0000
,
0000
0000
0220
0000
,
0000
0000
0000
0000
,
0000
0000
0330
0000
,
1000
0000
0000
0001
0000
0000
1000
0000
,
0000
0100
0000
0000
0010
0000
0000
0001
,
0000
0000
0000
0000
1000
0000
0000
0010
0000
0000
1000
0000
0000
0000
0000
0000
,
0001
0000
0000
1000
0000
0100
0000
0001
,
0000
0000
1000
0010
0000
0001
0100
0000
,
0010
0000
0000
0001
0000
0000
1000
0000
,
0000
0010
0000
0000
0100
0010
0000
0100
,
0010
0000
0000
0000
0001
0000
0000
1000
0000
0000
0001
0000
0000
0000
0000
0000
,
1000
0000
0000
0010
0000
0100
0000
0001
,
0000
0000
1000
0100
0000
0001
0010
0000
,
1000
0000
0000
0001
0000
0000
0100
0000
,
0000
0010
0000
0000
0001
0010
0000
0100
,
0000
0000
0000
0000
0010
0000
0000
1000
0000
0000
0001
0000
0000
0000
0000
0000
,
1000
0000
0000
0010
0000
0100
0000
0010
,
0000
0000
0100
0010
0000
0100
0010
0000
,
1000
0000
0000
0001
0000
0000
0100
0000
,
0000
0010
0000
0000
1000
0001
0000
0100
,
0000
0000
0000
0000
0010
0000
0000
1000
0000
0000
0001
0000
0000
0000
0000
0000
,
1000
0000
0000
0001
0000
0010
0000
0200
,
0000
0000
0000
0000
,
0301
0000
0000
0010
0000
0000
0100
0000
,
0000
1000
0100
0000
0001
0010
0000
1000
,
0000
0000
0000
0000
0010
0000
0000
1000
0000
0000
0001
0000
0000
0000
0000
0000
,
1000
0000
0000
0100
0000
0010
0000
0001
,
0000
0000
1000
0001
0000
0001
1000
0000
,
0100
0000
0000
0010
0000
0000
0001
0000
,
0000
1000
0000
0000
0001
1000
0000
0010
,
0000
0000
0000
0000
0100
0000
0000
0001
0000
0000
1000
0000
0000
0000
0000
0000
,
1000
0000
0000
0001
0000
0100
0000
1000
,
0000
0000
0010
0100
0000
0010
0100
0000
,
0010
0000
0000
1000
0000
0000
0010
0000
,
0000
0100
0000
0000
0010
0001
0000
0010
,
0000
0000
0000
0000
0100
0000
0000
1000
0000
0000
0001
0000
0000
0000
0000
0000
,
0001
0000
0000
1000
0000
0001
0000
0100
,
0000
0000
0010
0100
0000
0010
0100
0000
,
1000
0000
0000
0001
0000
0000
0100
0000
,
0000
0010
0000
0000
1000
0100
0000
0001
,
0000
0000
0000
0000
0010
0000
0000
1000
0000
0000
0001
0000
0000
0000
0000
0000
,
1000
0000
0000
0001
0000
0100
0000
0010
,
0000
0000
1000
0100
0000
0001
0010
0000
,
0200
0000
0000
0000
,
0000
0000
0000
0000
,
0300
0000
1000
0100
,
0001
0010
0100
0000
0010
0000
1000
0000
,
0100
0000
0001
0000
1000
0000
0001
0010
,
1000
0100
0010
0001
,
0100
1000
0010
0000
1000
0000
0001
0010
,
1000
0000
0001
0000
0100
0010
0000
0000
,
0010
0001
0010
0000
0100
0001
1000
0000
,
0002
0000
0000
0000
0103
1000
0000
0100
,
0010
0000
0001
0000
0100
0010
1000
0000
,
0001
0000
0010
1000
0100
0000
1000
0000
,
0010
0000
0100
0010
0001
1000
0010
0000
,
0100
0000
0010
0000
1000
0010
0001
0000
,
0100
0000
0001
0100
1000
0000
0001
0010
,
0100
0000
0001
0000
1000
0001
1000
0000
,
0020
0000
1000
0000
0030
0100
0010
0000
,
1000
0001
0000
0010
0100
0000
0010
0000
,
1000
0010
0000
0001
0100
0000
0010
0000
,
1000
0000
0010
0001
0100
0000
0000
0001
,
1000
0000
0010
0000
0100
0000
0010
1000
,
0100
0000
0001
0000
1000
0000
0001
0010
,
0100
0010
0200
0000
,
0000
0000
0000
0300
,
1002
0000
0000
0000
0000
2003
0000
0000
,
0000
0000
3200
0000
0000
0000
0000
0310
,
0001
0000
0010
0000
0000
1000
0000
0000
2002
0000
0000
0000
0003
0000
0000
0000
,
0000
3100
0010
0100
1000
0001
1000
0000
,
0010
0000
0100
0000
1000
0000
0001
0000
1000
0000
0000
0001
0000
0000
0000
0000
,
1000
0000
0000
0001
0000
0000
0010
0000
,
0000
0000
0100
0000
0000
0010
0000
0100
,
0000
1000
0000
0000
0001
0000
0000
0100
,
0000
0000
0000
0101
,
0000
0000
0000
1001
0000
0000
0000
0000
,
1000
0100
0010
0100
,
1000
0001
0000
0000
,
0000
0000
0000
0000
,
0000
0000
0000
0000
,
0000
0000
1002
0000
,
0000
0000
0103
1000
,
0010
0000
0100
0000
,
0100
0000
0120
0000
,
0000
0000
0031
1000
,
0001
0000
0100
0000
,
0120
0000
0000
0000
,
1030
0100
0010
0000
,
1000
0000
0102
0000
,
0000
0000
1003
0100
,
0010
0000
0001
0000
,
1020
0000
0000
0000
,
0031
0010
0100
0000
,
1000
0000
0201
0000
,
0000
0000
1300
0001
,
0100
0000
0110
0000
,
2000
0000
0000
0000
,
3001
0010
0100
0001
,
0100
0000
1020
0000
,
0000
0000
0000
0000
,
1030
0000
0001
0010
,
2000
0000
0000
0000
,
3010
0001
0010
1000
,
0001
0000
1000
0000
0001
0100
1000
0000
,
0100
0010
0001
0200
,
0000
0000
0000
0000
,
2300
0000
0000
0000
,
3001
0100
0010
0000
0100
0000
1000
0000
,
0010
0000
1002
0000
,
0000
0000
0000
0000
,
1003
0100
0010
0100
,
1002
0000
0000
0000
,
0103
0010
0100
1000
,
0001
0000
1000
0001
,
0100
1000
0100
0010
,
0001
1000
0001
0100
,
0010
0001
1000
0100
,
0010
0100
1000
0010
,
0100
0010
1000
0001
,
0010
0100
0001
0100
,
0010
0100
0001
1000
,
0010
0100
0010
1000
,
0001
1000
0010
0100
,
0001
0010
0200
0000
,
0000
0320
0000
0000
0000
0000
2030
0000
,
0000
3000
2002
0000
,
0000
0000
0000
0000
,
0000
0000
0000
0000
,
3003
0000
0000
0000
;

//--------------- dance-single - ----------------
#NOTES:
     dance-single:
     :
     Hard:
     18:
     0,0,0,0,0:
0000
0000
0000
0000
,
0000
0000
0000
0000
,
0000
0000
0000
0000
,
0000
0000
0000
0000
,
0000
0000
0000
0000
,
0000
0000
0000
0000
,
0000
0000
0000
0000
,
0000
0000
0000
0000
,
0000
0000
0000
0000
,
0000
0000
0000
0000
,
0000
0000
0000
0000
,
0000
0000
2002
0000
,
0000
0000
0000
0000
,
0000
0000
3003
0000
,
0100
0000
0000
1000
0000
0000
0001
0000
,
0000
0001
0000
0000
0010
1000
0000
0001
,
0000
0000
0000
0000
0010
0000
0000
1000
0000
0000
0001
0000
0000
0000
0000
0000
,
0100
0000
0000
0100
0000
0001
0000
0010
,
0000
0000
1000
0001
0000
1000
0010
0000
,
1000
0000
0000
0010
0000
0000
1000
0000
,
0000
0001
0000
0000
0100
0010
0000
1000
,
0000
0000
0000
0000
0100
0000
0000
0001
0000
0000
1000
0000
0000
0000
0000
0000
,
0010
0000
0000
1000
0000
0100
0000
0010
,
0000
0000
0100
0010
0000
0001
0010
0000
,
0100
0000
0000
1000
0000
0000
0001
0000
,
0000
0010
0000
0000
0100
0001
0000
1000
,
0000
0000
0000
0000
0100
0000
0000
0100
0000
0000
0001
0000
0000
0000
0000
0000
,
1000
0000
0000
0001
0000
0100
0000
0010
,
0000
0000
0010
0100
0000
1000
0100
0000
,
0010
0000
0000
1000
0000
0000
0100
0000
,
0000
0010
0000
0000
0010
1000
0000
0001
,
0000
0000
0000
0000
0010
0000
0000
0100
0000
0000
1000
0000
0000
0000
0000
0000
,
0100
0000
0000
0100
0000
1000
0000
0002
,
0000
0000
0000
0000
,
0013
1000
0100
0010
0001
1000
0001
0010
,
0100
1000
0001
0010
0001
1000
0100
1000
,
0010
0000
1000
0000
0001
0000
0000
0010
0000
0000
1000
0000
0001
0000
0100
0000
,
0010
1000
0010
0100
0010
0100
0001
0010
,
0100
0010
0100
1000
0010
1000
0010
1000
,
0001
0100
0001
1000
0100
0010
0001
1000
,
0010
1000
0010
0100
0001
0100
0001
0100
,
0010
0000
1000
0000
0100
0000
0000
0010
0000
0000
1000
0000
0010
0000
0100
0000
,
0001
1000
0100
0010
0100
0010
0100
1000
,
0010
1000
0010
0100
0010
0100
0001
0100
,
0001
1000
0001
1000
0100
0010
0100
0010
,
0001
1000
0001
1000
0010
1000
0100
0010
,
0100
0000
1000
0000
0010
0000
0000
0001
0000
0000
1000
0000
0010
0000
1000
0000
,
0010
0100
0001
1000
0100
1000
0100
1000
,
0001
0010
0100
1000
0001
1000
0010
1000
,
0010
0100
0010
1000
0001
1000
0001
1000
,
0100
0010
0100
0010
0100
1000
0001
0010
,
0001
0000
0010
0000
0001
0000
0000
0010
0000
0000
1000
0000
0100
0000
1000
0000
,
0010
1000
0100
0010
0100
1000
0100
1000
,
0010
1000
0001
0010
0100
0010
0001
0100
,
0020
0000
0000
0000
,
0000
0000
0230
0000
0000
0000
1300
0100
,
0001
0000
0000
0000
1000
0010
0100
0000
,
0010
0000
0000
0100
0000
0000
0100
0010
,
0100
0010
0100
1000
0001
0100
0010
1000
,
0100
1000
0001
0000
0100
0000
0010
0000
,
0100
0000
0001
0000
1000
0001
0000
0100
,
0000
0000
0010
0100
0000
1000
0000
0000
,
0001
1000
0001
0100
0001
0010
0200
0000
,
0000
0000
0000
0000
0310
0001
0010
0100
,
1000
0000
0100
1000
0001
0100
0001
1000
,
0100
1000
0001
0100
0010
0100
0001
0010
,
0001
0100
0001
1000
0100
1000
0010
0000
,
0001
0010
0001
0100
0001
0010
0100
0010
,
0001
0100
0010
1000
0010
1000
0001
0010
,
0001
1000
0000
0000
0001
0010
0100
1000
,
0100
0010
0001
0100
0001
0100
0001
0010
,
0100
0010
0100
1000
0100
1000
0001
0010
,
0100
1000
0001
1000
0001
0100
0001
0010
,
0100
0010
0100
1000
0100
0010
0001
0100
,
0001
0100
0001
0010
0100
1000
0010
0100
,
0010
0100
0010
1000
0001
1000
0100
1000
,
0010
0100
0001
0000
0220
0000
0000
0000
,
0000
0000
0000
0330
,
0101
0000
0000
1000
0000
0000
0001
0000
0000
0000
0101
0000
1000
0000
0001
0010
,
0100
0000
0000
0000
0101
0000
0000
1000
0000
0000
1001
0000
0000
0000
0101
0000
,
0000
0100
0000
0000
0010
0000
0000
0000
1002
0000
0000
0000
0000
0000
1000
0000
,
1003
0000
0100
0000
0010
0000
0001
1000
0001
0010
0100
0001
1000
0000
0000
0001
,
0000
0000
0101
0000
0000
0000
1000
0000
0001
0000
0000
0001
0000
0000
0100
0000
,
0010
0100
0001
0010
0100
0010
0001
1000
,
0010
0100
0001
0100
0001
0100
0010
1000
,
0100
1000
0001
0100
0010
1000
0001
0100
,
0010
0100
0010
0100
0001
0010
0001
0010
,
0001
1000
0100
1000
0010
0100
0001
1000
,
0100
0010
0001
0010
0100
0010
0001
1000
,
0001
1000
0100
0000
0000
0000
0000
0000
,
0000
0000
0000
0000
,
0000
0000
0000
0020
0000
0000
0000
0000
,
0000
0000
0000
0000
0000
0000
0000
0000
0130
0010
0100
1000
0010
0100
0001
0100
,
0001
0100
0010
1000
0010
0100
0001
0010
0100
1000
0010
0100
0010
0100
0001
0010
,
0100
0010
0001
0100
0010
0100
0001
0100
0010
1000
0010
1000
0001
0100
0010
0100
,
0010
0000
0000
0000
0000
0000
0000
0000
0100
0010
0100
0010
0001
0100
0001
0100
,
0001
0010
0100
0010
0001
1000
0010
1000
0000
0000
0000
0000
0000
0000
0100
0010
,
0100
0010
0000
0000
0001
0100
0010
0100
0000
0000
1000
0000
0100
0000
0010
0000
,
0010
1000
0100
0010
0001
0010
0001
1000
0001
1000
0010
1000
0001
0100
0001
0100
,
0001
0010
0100
0010
1000
0000
0100
0000
0010
0000
1000
0000
0100
0000
0010
0000
,
0100
1000
0010
0001
0010
0100
0010
1000
,
0010
1000
0001
0010
0100
1000
0001
0100
,
0010
1000
0100
1000
0001
0100
0010
1000
,
0010
0100
0010
0100
0001
0010
0100
1000
,
0100
1000
0010
0100
0010
1000
0100
1000
,
0010
1000
0001
0100
0010
1000
0100
1000
,
0100
0010
0001
1000
0100
1000
0010
1000
,
0010
0100
0001
0010
0001
1000
0010
0100
,
0001
1000
0100
1000
0001
1000
0010
0100
,
0001
0010
0100
1000
0001
0010
0001
1000
,
0100
0010
0001
0010
0100
1000
0010
0100
,
0010
1000
0010
0100
0001
0010
0100
1000
,
0001
1000
0100
0010
0100
0010
0001
0100
,
0001
0010
0001
1000
0100
1000
0010
0100
,
0001
1000
0001
1000
0001
0100
0010
1000
,
0100
0010
0100
1000
0001
0100
0010
0100
,
0001
1000
0010
1000
0001
1000
0100
0010
,
0001
0010
0001
0100
0010
0100
0010
0100
,
0001
1000
0001
0100
0001
1000
0100
1000
,
0001
0100
0010
0100
0001
0100
0001
0010
,
0001
0100
0010
1000
0100
0010
0100
1000
,
0001
0010
0100
1000
0001
0010
0100
1000
,
0001
0010
0001
0100
0010
0100
0010
0100
,
0001
0010
0001
0100
0001
0100
0010
1000
,
0100
0010
0001
0100
0001
0100
0001
0010
,
0100
0010
0001
0010
0001
0100
0010
1000
,
0001
0100
0001
1000
0100
1000
0001
0010
,
0001
1000
0100
1000
0010
1000
0001
0010
,
0001
1000
0100
0010
0100
0010
0001
1000
,
0010
0100
0001
0010
0100
1000
0010
1000
,
0010
1000
0100
0010
0001
0010
0100
1000
,
0010
1000
0010
0100
0010
0100
0001
1000
,
0010
1000
0010
0100
0001
0100
0001
0010
,
0001
0100
0010
0100
0010
0100
0001
1000
,
0100
0010
0100
0010
0100
1000
0000
0000
,
0001
0010
0100
0000
1000
0000
0001
0000
0200
0000
0000
0000
0000
0000
0000
0000
,
0000
0302
0000
0000
0000
0000
2003
0000
,
0000
0000
0000
0000
3001
0000
0010
0000
0100
1000
0010
1000
0100
1000
0001
0100
,
0010
0100
0001
0010
0001
1000
0100
1000
0001
0100
0001
0100
0010
1000
0100
1000
,
0010
0100
0010
0100
0010
1000
0100
0010
0100
1000
0010
1000
0010
1000
0100
0010
,
0001
0000
0000
0000
;
