
//----- song ID: qent -----//
#TITLE:for Q;
#ARTIST:NAMCO Sound Team "ミフメイ";
#ARTISTTRANSLIT:NAMCO Sound Team "mifumei";
#GENRE:ナムコオリジナル;
#MUSIC:for Q.ogg;
#BANNER:for Q.png;
#BACKGROUND:for Q-bg.png;
#CDTITLE:./CDTitles/NSD WORLD.png;
#SAMPLESTART:48.692;
#SAMPLELENGTH:15.000;
#SELECTABLE:YES;
#OFFSET:0.000;
#BPMS:0.000=260.000;
#STOPS:;
#BGCHANGES:;
#FGCHANGES:;

//--------------- dance-single - ----------------
#NOTES:
     dance-single:
     :
     Beginner:
     3:
     0,0,0,0,0:
0000
0000
0000
0000
,
0000
0000
0000
0000
,
0000
0000
0000
0000
,
0000
0000
0000
0000
,
0000
0000
0000
0000
,
0000
0000
0000
0000
,
0000
0000
0000
0000
,
0000
0000
0000
0000
,
0000
0000
0000
0000
,
0000
0000
1001
0000
,
0000
0000
0000
0000
0000
0000
0000
0001
,
0000
1000
0000
0000
,
0000
0000
0000
0000
0000
0000
0000
1000
,
0000
0001
1000
0000
0100
0000
0010
0000
,
0001
0000
0000
0000
0000
0000
0000
1000
,
0000
0000
0001
0000
1000
0000
0000
0100
,
0000
0020
0000
0000
,
0000
0000
0000
0000
0130
0000
0000
0100
,
0000
0220
0000
0000
,
0000
0000
0000
0000
,
0330
0000
0000
0000
,
1001
0000
0000
0000
,
0001
0000
0000
1000
0000
0000
0001
0000
,
0000
0000
0000
0000
,
0100
0000
0010
0000
,
0100
0000
0000
0000
,
1000
0000
0000
0001
0000
0000
0100
0000
,
0000
0000
0000
0000
,
0000
0000
0000
0000
,
1001
0000
0000
0000
,
0100
0000
0000
0010
0000
0000
0001
0000
,
0000
0000
0000
0000
,
0001
0000
1000
0000
,
1001
0000
0000
0000
,
0100
0000
0000
0010
0000
0000
0100
0000
,
1001
0000
0001
0000
,
0100
0000
0010
0000
,
0100
0000
0000
0000
,
1000
0000
0001
0000
,
0100
0000
0000
0000
,
0010
0000
0100
0000
,
0001
0000
0000
0000
,
1000
0000
0001
0000
,
0110
0000
1000
0000
,
0001
0000
0100
0000
,
0110
2002
0000
0000
,
0000
0000
0000
3003
,
0100
0010
0001
0000
,
0000
0000
0000
0000
,
0110
0000
1001
0000
,
0001
0000
0001
0000
,
0110
0000
0100
0000
,
0100
0000
0000
0100
0100
0000
0000
0000
,
1001
0000
0000
0000
,
0100
0000
1000
0000
,
0001
0000
0000
0000
,
1000
0000
0010
0000
,
0100
0000
0000
0000
,
0001
0000
1000
0000
,
0001
0000
0000
0000
,
0100
0000
0010
0000
,
1001
0000
0000
0000
,
0001
0000
0000
0000
,
0010
0000
0000
0000
,
0100
0000
0010
0000
,
0001
0000
0000
0000
,
1000
0000
0000
0000
,
0001
0000
0000
0000
,
1000
0000
0001
0000
,
0100
0000
0000
0000
,
0010
0000
0000
0000
,
0001
0000
0000
0000
,
1000
0000
0000
0000
,
0100
0000
0000
0000
,
0001
0000
0000
0000
,
1000
0000
0001
0000
,
0100
0000
0000
0000
,
0010
0000
0000
0000
,
0100
0000
0000
0000
,
1000
0000
0000
0000
,
0001
0000
0000
0000
,
1001
0000
0000
0000
,
0100
0000
0010
0000
,
0001
0000
0000
0000
,
0100
0000
0010
0000
,
2002
0000
0000
0000
,
0000
0000
0000
0000
,
0000
0000
0000
0000
,
0000
0000
0000
0000
,
0000
3003
0000
0000
,
0000
0000
0000
0000
,
0000
0000
0000
0000
,
0000
0000
0000
0000
,
0000
0000
0000
0000
,
0000
0000
0000
0000
,
0000
0000
0000
0000
,
0000
0000
0000
0000
,
0000
0000
0000
0000
,
0000
0000
0000
0000
,
0000
0000
0000
0000
,
0000
0000
0000
0000
,
1000
0000
0001
0000
,
0100
0000
0000
0000
,
0010
0000
0100
0000
,
1000
0000
0000
0000
,
0001
0000
0000
0000
,
1000
0000
0000
0000
,
0100
0000
0100
0000
,
0010
0000
0000
0000
,
1000
0000
0000
0000
,
0001
0000
0000
0000
,
0010
0000
0000
0000
,
0100
0000
0000
0000
,
1000
0000
0000
0000
,
0001
0000
0000
0000
,
0100
0000
0010
0000
,
0001
0000
0000
0000
,
1001
0000
0000
0000
0000
0000
0000
0010
,
0000
0100
0000
0010
0000
0000
0000
0000
,
0000
0100
0000
0010
0000
0100
0000
0010
,
0000
0000
1001
0000
0000
0110
0000
0000
,
1000
0000
0100
0000
0000
0001
0000
1000
,
0000
0001
0000
1000
0000
0000
0100
0000
,
0000
0100
0000
0010
,
0000
0100
0001
0000
,
1001
0000
0010
0000
,
0100
0000
1000
0000
,
0001
0000
0100
0000
,
0010
0000
0001
0000
,
0100
0000
0000
0000
,
0010
0000
0000
0000
,
0100
0000
0000
0000
,
1000
0000
0001
0000
,
0110
0000
0000
0000
,
1000
0000
0001
0000
,
0001
0000
0001
0000
,
0010
0000
0100
0000
,
0100
0000
0100
0000
,
1001
0000
0110
0000
,
1000
0000
0001
0000
,
0100
0000
0010
0000
,
0110
0000
0000
0000
,
1001
0000
0000
0000
,
0110
0000
0000
0000
,
0100
0010
0001
0000
,
0000
0010
0100
1000
,
0001
0000
0010
0000
,
0100
0000
1000
0000
,
0001
0000
0100
0000
,
0010
0000
1000
0000
,
0001
0000
0100
0000
,
0010
0000
0100
0000
,
1000
0000
0001
0000
,
1000
0000
0100
0000
,
0010
0000
0001
0000
,
1000
0000
0001
0000
,
0110
2002
0000
0000
,
0000
0000
3003
0000
0110
0000
0010
0001
;

//--------------- dance-single - ----------------
#NOTES:
     dance-single:
     :
     Easy:
     6:
     0,0,0,0,0:
0000
0000
0000
0000
,
0000
0000
0000
0000
,
0000
0000
0000
0000
,
0000
0000
0000
0000
,
0000
0000
0000
0000
,
0000
0000
0000
0000
,
0000
0000
0000
0000
,
0000
0000
0000
0000
,
0000
0000
0000
0000
,
0000
0000
1000
0010
,
0001
0000
0100
0001
,
0010
0000
0001
0010
,
1000
0100
0010
0000
,
0100
0000
0001
0000
,
0100
0000
0010
0001
,
1000
0000
0010
0000
,
0100
0001
1000
0010
,
0000
0000
0000
0000
0100
0000
0000
1000
,
0000
2002
0000
0000
,
0000
0000
0000
0000
,
0000
0000
0000
3003
,
1001
0000
0100
0000
,
0001
0000
0000
1000
0000
0000
0001
0000
,
0000
0010
0000
0010
,
0001
0000
0000
1000
0000
0000
0010
0000
,
0100
0000
1000
0000
,
0100
0000
0000
0010
0000
0000
2002
0000
,
0000
0000
0000
3003
,
0001
0000
0000
1000
0000
0000
0000
0000
,
1001
0000
0010
0000
,
1000
0000
0000
0001
0000
0000
1000
0000
,
0000
0100
0000
0100
,
1000
0000
0000
0001
0000
0000
0100
0000
,
0010
0000
0001
0000
,
0010
0000
0000
0100
0000
0000
1000
0000
,
0001
0000
0000
0000
0100
0010
0000
0100
,
1000
0000
0000
0001
0000
0000
0000
0000
,
1001
0000
0100
0000
,
1000
0001
0000
0000
0000
0100
0000
1000
,
0000
0000
0001
0100
0000
1000
0010
0000
,
0100
0010
0000
1000
0000
0001
0000
0100
,
0000
0000
0001
0000
1000
0000
0000
0001
,
0000
0100
0000
1000
0000
0001
0000
0000
,
1001
0000
0100
0000
,
1000
0000
0001
0000
,
0110
2002
0000
0000
,
3003
0100
0010
0001
,
0000
0000
0110
0000
,
1001
0000
0001
0000
,
0110
0000
0100
0000
,
0100
0000
0100
0100
,
1001
0100
0010
0001
,
1000
0000
0000
0001
0000
0000
0000
0000
,
1001
0000
0100
0000
,
1000
0000
0001
0000
,
0100
0000
0010
0000
,
0001
0000
0010
0000
,
0100
0000
1000
0000
,
0001
0000
1000
0000
,
0001
0000
0100
0000
,
0010
0000
1000
0000
,
1001
0000
0100
0000
,
0010
0000
0001
0000
,
1000
0000
0001
0000
,
0100
0000
0010
0000
,
0100
0000
1000
0000
,
0001
0000
0100
0000
,
0010
0000
0001
0000
,
1000
0000
0001
0000
,
1001
0000
0100
0000
,
0010
0001
1000
0000
,
0001
0000
0100
0000
,
1000
0010
1000
0000
,
0100
0000
0010
0000
,
0001
0000
1000
0000
,
0001
0000
0100
0000
,
0010
0000
0001
0000
,
0110
0000
0000
0000
,
0001
0000
1000
0000
,
0001
0000
0100
0000
,
0010
0000
0001
0000
,
1001
0000
0000
0000
,
0100
0000
0010
0000
,
0100
0000
1000
0000
,
0001
0000
0100
0000
,
2002
0000
0000
0000
,
0000
0000
0000
3003
,
0000
1000
0000
0000
0000
0000
0100
0000
,
0000
0000
0000
0001
0000
0000
0000
0000
,
0100
0000
0000
0000
0000
1000
0000
0000
,
0001
0000
0100
0000
,
0000
1000
0000
0001
,
0000
0100
0000
0000
,
1000
0000
0001
0000
,
1000
0000
0100
0000
,
0010
0000
0001
1000
,
0000
0001
0000
1000
0000
0000
0000
0010
,
0000
0000
0000
0100
0000
0000
0000
0001
,
0000
0000
0000
0010
0000
0000
0000
1000
,
0000
0000
0000
0001
0000
0000
0000
1000
,
0000
0000
0000
0000
,
1001
0000
0100
0000
,
0010
0000
0001
0000
,
1000
0000
0001
0000
,
0100
0000
0010
0000
,
0100
0000
1000
0000
,
0001
0000
0100
0000
,
0010
0000
0001
0000
,
0010
0000
0100
0000
,
1000
0000
0100
0000
,
0001
0000
0010
0000
,
0100
0000
0000
0000
,
0001
0000
0000
0000
,
1000
0000
0001
0000
,
0100
0000
0000
0000
,
0010
0000
0100
0000
,
1000
0000
0001
0000
,
1001
0000
0000
0000
0100
0000
0000
0010
,
0000
0010
0000
0010
0000
0000
1000
0000
,
0000
0100
0000
0100
0000
0100
0000
0100
,
0000
0000
1001
0000
0000
0001
0000
0000
,
1000
0000
0001
0000
0000
0000
0100
0001
,
0000
0001
0000
0001
0000
0000
0100
0000
,
1000
0000
0100
0001
0000
0010
0000
0001
,
0100
0000
1000
0000
,
1001
0000
0100
0000
,
0010
0000
0001
0000
,
0010
0000
0100
0000
,
1000
0000
0000
0000
,
0001
0000
1000
0000
,
0100
0000
0010
0000
,
0001
0000
1000
0000
,
0001
0000
0000
0000
,
0100
0000
0010
0000
,
0001
0000
0000
0000
,
1000
0000
0001
0000
,
0100
0000
0000
0000
,
0001
0000
1000
0000
,
0100
0000
0010
0000
,
0001
0000
0010
0000
,
0100
0000
1000
0001
,
1001
0000
0100
0000
,
0010
0001
0010
0000
,
0101
0000
1000
0000
,
0001
0100
0010
0000
,
1001
0000
0100
0000
,
0100
0000
0001
0000
,
1000
0000
1000
0000
,
0001
0010
0100
0000
,
1001
0000
0100
0000
,
0010
0000
0001
0000
,
1000
0000
0001
0000
,
0100
0010
0001
0000
,
1000
0000
0001
0000
,
1000
0000
0100
0000
,
0010
0000
0001
0000
,
0110
2002
0000
0000
,
0000
0000
3003
0000
0110
0000
0010
0001
;

//--------------- dance-single - ----------------
#NOTES:
     dance-single:
     :
     Medium:
     12:
     0,0,0,0,0:
0000
0000
0000
0000
,
0000
0000
0000
0000
,
0000
0000
0000
0000
,
0000
0000
0000
0000
,
0000
0000
0000
0000
,
0000
0000
0000
0000
,
0000
0000
0000
0000
,
0000
0000
0000
0000
,
0000
0000
0000
0000
,
0000
0000
0001
0100
,
1000
0000
0010
1000
,
0100
0000
1000
0100
,
0001
0010
0100
0000
,
0010
0000
1000
0000
,
0010
0000
0100
1000
,
0001
0000
0100
0000
,
0010
1000
0001
0100
,
0000
0000
0000
0000
0010
0000
0000
0001
,
0000
2002
0000
0000
,
0000
0000
0000
0000
,
0000
0000
0000
3003
,
1001
0001
0010
0100
,
1000
0000
0000
0001
0000
0000
1000
0000
,
0001
0100
0010
0100
,
1000
0000
0000
0001
0000
0000
0100
0000
,
0010
1000
0001
0100
,
0010
0000
0000
0100
0000
0000
1001
0000
,
0000
0010
0100
1000
,
0001
0000
0000
0100
0000
0000
1000
0000
,
0001
0100
1000
0001
,
0100
0000
0000
0010
1000
0000
0001
0000
,
0010
0100
0010
1000
,
0100
0000
0010
0001
0100
0000
0010
0000
,
0001
0010
0100
1000
,
0100
1000
0010
0000
0100
0000
0110
0000
,
1001
0000
1001
0000
,
0101
0000
0000
0001
0000
0000
1000
0010
,
0001
0001
1000
0001
,
0010
1000
0001
0000
0100
0001
0010
0000
,
0100
0001
0100
0010
,
1000
0000
0100
0000
0010
1000
0100
0000
,
1000
0001
1000
0010
,
1000
0000
0100
0000
0010
1000
0100
0000
,
1002
0000
0100
0000
,
1000
0000
0103
0000
,
0110
0000
0000
2002
,
0000
0000
0000
0000
,
0000
0000
3003
0000
0000
0000
0100
0010
,
0001
0000
0110
1001
,
0001
0001
0110
0100
,
0100
0000
0110
0110
,
1000
0001
1000
0001
,
0100
0000
0000
0101
0000
0000
0000
0000
,
0110
0001
0010
0001
,
0010
1000
0001
0000
0100
0000
0010
0000
,
1000
0100
1000
0010
,
1000
0000
0001
0000
0100
1000
0010
0100
,
1000
0001
0010
0001
,
0010
0001
0100
0000
1000
0000
0001
0000
,
1000
0000
0010
0000
0100
0000
0010
1000
,
0100
0000
0001
0000
0100
0000
0010
0100
,
1000
0100
0010
0001
,
0100
0010
0001
0000
0100
0000
0001
0000
,
1000
0010
0100
0001
,
1000
0100
0010
0000
0100
0000
0001
0000
,
0100
0001
0010
0001
,
1000
0010
0100
0000
1000
0001
0100
0000
,
0010
1000
0001
0000
0100
0000
0010
0000
,
1000
0000
0001
0000
1000
0100
0010
0000
,
0100
0000
0001
1000
0000
1010
0000
0101
,
0000
0010
1000
0001
1000
0000
0001
1000
,
0010
0000
0001
1000
0000
0011
0000
1100
,
0000
0000
0001
0100
0000
1000
0010
0001
,
0100
0000
0010
1000
0001
0000
0100
0010
,
0001
0000
1000
0001
1000
0000
1000
0100
,
1000
0000
0100
0001
0000
1000
0000
0010
,
0000
0100
0010
0000
1000
0000
0001
0100
,
0020
0000
0100
0000
,
2030
0000
0001
0001
,
3020
0000
0000
0000
1000
0100
0000
1000
,
0130
0000
0001
0100
1000
0010
0100
0001
,
2000
0000
0000
0000
0000
0000
3010
0100
,
0002
0000
0203
0000
,
0302
0000
0203
0000
,
1300
0000
0010
1000
0001
0000
0100
0000
,
2000
0000
0000
0000
0000
0000
0100
0010
,
3001
0010
0100
0010
0100
0000
1000
0000
,
0000
0100
0000
1000
0001
0100
0000
1000
,
0000
0001
0000
0010
1000
0100
0000
0010
,
0000
0001
0000
0010
1000
0001
0000
1000
,
0000
0001
0000
0100
0000
0010
0001
1000
,
0000
0001
0000
0010
1000
0001
0000
1000
,
0000
0001
0000
0010
0001
0100
0000
1000
,
0000
0010
1000
0000
0001
0000
0100
1000
,
0000
0001
0010
0100
0000
0010
0100
1000
,
0000
0001
1000
0010
0000
0001
0100
0010
,
0000
0100
0000
0010
0000
0001
0100
1000
,
0000
0100
0000
1000
0000
0001
0010
0100
,
0000
0010
0100
0002
0000
0000
0003
1001
,
0000
0100
1000
0100
0010
0000
0000
0101
,
0000
1000
0001
0100
0000
0010
1000
0010
,
0001
0000
0010
0000
1001
0000
0001
0010
,
0100
1001
0010
0100
,
1000
0010
0001
0010
1000
0000
0010
0000
,
0100
0001
0010
0001
,
0010
0001
1000
0010
,
1000
0000
0001
0000
0010
0000
0100
0001
,
1000
0010
0100
0000
1000
0000
0001
0100
,
1000
0010
0100
0001
,
1010
0000
0001
0000
0010
0100
0001
0000
,
1000
0010
1000
0010
,
1000
0010
0001
0000
0100
0000
0001
0000
,
0010
0000
0001
1000
0100
0001
0010
0000
,
0100
0000
0010
1000
0100
0000
0001
0000
,
0010
0001
0100
0000
1000
0010
0100
0000
,
0100
0100
0101
1000
,
0001
0100
1000
0000
0001
0010
0200
0000
,
0320
0000
0000
0000
1030
0000
0000
0010
,
0000
0100
0000
0010
1000
0000
0001
0000
,
0100
0010
0000
0100
0000
0010
0000
0100
,
0001
0000
1001
0000
0000
0101
0000
0000
,
1000
0000
0001
0000
0010
1000
0100
0010
,
0000
0100
0000
0010
0000
0000
1000
0001
,
0100
1000
0001
1000
0000
0010
0000
0100
,
1000
0000
0101
0000
,
1001
0000
0000
0010
0001
0100
0000
0000
,
1001
0000
0000
0100
1000
0010
0000
0000
,
0001
0000
0010
1000
0000
0100
0000
0000
,
0101
0000
0000
1000
0000
0010
0000
0000
,
0101
0000
0000
1000
0000
0001
0000
0000
,
0110
0000
0000
0001
0000
0010
0000
0000
,
0101
0000
0000
1000
0000
0001
0100
0000
,
1000
0001
0000
0000
0101
0000
0010
0000
,
0001
0000
0100
0000
0010
0001
0100
0000
,
0001
0100
0001
0010
,
0100
0000
0010
1000
0001
0000
1000
0000
,
0001
1000
0001
0100
,
0010
0001
0100
0000
0010
1000
0100
0000
,
0001
0100
0010
0000
0100
0001
0010
0000
,
0001
0100
0000
0100
0001
0000
0100
1000
,
0000
0001
1000
0000
0010
0000
0100
0000
,
0001
0000
1000
0001
0100
0000
1000
0000
,
0001
0100
1000
0000
0001
0000
0100
0000
,
0001
0000
0010
1000
0100
0000
1000
0000
,
0010
0001
0100
0000
0010
0000
1000
0000
,
0010
0000
1000
0001
0100
0000
1000
0000
,
0100
0001
0010
0000
0001
0000
1000
0010
,
0100
0000
0100
0010
0001
1000
0001
0000
,
0100
0010
0000
1000
0001
0000
0100
0010
,
1000
0000
0001
0000
1000
0001
0100
0010
,
1000
0000
0100
0001
0000
1000
0001
0000
,
1000
0000
0001
0000
1000
0010
0100
0001
,
1000
0001
0100
0010
2000
0000
0000
0000
,
0000
0000
3100
0010
0001
1000
0000
0010
,
0000
0100
1000
0001
1000
0001
0000
0010
,
0100
0001
1000
0100
0010
0001
1000
0000
,
0110
2002
0000
0000
,
0000
0000
3003
0000
0110
0000
0010
0001
;

//--------------- dance-single - ----------------
#NOTES:
     dance-single:
     :
     Hard:
     17:
     0,0,0,0,0:
0000
0000
0000
0000
,
0000
0000
0000
0000
,
0000
0000
0000
0000
,
0000
0000
0000
0000
,
0000
0000
0000
0000
,
0000
0000
0000
0000
,
0000
0000
0000
0000
,
0000
0000
0000
0000
,
0000
0000
0000
0000
,
0000
0000
0000
0000
1000
0100
0010
0000
,
0001
1000
0000
0100
0010
0000
1000
0002
,
0000
0000
0203
0000
0000
2300
0000
0000
,
0002
3000
0013
0000
0100
0000
1000
0010
,
0000
1000
0100
0010
0001
0010
0100
1000
,
0010
0002
0000
0000
2003
0000
0000
3002
,
0000
0000
0103
0000
1000
0001
0010
1000
,
0001
0200
0000
0000
0000
0000
0000
0302
,
0000
0000
0000
0103
1000
0000
0100
0010
,
0001
2000
0002
0000
0000
0000
0000
0000
,
0000
0000
0000
0000
,
0000
0000
0000
3003
,
0101
0000
1000
0000
0001
0100
0010
1000
,
0001
0000
0010
1000
0000
0001
0100
0000
,
0001
0000
0010
0000
0100
0000
1000
0010
,
0001
0000
1000
0001
0000
0100
0010
0000
,
0001
0000
1000
0001
0100
0000
0010
0100
,
1000
0000
0001
0100
0000
0000
1000
0002
,
0100
0000
0000
0010
0000
0000
0100
0000
,
1003
0000
0100
0010
1000
0001
0100
0010
,
0001
0000
0001
0000
1000
0010
0100
0001
,
1000
0000
0100
0001
0000
1000
0010
0000
,
1000
0000
0100
0000
0010
0000
0001
0100
,
1000
0000
0001
1000
0000
0010
0100
0000
,
1000
0000
0001
1000
0010
0000
0100
0010
,
0001
0000
1000
0010
0000
0000
0001
2000
,
0010
0000
0000
0100
0000
0000
0010
0000
,
3001
0000
0010
0100
0001
1000
0010
0100
,
0001
0000
1000
0001
0010
0100
1000
0000
,
0100
0000
1000
0000
0100
0001
0000
1000
,
0010
0000
0100
0010
1000
0001
0000
1000
,
0001
0100
0010
1000
0001
0100
0010
1000
,
0001
0000
1000
0000
0010
0000
0100
1000
,
0001
0000
0100
0001
1000
0010
0100
0001
,
1010
0000
0100
1000
0100
0010
0001
0010
,
0100
1000
0010
1000
0100
0010
0100
0010
,
2000
0000
0000
0000
0000
0001
0000
0000
,
3002
0000
0000
1000
0000
0000
0000
0000
,
2003
0000
0000
0000
0000
0001
0000
0000
,
3002
0000
0000
1000
0000
0000
0103
0000
,
0010
0000
1000
0000
0010
0100
0001
0000
,
0001
0100
1000
0100
0010
0000
0100
1000
,
0010
0100
1000
0000
0101
0000
1010
0000
,
1001
0000
0000
0101
0000
0000
0002
0000
,
1003
0000
0001
0100
0010
0100
0010
0100
,
0001
1000
0010
0100
0010
1000
0010
1000
,
0100
0010
0100
1000
0001
0100
0010
1000
,
0010
1000
0001
0100
0010
1000
0001
0010
,
0001
0010
0100
1000
0010
0100
0001
1000
,
0100
1000
0010
1000
0100
0010
0100
0010
,
0100
1000
0010
0100
0010
0100
0001
0100
,
0010
1000
0100
1000
0100
0010
0100
0010
,
0001
1000
0100
1000
0001
1000
0001
0100
,
0010
0100
0010
1000
0001
0010
0001
1000
,
0010
0100
0010
1000
0100
0010
0100
0010
,
0001
0010
0001
1000
0010
1000
0010
1000
,
0100
0010
0100
0010
0001
1000
0010
1000
,
0010
1000
0100
0010
0100
0010
0100
1000
,
0001
0100
0010
0100
0010
1000
0001
0010
,
0100
1000
0100
1000
0100
0010
0001
1000
,
0010
0000
1000
0001
0000
0101
0000
1010
,
0000
0100
0001
1000
0001
0000
1000
0001
,
0100
0000
1000
0001
0000
1100
0000
0011
,
0000
0000
1000
0010
0000
0001
0100
1000
,
0010
0000
0100
0001
1000
0000
0010
0100
,
1000
0000
0001
1000
0001
0000
0001
0010
,
0001
0100
0001
0010
0100
1000
0001
1000
,
0001
1000
0010
0100
0010
1000
0100
1000
,
0020
0000
0100
0000
,
2030
0000
0001
0001
,
3020
0000
0000
0000
1000
0100
0000
1000
,
0130
0000
0001
0100
1000
0010
0100
0001
,
2000
0000
0000
0000
0000
0000
3010
0100
,
0002
0000
0203
0000
,
0302
0000
0203
0000
,
1300
0000
0010
1000
0001
0000
0100
0000
,
2000
0000
0000
0000
0000
0000
0100
0010
,
3001
0010
0100
0010
0100
0000
1000
0000
,
0000
0001
0010
0001
0010
0100
0010
0100
,
1000
0100
1000
0010
1000
0010
0100
0010
,
1000
0001
0100
0001
1000
0100
1000
0010
,
0100
0001
1000
0100
1000
0010
1000
0010
,
0100
0010
1000
0001
0010
0001
0010
0100
,
0010
0001
0100
0010
0100
0010
0100
0001
,
1000
0010
0100
0001
1000
0001
1000
0100
,
0010
0001
0100
0001
1000
0100
1000
0001
,
0010
0100
1000
0010
1000
0010
1000
0001
,
0010
0100
1000
0010
0100
0010
0100
0001
,
0010
0100
0010
0100
0010
0001
1000
0010
,
0100
0010
0100
0002
0000
0000
0003
1001
,
0000
0100
1000
0100
0010
0001
1000
0100
,
0010
0001
1000
0100
1000
0100
1000
0001
,
0100
0001
0000
1000
0001
0010
0100
0001
,
0010
0100
0010
0001
0100
0001
0100
0001
,
0010
0000
0001
0100
1000
0100
1000
0010
,
1000
0100
0010
0001
0100
0001
0100
0001
,
0010
0100
0001
0100
0001
0100
0010
1000
,
0100
1000
0100
0010
0100
0010
0001
0010
,
0001
1000
0001
0010
0100
0010
0100
0010
,
0001
1000
0010
1000
0001
0010
0001
0010
,
0001
0100
0010
0100
0001
0100
0010
1000
,
0010
1000
0100
0010
0100
0010
0001
1000
,
0010
0100
0010
0100
0001
0100
0010
1000
,
0100
0010
0001
0010
0001
0100
0001
0010
,
0100
0010
0001
0010
0100
1000
0001
1000
,
0100
0010
0100
0010
0100
1000
0010
1000
,
0100
0100
0101
1000
,
0001
0100
1000
0000
0001
0010
0200
0000
,
0320
0000
0000
0000
1030
0100
0010
0001
,
0100
1000
0010
0001
1000
0000
0001
1000
,
0010
1000
0010
0100
0010
0100
0010
0100
,
0010
0000
1000
0001
0000
1010
0000
0000
,
0100
0000
0010
0000
1000
0001
0100
0010
,
0100
0010
0100
0010
0100
0000
1000
0001
,
0100
1000
0001
1000
0000
0010
0000
0100
,
1000
0000
0101
0000
,
1001
0000
0100
1000
0010
1000
0100
1000
,
0001
0010
0001
1000
0001
0100
0010
1000
,
0001
0010
0100
0010
0001
0100
0001
1000
,
0001
0100
0010
1000
0001
0100
0001
1000
,
0100
1000
0010
1000
0010
0100
0010
1000
,
0100
0010
0100
0010
0100
1000
0001
1000
,
0001
0100
0010
0100
0010
0100
0001
1000
,
0001
1000
0001
0100
0010
1000
0001
0010
,
0100
1000
0010
1000
0100
1000
0010
0100
,
0010
1000
0010
1000
0100
0010
0100
1000
,
0010
0100
0001
0100
0010
0100
0010
1000
,
0010
1000
0100
1000
0100
0010
0100
1000
,
0010
0100
0010
1000
0100
1000
0100
1000
,
0001
0100
0001
0010
0001
0100
0010
1000
,
0010
1000
0010
0100
0001
1000
0100
0010
,
0100
1000
0001
0100
0001
1000
0001
0010
,
0100
0010
0001
1000
0010
0100
0001
1000
,
0001
0010
0100
0010
0100
0010
0001
0100
,
0001
0010
0100
1000
0001
1000
0010
1000
,
0001
0100
0010
0100
0001
0100
0010
1000
,
0100
0010
0100
1000
0100
0010
0001
0100
,
0010
1000
0001
0010
0100
1000
0100
1000
,
0010
1000
0100
0010
0001
1000
0001
0000
,
0100
0010
0000
1000
0001
0000
0100
0010
,
1000
0000
0001
0000
1000
0001
0100
0010
,
1000
0000
0100
0001
0000
1000
0001
0000
,
1000
0000
0001
0000
1000
0010
0100
0001
,
1000
0001
0100
0010
2000
0000
0000
0000
,
0000
0000
3100
0010
0001
1000
0000
0010
,
0000
0100
1000
0001
1000
0001
0000
0010
,
0100
0001
1000
0100
0010
0001
1000
0000
,
0110
2002
0000
0000
,
0000
0000
3003
0000
0110
0000
0010
0001
;
