
//----- song ID: zthu -----//
#TITLE:ZOMEKI THUNDER;
#ARTIST:Sampling Masters AYA;
#GENRE:NSDコインショップ(春);
#MUSIC:ZOMEKI THUNDER.ogg;
#BANNER:ZOMEKI THUNDER.png;
#BACKGROUND:ZOMEKI THUNDER-bg.png;
#CDTITLE:./CDTitles/NSD WORLD.png;
#SAMPLESTART:35.686;
#SAMPLELENGTH:20.192;
#SELECTABLE:YES;
#OFFSET:0.000;
#BPMS:0.000=195.000
,308.000=230.000
;
#STOPS:;
#BGCHANGES:;
#FGCHANGES:;

//--------------- dance-single - ----------------
#NOTES:
     dance-single:
     :
     Beginner:
     3:
     0,0,0,0,0:
0000
0000
0000
0000
,
0000
0000
0000
0000
,
0000
0000
0000
0000
,
0000
0000
0000
0000
,
0000
0000
0000
0000
,
0000
0000
0000
0000
,
0000
0000
0000
0000
,
0000
0000
0000
0000
,
0000
0000
0000
0000
,
0000
0000
0000
0000
,
0000
0000
0000
0000
,
0000
0000
0000
0000
,
0000
0000
0000
0000
,
0100
0010
0000
0100
,
0000
0001
0000
1000
,
0000
0001
0000
1000
,
0000
0001
0000
1000
,
0000
0001
0000
0100
,
0000
0010
0000
0100
,
0000
0010
0000
0100
,
1000
0001
1000
0000
,
1001
0000
0100
0000
,
0010
0000
0001
0000
,
1000
0000
0001
0000
,
2000
0000
3000
0000
,
0001
0000
0100
0000
,
0010
0000
1000
0000
,
2002
0000
0000
0000
,
3003
0000
0000
0000
,
0010
0000
0100
0000
,
1000
0000
0001
0000
,
1000
0000
0100
0000
,
0010
0000
0001
0000
,
0100
0000
0010
0000
,
0001
0000
1000
0000
,
0100
0000
0010
0000
,
0002
0000
0003
0000
,
1000
0000
0100
0000
,
0010
0000
0001
0000
,
0100
0000
0010
0000
,
1000
0000
0001
0000
,
0100
0000
0010
0000
,
0001
0000
0100
0000
,
0010
0000
0100
0000
,
1000
0000
0001
0000
,
2002
0000
0000
3003
,
0000
0000
0000
0000
,
0220
0000
0000
0330
,
0000
0000
0000
0000
,
2002
0000
0000
3003
,
0000
0000
0000
0000
,
0202
0000
0000
0303
,
0000
0000
0000
0000
,
1010
0000
0000
0100
,
0000
0010
0000
0100
,
0110
0000
0000
0001
,
0000
1000
0000
0001
,
1001
0000
0000
0010
,
0000
0100
0000
0010
,
0110
0000
0000
1000
,
0000
0001
0000
1000
,
2002
0000
0000
0000
,
0000
0000
0000
0000
,
0000
0000
0000
0000
,
3003
0000
0000
0000
,
0010
0000
0000
0000
,
1000
0000
0000
0000
,
0001
0000
0000
0000
,
0100
0000
0000
0000
,
0001
0000
0000
0000
,
1000
0000
0000
0000
,
0100
0000
0000
0000
,
0010
0000
0000
0000
,
0001
0000
0000
0000
,
1000
0000
0000
0000
,
0100
0000
0010
0000
,
0100
0100
0001
0000
,
2002
0000
0000
0000
,
0000
0000
0000
0000
,
3003
0000
0000
0000
,
0000
0000
0000
0000
,
0000
0000
0000
0000
,
1000
0000
0001
0000
,
0100
0000
0010
0000
,
0001
0000
1000
0000
,
0001
0000
1000
0000
,
0100
0000
0010
0000
,
0001
0000
1000
0000
,
0100
0000
0010
0000
,
0001
0000
1000
0000
,
0110
0000
0001
0000
,
1000
0000
0100
0000
,
0010
0000
0100
0000
,
0001
0000
1000
0000
,
0100
0000
0010
0000
,
0001
0000
1000
0000
,
0001
0000
1000
0000
,
0001
0000
1000
0000
,
0001
0000
1000
0001
,
1001
0000
0000
0000
;

//--------------- dance-single - ----------------
#NOTES:
     dance-single:
     :
     Easy:
     5:
     0,0,0,0,0:
0000
0000
0000
0000
,
0000
0000
0000
0000
,
0000
0000
0000
0000
,
0000
0000
0000
0000
,
0000
0000
0000
0000
,
0000
0000
0000
0000
,
0000
0000
0000
0000
,
0000
0000
0000
0000
,
0000
0000
0000
0000
,
0000
0000
0000
0000
,
0000
0000
0000
0000
,
0000
0000
0000
0000
,
0000
0000
0000
0000
,
0010
0000
1000
0000
,
0001
0000
1000
0000
,
0001
0000
0100
0000
,
0010
0000
0001
0000
,
1000
0000
0001
0000
,
0100
0000
0010
0000
,
0001
0000
1000
0000
,
0001
0000
1000
0000
,
1001
0100
0010
1000
,
0100
0010
0001
0100
,
0001
1000
0001
0100
,
0010
1000
0010
1000
,
0100
0010
0100
0010
,
0001
0100
0001
0010
,
0220
0000
0000
0000
,
0330
0000
0000
0000
,
0010
0100
0010
1000
,
0010
0000
0000
0100
0000
0000
0001
0000
0000
0100
0000
1000
,
0001
0010
0001
1000
,
0100
0000
0000
0010
0000
0000
0001
0000
1000
0010
0000
0000
,
0100
0010
0100
1000
,
0010
0000
0000
0100
0000
0000
0010
0000
0001
1000
0000
0000
,
0100
0010
0100
1000
,
0100
0000
0000
0010
0000
0000
0001
0000
0100
1000
0000
0000
,
0001
0100
0001
0010
,
0100
0000
0000
1000
0000
0000
0001
0000
0000
0010
0000
1000
,
0001
1000
0001
1000
,
0010
0000
0000
0100
0000
0000
0010
0000
0001
1000
0000
0000
,
0001
0010
0100
1000
,
0100
0000
0000
1000
0000
0000
0001
0000
0010
0100
0000
0000
,
0001
0100
0001
1000
,
0010
0000
0000
0100
0000
0000
0010
0000
1000
0001
0000
0000
,
0100
0100
0110
0000
,
0000
0000
0000
0000
,
0101
0100
0110
0000
,
0000
0000
0000
0000
,
1000
0100
0110
0000
,
0000
0000
0000
0000
,
0101
0010
0110
0000
,
0000
0000
0000
0000
,
0100
0010
0110
0100
,
0000
0100
0000
0100
,
0001
0100
0101
0000
,
0100
0000
0100
0000
,
0101
0100
1100
0000
,
0100
0000
0010
0000
,
0010
0010
0101
0000
,
0010
0000
0010
0000
,
2002
0000
0000
0000
,
0000
0000
0000
0000
,
3003
0000
0000
0000
,
0000
0000
0000
0000
,
0100
0000
0000
0000
,
0010
0000
0000
0000
,
0001
0000
0000
0000
,
1000
0000
0000
0000
,
0001
0000
1000
0000
,
0001
0000
0100
0000
,
0010
0000
0001
0000
,
1000
0000
0100
0000
,
0010
0000
0001
0000
,
1000
0000
0001
0000
,
0100
0000
0001
0000
,
1000
0001
1000
0001
,
2002
0000
0000
0000
,
0000
0000
0000
0000
,
3003
0000
0000
0000
,
1000
0000
0001
0000
,
0100
0100
0001
0000
,
0010
0100
0001
0100
,
0010
0100
0001
1000
,
0001
1000
0100
1000
,
0001
0000
0100
0000
0001
0000
1000
0100
,
0010
0100
0001
1000
,
0100
0010
0100
1000
,
0010
1000
0010
0100
,
0010
0000
0100
0000
0001
0000
1000
0010
,
0100
1000
0001
1000
,
0001
0100
0001
0010
,
0100
0010
0100
0010
,
0001
0000
1000
0000
0100
0000
1000
0010
,
0001
1000
0001
0010
,
0100
0010
0001
1000
,
0100
1000
0001
1000
,
0001
1000
0000
0000
1000
0001
0000
0000
,
0001
1000
0000
0000
1000
0000
0100
0000
,
2002
0000
0000
0000
,
3003
0000
0000
0000
;

//--------------- dance-single - ----------------
#NOTES:
     dance-single:
     :
     Medium:
     10:
     0,0,0,0,0:
0000
0000
0000
0000
,
0000
0000
0000
0000
,
0000
0000
0000
0000
,
0000
0000
0000
0000
,
0000
0000
0000
0000
,
0000
0000
0000
0000
,
0000
0000
0000
0000
,
0000
0000
0000
0000
,
0000
0000
0000
0000
,
0000
0000
0000
0000
,
0000
0000
0000
0000
,
0000
0000
0000
0000
,
0000
0000
0000
0000
,
0100
0000
0010
0000
,
0100
0000
1000
0000
,
0001
0000
1000
0000
,
0001
0000
0100
0000
,
0010
0000
0100
0000
,
1000
0000
0001
0000
,
0100
0000
0010
0000
,
0001
0100
1000
0100
,
1001
0000
0000
0010
0000
0000
0100
0000
0010
0001
0000
0000
,
1000
0000
0000
0001
0000
0000
0100
0000
0001
0010
0000
0000
,
0100
0000
0000
0010
0000
0000
0100
0000
1000
0001
0000
0000
,
0010
0000
0000
0001
0000
0000
0100
0000
1000
0001
0000
0000
,
0010
0000
0000
0100
0000
0000
1000
0000
0010
0001
0000
0000
,
0100
0000
0000
0010
0000
0000
1000
0000
0100
0010
0000
0000
,
2002
0000
0000
0000
,
3003
0000
0000
0000
,
0001
0000
0000
0100
0000
0000
0010
0000
1000
0100
0000
0000
,
0010
0000
0000
0100
0000
0000
0001
0000
0100
1000
0000
0000
,
0001
0000
0000
0100
0000
0000
0010
0000
0001
1000
0000
0000
,
0010
0000
0000
1000
0000
0000
0001
0000
0100
1000
0000
0000
,
0100
0000
0000
0010
0000
0000
0100
0000
0001
0010
0000
0000
,
0100
0000
0000
1000
0000
0000
0010
0000
1000
0100
0000
0000
,
0001
0000
0000
0100
0000
0000
0001
0000
0100
1000
0000
0000
,
0001
0000
0000
0010
0000
0000
0100
0000
0010
1000
0000
0000
,
1001
0000
0000
1000
0000
0010
0001
0000
0000
0100
0000
1000
,
0010
0000
0000
1000
0000
0001
0100
0000
0000
1000
0000
0001
,
0010
0000
0000
0100
0000
1000
0001
0000
0000
0010
0000
0100
,
0001
0000
0000
1000
0000
0010
0001
0000
0000
0100
0000
1000
,
0010
0000
0000
0100
0000
0001
0010
0000
0000
1000
0000
0001
,
0100
0000
0000
1000
0000
0010
0001
0000
0000
0100
0000
1000
,
0001
0000
0000
0100
0000
0001
0010
0000
0000
0100
0000
1000
,
0001
0000
0000
0010
0000
1000
0001
0000
0000
0010
0000
0000
,
0110
0100
0110
0000
,
0020
0000
0030
0000
,
0110
1000
1010
0000
,
0200
0000
0300
0000
,
0011
0010
1100
0000
,
0020
0100
0100
0130
,
0110
0100
0110
0000
,
0200
0000
0300
0000
,
0100
0010
1010
0010
,
0000
0010
0000
0100
,
0100
0010
1010
0100
,
0000
0100
0000
0010
,
0001
0010
1001
0000
,
0100
0000
0100
0000
,
0110
1000
1010
0001
,
1000
0001
1000
0001
,
2002
0000
0000
0000
,
0000
0000
0000
0000
,
3003
0000
0000
0000
,
0000
0000
0000
0000
,
0010
0000
0000
0000
,
0010
0000
0000
0000
,
0100
0000
0000
0000
,
0100
0000
0000
0000
,
1000
0000
0001
0000
,
1000
0000
0001
0000
,
0010
0010
0100
0100
,
1000
0001
1000
0001
,
1000
0010
0100
1000
,
0001
1000
0100
0010
,
0100
1000
0001
1000
,
0001
0100
0010
1000
,
2002
0000
0000
0000
,
0000
0000
0000
0000
,
3003
0000
0000
0000
,
1000
0000
0001
0000
,
1000
0001
1000
0000
,
1001
0001
1000
0010
,
0100
0000
0001
0000
0100
0000
0010
0100
,
1000
0001
0010
0100
,
1000
0000
0010
0000
1000
0000
0001
0100
,
1000
0001
0100
0010
,
0100
0000
0010
0000
0100
0000
0001
1000
,
0010
0001
0010
0001
,
0100
0000
0010
0000
0100
1000
0001
0010
,
0100
0000
0001
0000
0010
0000
0001
1000
,
0010
0000
0100
0000
1000
0000
0100
0001
,
1000
0000
0100
0000
0010
0000
0001
1000
,
0010
0000
0001
0000
0010
0000
0100
0001
,
1000
0000
0100
0000
1000
0000
0001
1000
,
0010
0000
0001
0000
0010
0000
0001
0100
,
1000
0000
0100
0000
1000
0001
0010
0000
,
1000
0001
0000
0100
0010
1000
0000
0001
,
0010
1000
0000
0001
1000
0100
0000
0000
,
2002
0000
0000
0000
,
3003
0000
0000
0000
;

//--------------- dance-single - ----------------
#NOTES:
     dance-single:
     :
     Hard:
     15:
     0,0,0,0,0:
0000
0000
0000
0000
,
0000
0000
0000
0000
,
0000
0000
0000
0000
,
0000
0000
0000
0000
,
0000
0000
0000
0000
,
0000
0000
0000
0000
,
0000
0000
0000
0000
,
0000
0000
0000
0000
,
0000
0000
0000
0000
,
0000
0000
0000
0000
,
0000
0000
0000
0000
,
0000
0000
0000
0000
,
0000
0000
0000
0000
,
1001
0100
1000
0001
,
0100
0010
0100
0001
,
1000
0010
0100
0010
,
0100
0001
0100
0010
,
0100
1000
0010
0100
,
0010
0100
0010
0001
,
0010
1000
0010
0010
,
1010
0000
0000
0110
0000
0000
0001
0000
0010
0100
0000
0000
,
1001
0000
0000
0110
0000
0000
0010
0000
0010
0100
0000
0010
,
1000
0000
0100
0010
0000
0001
0100
0000
1000
0001
0000
0000
,
0110
0000
0000
0110
0000
0000
0100
0000
1000
0001
0000
0001
,
1000
0000
0100
0010
0000
0100
0010
0000
0000
0001
0000
0010
,
0100
0000
0000
0101
0000
0000
1000
0000
0100
0001
0000
0001
,
1000
0000
1000
0001
0000
0010
1000
0000
0100
0001
0000
0010
,
0200
0010
0000
0010
,
0000
0010
0000
0310
,
0101
0000
0000
0100
0000
1000
0010
0000
0000
0001
0000
0010
,
0100
0000
0000
0010
0000
0001
1000
0000
0010
0100
0000
0001
,
0010
0000
0000
0110
0000
0000
1000
0000
1000
0001
0000
0010
,
0100
0000
0000
0100
0000
0001
1000
0000
0100
0010
0000
0001
,
0100
0000
0000
0101
0000
0000
1000
0000
0100
0001
0000
0010
,
1000
0000
0100
0001
0000
0010
1000
0000
0100
0010
0000
0000
,
0001
0000
1000
0001
0000
0010
1000
0000
0100
0001
0000
0000
,
1000
0000
0010
0001
0000
0010
1000
0000
0000
0010
0000
0000
,
0100
0000
0010
0100
0000
0000
1000
0000
0001
1000
0000
0000
,
0001
0000
1000
0001
0000
0000
0100
0000
0010
0100
0000
0000
,
1000
0000
0100
0001
0000
0000
0001
0000
0010
1000
0000
0000
,
0001
0000
0100
0010
0000
0000
0010
0000
1000
0001
0000
0000
,
0010
0000
1000
0100
0000
0000
0001
0000
0010
1000
0000
0000
,
0001
0000
0010
1000
0000
0000
0010
0000
1000
0100
0000
0000
,
0001
0000
0001
1000
0000
0000
0001
0000
0001
0100
0000
0000
,
0010
0000
0001
0100
0000
0000
1000
0000
0010
1000
0000
0000
,
1001
0110
1001
0000
,
0200
0000
0000
0310
,
0110
1001
0110
0000
,
0200
0000
0000
0310
,
0101
1010
0110
0000
,
0020
0000
0000
0030
,
1010
0110
0101
0000
,
0200
0000
0000
0300
,
1000
0001
0100
0010
,
1000
0000
0010
1000
0000
0000
0001
0000
0010
0001
0000
0000
,
1000
0000
0000
0010
0000
0000
0100
0000
0000
0001
0000
1000
,
0010
0000
0000
0100
0000
0001
1000
0000
0000
0001
0000
0010
,
0100
0000
0000
0010
0000
0000
1000
0000
0000
0001
0000
0010
,
0100
0000
0000
0010
0000
0100
1000
0000
0000
0001
0000
0100
,
1000
0000
0000
0101
0000
0000
1001
0000
0000
1000
0000
0100
,
0001
0000
0000
0010
0000
0100
0010
0000
0000
0001
0000
0000
,
2002
0000
0000
0000
,
0000
0000
0000
0000
,
0000
0000
0000
0000
,
3003
0000
0000
0000
,
0001
0000
1000
0000
,
0010
0100
1000
0000
,
0001
0000
1000
0010
,
0100
0000
0001
0010
,
0100
0000
1000
0010
0000
0001
1000
0000
0010
0002
0000
0000
,
1000
0000
1000
0000
,
1003
0000
0000
0001
0000
1000
0100
0000
0000
0010
0000
0000
,
0100
0000
0001
0100
0000
1000
0100
0000
0001
0010
0000
0000
,
1000
0000
0010
0001
0000
0010
0100
0000
1000
0020
0000
0000
,
0130
0000
0100
1000
0000
0010
0001
0000
0010
0100
0000
1000
,
0010
1000
0001
0100
,
0010
0000
0100
1000
0000
0100
0001
0000
0010
1000
0000
0000
,
2002
0000
0000
0000
,
0000
0000
0000
0000
,
0000
0000
0000
3003
,
0010
0000
0100
0000
,
1000
0001
1000
0000
,
1001
0000
0010
0001
0100
0001
1000
0100
,
0010
0000
0100
0001
0010
0100
1000
0000
,
0001
0000
0010
1000
0001
0010
0100
0000
,
0001
1000
0100
1000
0010
1000
0100
0000
,
0010
0000
1000
0100
0001
0010
1000
0010
,
0001
0000
1000
0001
0100
0000
0010
0001
,
0100
0000
1000
0100
0001
1000
0010
0000
,
0100
0000
1000
0010
0001
0000
0010
1000
,
0001
0000
0100
0010
0001
1000
0010
0001
,
0100
0000
0010
1000
0100
0000
0010
1000
,
0001
0000
1000
0100
0010
0000
1000
0001
,
0010
0000
1000
0010
0001
0000
0100
0001
,
0010
0000
1000
0100
0001
0010
0100
1000
,
0010
0000
1000
0000
0100
0001
1000
0001
,
0100
0000
0010
1000
0001
0100
1000
0010
,
0100
0010
0000
0001
1000
0001
0000
1000
,
0001
1000
0000
0001
1000
0001
1000
0000
,
2002
0000
0000
0000
,
3003
0000
0000
0000
;
