#TITLE:トロいか2000;
#ARTIST:NAMCO Sound Team "LindaAI-CUE";
#TITLETRANSLIT:Toroica 2000;
#GENRE:ナムコオリジナル;
#MUSIC:Toroica 2000.ogg;
#BANNER:Toroica 2000.png;
#BACKGROUND:Toroica 2000-bg.png;
#CDTITLE:./CDTitles/NSD WORLD.png;
#SAMPLESTART:1.442;
#SAMPLELENGTH:15.000;
#SELECTABLE:YES;
#OFFSET:0.000;
#BPMS:0.000=624.000
,48.000=156.000
,81.000=624.000
,87.000=1248.000
,95.000=312.000
,96.000=156.000
,110.000=624.000
,116.000=312.000
,117.000=156.000
,130.000=624.000
,137.000=2496.000
,157.000=312.000
,221.000=156.000
,230.000=624.000
,238.000=156.000
,242.000=312.000
,248.000=624.000
,256.000=39.000
,257.000=78.000
,271.000=312.000
,275.000=78.000
,279.000=312.000
,286.000=624.000
,304.000=156.000
,310.000=312.000
,318.000=624.000
,334.000=156.000
,352.000=624.000
,360.000=156.000
,372.000=312.000
,378.000=156.000
,387.000=78.000
,388.000=156.000
,394.000=624.000
,402.000=156.000
,414.000=312.000
,450.000=156.000
,455.000=312.000
,463.000=156.000
,465.000=312.000
,467.000=156.000
,469.000=312.000
,473.000=156.000
;
#STOPS:473.000=1.154;
#DISPLAYBPM:156.000;
#BGCHANGES:;
#FGCHANGES:;

//--------------- dance-single - ----------------
#NOTES:
     dance-single:
     :
     Beginner:
     7:
     0,0,0,0,0:
0000
0000
0000
0000
,
0000
0000
0000
0000
,
0000
0000
0000
0000
,
0000
0000
0000
0000
,
4004
0000
0000
0000
,
0000
0000
0000
0000
,
0000
0000
0000
0000
,
0000
0000
0000
0000
,
0000
0000
0000
0000
,
0000
0000
0000
0000
,
0000
0000
0000
0000
,
0000
0000
0000
0000
,
3003
0000
0000
0000
,
0100
0000
1000
0000
,
0001
0000
0010
0000
,
0100
0000
0010
0000
,
1000
0000
0001
0000
,
0100
0000
0010
0000
,
0100
0000
1000
0000
,
0001
0000
1000
0000
,
0001
0000
0000
0000
,
0000
2000
0000
0000
,
0000
0000
0000
0002
,
0000
0000
0000
3003
,
0100
0010
0100
0000
,
1000
0000
0001
0000
,
0100
0010
1000
0000
,
0001
0000
1000
0000
,
0000
0000
0000
0000
,
0000
0001
0000
0100
,
0000
0010
0000
1000
,
0000
0001
0000
0010
,
0000
0100
0000
0000
,
0000
0000
0010
0000
,
0000
0000
0000
0000
,
0000
0200
0000
0000
,
0000
0000
0000
0000
,
0000
0000
0000
0000
,
0000
0000
0000
0000
,
0000
0310
0000
0010
,
0000
0100
0000
0000
,
0000
1000
0000
0001
,
0000
0100
0000
0000
,
0000
0010
0000
0100
,
0000
1000
0000
0000
,
0000
0001
0000
1000
,
0000
0001
0000
0000
,
0000
0100
0000
0010
,
0000
0100
0000
0000
,
0000
0001
0000
1000
,
0000
0001
0000
0000
,
0000
0100
0000
0010
,
0000
1000
0000
0000
,
0000
0001
0000
1000
,
0000
0001
0000
0000
,
0000
0010
0000
0100
,
0000
1000
0000
0001
,
0000
0000
1000
0000
,
0000
0000
0000
0000
,
0000
0000
0001
0010
,
0000
0100
0000
0000
,
2000
0000
0000
0000
,
0002
0000
0000
0000
,
0000
0000
0000
0000
,
3003
1000
0001
0100
,
0010
1000
0001
0010
,
0100
0010
1000
0001
,
0010
1000
0001
0100
,
0000
0000
0000
0010
,
0100
1000
0001
0010
,
0000
0000
0000
1000
,
0000
0000
0001
0000
,
0000
0000
1000
0000
,
0000
0000
1001
0000
,
0000
0000
0000
0000
,
0000
0000
0000
0000
,
0010
0000
0100
0000
,
1000
0000
0002
0000
,
0000
0000
0000
0000
,
0000
0000
2000
0000
,
0000
0000
0000
0000
,
0000
0000
0000
0000
,
0000
0000
0000
0000
,
0000
0000
3003
0000
,
0000
0000
0010
0000
,
1000
0000
0001
0000
,
0100
0000
1000
0000
,
0001
0000
1000
0000
,
0001
0000
0000
0000
,
0000
0000
0000
0000
,
1000
0000
0100
0000
,
0010
0000
1000
0000
,
0010
0000
0100
0000
,
1000
0000
0000
0000
,
0001
0000
0010
1000
,
0000
0001
0000
0100
,
0000
0010
0100
1000
,
0001
0000
0100
0000
,
0010
1000
0001
0000
,
0000
0000
0000
0000
,
0000
0000
0100
0000
,
0010
0000
1000
0100
,
0001
0010
0100
1000
,
0001
1000
0001
0000
,
0000
0000
1000
0000
,
0001
0000
0100
0000
,
0010
0000
0100
0000
,
1000
0000
0001
0000
,
0100
0000
0010
0000
,
0100
0000
1000
0000
,
0001
0000
0100
0000
,
0010
0000
1000
0000
,
0001
0000
0100
0010
,
0100
0000
1000
0001
,
0000
0100
0000
0000
,
0000
0010
0000
0100
,
1000
0001
0000
1000
,
0001
1000
0000
0001
,
0000
0000
4004
0000
,
0000
0000
0000
0000
,
0000
0000
0000
3003
0000
0000
0000
0000
;

//--------------- dance-single - ----------------
#NOTES:
     dance-single:
     :
     Easy:
     10:
     0,0,0,0,0:
0000
0000
0000
0000
,
0000
0000
0000
0000
,
0000
0000
0000
0000
,
0000
0000
0000
0000
,
4004
0000
0000
0000
,
0000
0000
0000
0000
,
0000
0000
0000
0000
,
0000
0000
0000
0000
,
0000
0000
0000
0000
,
0000
0000
0000
0000
,
0000
0000
0000
0000
,
0000
0000
0000
0000
,
3003
0000
0000
0000
,
0100
1000
0001
0000
,
0100
0010
1000
0000
,
0001
0100
0010
0000
,
1000
0001
0100
0000
,
0010
0001
0010
0000
,
1000
0001
0100
0000
,
0010
0100
1000
0001
,
1000
0000
0000
0000
,
0000
0020
0000
0000
,
0000
0000
0000
0200
,
0000
0000
0000
0330
,
1000
0010
0100
0000
,
0001
1000
0001
0000
,
0100
0010
1000
0000
,
0001
0100
0010
0000
,
0000
0000
0000
0000
,
0000
1000
0001
0100
,
0000
0010
0100
1000
,
0000
0001
1000
0001
,
0100
1000
0000
0000
,
0000
0000
0000
0000
,
0000
0000
0000
0000
,
0000
0200
0300
0000
,
0000
0000
0000
0000
,
0000
0200
0300
0000
,
0000
0000
0000
0000
,
0002
0003
0000
0100
,
0000
1000
0000
0001
,
0000
0100
0000
0010
,
0000
1000
0000
0001
,
0000
0100
0000
0010
,
0000
0001
0000
0010
,
0000
0100
0000
1000
,
0000
0001
0000
0100
,
0000
0010
0000
0100
,
0000
1000
0000
0001
,
0000
0100
0000
0010
,
0000
0001
0000
0010
,
0000
0100
0000
1000
,
0000
0001
0000
0100
,
0000
1001
0000
0100
,
0000
0110
0000
0000
,
0000
0001
0000
1000
,
0000
0001
0000
0100
,
0000
0010
0000
0000
,
0000
0000
0000
0000
,
0000
0000
1001
0100
,
0000
1000
0001
0000
,
2000
0000
0000
0000
,
0002
0000
0000
0000
,
0000
0000
3003
0000
,
1001
0000
0100
1000
0010
0000
1000
0010
,
0001
0000
1000
0001
0100
0000
0010
0001
,
0010
0000
1000
0100
0010
0000
0001
1000
,
0100
0000
0001
0100
0010
0000
1000
0000
,
0000
0000
0000
0001
,
1000
0010
0001
0000
1000
0001
0100
0000
,
0000
0000
0000
1000
,
0000
0000
0001
0000
,
0000
0000
1000
0000
,
0000
0000
1001
0000
,
0000
0000
0000
0000
,
0000
0000
0000
0000
,
0100
0000
1000
0000
,
0001
0000
1002
0000
,
0000
0000
0000
0000
,
0000
0000
2003
0000
,
0000
0000
0000
0000
,
0000
0000
0000
0000
,
0000
0000
0000
0000
,
0000
0000
3001
0000
,
0000
0000
0100
1000
,
0010
0001
1000
0001
,
0100
0010
1000
0001
,
0100
0010
1000
0001
,
0100
0000
0000
0000
,
1000
0000
0000
0000
,
0001
0100
0010
1000
,
0001
0100
0010
0001
,
0010
0100
1000
0001
,
1000
0000
0001
0000
,
0100
0010
1000
0001
,
0100
1000
0001
0100
,
0010
0000
1000
0000
0001
1000
0001
0100
,
0010
1000
0001
0100
,
0010
0000
1000
0010
0001
0000
0000
0000
,
0000
0000
1000
0000
,
0000
0000
0001
0100
,
0010
0000
1000
0000
0001
1000
0100
0000
,
0010
1000
0001
0000
1000
0000
0001
0000
,
0100
0010
1000
0000
,
0001
0000
1000
0001
,
1000
0000
0100
0000
,
0010
0000
0100
0000
,
0010
0000
1000
0001
,
0100
0000
0001
1000
,
0001
0000
0100
0010
,
0100
0000
1000
0000
,
0001
0000
0100
0010
,
0100
0000
1000
0001
,
0100
0010
0100
1000
,
0001
1000
0000
0100
,
0010
0100
0000
1000
,
0001
0100
1000
0001
,
0100
0010
0000
1000
,
0000
0001
4004
0000
,
0000
0000
0000
0000
,
0000
0000
0000
3003
0000
0000
0000
0000
;

//--------------- dance-single - ----------------
#NOTES:
     dance-single:
     :
     Medium:
     14:
     0,0,0,0,0:
0000
0000
0000
0000
,
0000
0000
0000
0000
,
0000
0000
0000
0000
,
0000
0000
0000
0000
,
1000
0001
1000
0001
1000
0001
1000
0001
,
1000
0001
1000
0001
1000
0001
1000
0001
,
1000
0001
1000
0001
1000
0001
1000
0001
,
1000
0001
1000
0001
1000
0001
1000
0001
,
1000
0001
1000
0001
1000
0001
1000
0001
,
1000
0001
1000
0001
1000
0001
1000
0001
,
1000
0001
1000
0001
1000
0001
1000
0001
,
1000
0001
1000
0001
1000
0001
1000
0001
,
0110
0000
0000
0000
,
0001
1000
0100
0001
0010
0000
0100
0000
,
1000
0001
0100
0010
0100
0000
1000
0000
,
0001
0010
0100
1000
0001
0000
0010
0000
,
0100
0001
0001
0010
0100
0000
1000
0000
,
0001
1000
0001
0100
0010
0000
0100
0000
,
0001
0010
0100
1000
0001
0000
0010
0100
,
0010
0000
1000
0001
0100
0010
1000
0001
,
2000
3000
0000
0000
,
0000
0002
0000
0003
,
0000
0000
0000
2002
,
0000
3003
0000
0000
,
0001
0100
1000
0001
0100
0000
0100
0000
,
0010
0100
1000
0001
0100
0000
0010
0000
,
0100
0001
0010
0100
1000
0000
1001
0000
,
0100
0010
0100
1000
0001
0000
0000
0000
,
1000
0000
0001
0000
,
1000
0000
0010
1000
0100
0001
0100
0000
,
0010
0000
0100
0010
0100
1000
0001
0000
,
0101
0000
0010
0100
1000
0001
0100
0000
,
0010
0100
1000
0000
0000
0000
0000
0000
,
0000
0000
0010
0000
,
0000
0000
0000
0000
,
0000
0200
0300
0000
,
0000
0000
0000
0000
,
0000
0200
0300
0000
,
0000
0000
0000
0000
,
0002
0003
0100
1000
,
0100
0001
0010
0100
,
1000
0001
0100
0010
,
0100
1000
0001
0100
,
0010
1000
0100
0000
0010
0000
1000
0000
,
0001
0010
0100
0010
,
0100
1000
0001
0010
,
0100
0000
0001
0000
0100
0000
0010
0001
,
0100
0001
0100
0010
,
1000
0010
1000
0010
,
0100
0001
1000
0100
,
1000
0100
1000
0001
,
0010
1000
0001
0000
0010
0000
0001
0000
,
0100
0010
1000
0100
,
1000
0000
0100
0001
1000
0000
0010
0000
,
0100
0000
0010
1000
0100
0000
0010
0000
,
1000
0000
0100
1000
0010
0000
0100
0001
,
1000
0000
0001
0100
1000
0000
0001
1000
,
0100
0000
0010
0001
0100
0000
0000
0000
,
0000
0000
0000
0000
,
2000
0000
3002
0000
1003
0000
0001
1000
,
0100
0000
0001
1000
0010
0000
0000
0000
,
0200
0000
0000
0000
,
0320
0000
0000
0000
,
0000
0000
0000
0000
,
0130
0000
1000
0001
0100
0010
1000
0001
,
0100
0000
0010
0000
0100
0010
1000
0000
0001
0000
0010
0000
0100
0001
0010
0000
,
1000
0000
0001
0000
0100
0001
0100
0000
1000
0000
0001
0000
0100
1000
0001
0000
,
0100
0000
0010
0000
1000
0001
0100
0000
0010
0100
1000
0000
1001
0000
0000
0000
,
0000
0000
0000
0110
,
0010
0100
0100
0000
1000
0000
0001
0000
0100
1000
0001
0000
0100
0000
0000
0000
,
0000
0010
0000
1001
,
0000
0000
0101
0000
,
0000
0000
1001
0000
,
0000
0000
0110
0000
,
0000
0000
0000
0000
,
0000
0000
0000
0000
,
0110
0100
0010
1000
,
0001
0100
1000
0100
,
1000
0001
0001
0010
,
0100
0001
2002
0000
,
0000
0000
0000
0000
,
0000
0000
0000
0000
,
0000
0000
0000
0000
,
0000
3003
0110
0000
,
0000
0000
1000
0100
,
0001
0010
1000
0100
,
0010
1000
0001
0100
,
0010
1000
0001
0100
,
1000
0000
0000
0000
,
0001
0000
0000
0000
,
1000
0100
0001
0000
0100
0000
0010
0000
,
1000
0100
0001
0000
0100
0000
0010
0000
,
1000
0010
0001
0000
0100
0000
0010
0000
,
1000
0100
0001
0000
,
0100
0000
0001
1000
0100
0000
0001
0000
,
1000
0000
0001
1000
0100
0000
0010
0000
,
1000
0000
0000
0000
0001
0000
0010
1000
0100
0000
0000
0000
2000
0000
0010
0000
,
3001
0000
0100
0000
0010
0000
0100
0001
,
1000
0100
0001
1000
0200
0000
0000
0000
,
0000
0000
0010
0000
,
0000
0000
0000
0000
0301
1000
0100
0010
,
0100
1000
0010
0100
0010
1000
0001
0010
,
0100
0010
0001
0010
0100
1000
0100
1000
,
0100
0010
0001
1000
0100
0000
1000
0000
,
0001
0100
0010
0100
,
1000
0001
0100
0010
,
0100
1000
0001
0100
,
0010
0100
1000
0001
,
0100
0010
0100
0001
,
0010
0100
1000
0010
,
0100
0001
0100
1000
,
0001
0100
0010
0100
,
1000
0000
0001
0000
0100
1000
0001
0100
,
0010
0100
1000
0001
0100
0010
0100
0000
,
1000
0001
0100
0010
,
0100
0000
1000
0000
0001
0000
0100
0010
,
1000
0100
0001
0000
1000
0000
0001
1000
,
0010
1000
0100
0000
0010
0000
0001
0000
,
0200
0300
4004
0000
,
0000
0000
0000
0000
,
0000
0000
0000
3003
0000
0000
0000
0000
;

//--------------- dance-single - ----------------
#NOTES:
     dance-single:
     :
     Hard:
     18:
     0,0,0,0,0:
0000
0000
0000
0000
,
0000
0000
0000
0000
,
0000
0000
0000
0000
,
0000
0000
0000
0000
,
1000
0001
1000
0001
1000
0001
1000
0001
,
1000
0001
1000
0001
1000
0001
1000
0001
,
1000
0001
1000
0001
1000
0001
1000
0001
,
1000
0001
1000
0001
1000
0001
1000
0001
,
1000
0001
1000
0001
1000
0001
1000
0001
,
1000
0001
1000
0001
1000
0001
1000
0001
,
1000
0001
1000
0001
1000
0001
1000
0001
,
1000
0001
1000
0001
1000
0001
1000
0001
,
0110
0000
0000
0000
,
0001
0000
0000
0001
0010
0000
1000
0000
0010
0000
0000
0000
0000
0000
0000
0000
,
1000
0000
0000
1000
0100
0000
0001
0000
0100
0000
0000
0000
0000
0000
0000
0000
,
0001
0000
0000
0001
0010
0000
1000
0000
0010
0000
0000
0000
0000
0000
0000
0000
,
1000
0000
0000
1000
0100
0000
0001
0000
0100
0000
0000
0000
1000
0000
0000
0000
,
0001
0000
0000
0001
0010
0000
1000
0000
0010
0000
0000
0000
0000
0000
0000
0000
,
1000
0000
0000
1000
0100
0000
0001
0000
0100
0000
0000
0000
0000
0000
0000
0000
,
0001
0000
0000
0001
0010
0000
1000
0000
0010
0000
0000
0000
0000
0000
0000
0000
,
2000
3000
0000
0000
,
0000
0002
0000
0003
,
0000
0000
0000
2002
,
0000
3003
0000
0000
,
0001
0000
1000
0001
0100
0000
0001
0000
0010
0000
1000
0000
0100
0000
0000
0000
,
1000
0000
0001
1000
0010
0000
1000
0000
0100
0000
0001
0000
0010
0000
0000
0000
,
0001
0000
1000
0001
0100
0000
0001
0000
0010
0000
1000
0000
0100
0000
0000
0000
,
1000
0000
0001
1000
0010
0000
1000
0000
0100
0000
0000
0000
0000
0000
0000
0000
,
1000
0010
0001
1000
,
0001
0000
0000
0000
0001
0000
1000
0001
0100
0000
0001
0000
0010
0000
1000
0000
,
0100
0000
0000
0000
1000
0000
0001
1000
0010
0000
1000
0000
0100
0000
0001
0000
,
1000
0000
0000
0000
0001
0000
1000
0001
0100
0000
0001
0000
0010
0000
1000
0000
,
0010
0200
0300
0000
,
0000
0000
0020
0000
,
0000
0030
0000
0000
,
0000
2002
3003
0000
,
0000
2002
3003
0000
,
0000
2002
3003
0000
,
0000
2002
3003
0000
,
0000
0000
0100
0010
0001
0100
0010
1000
,
0001
0100
0001
0100
0001
1000
0010
0100
,
0001
0010
0100
0010
0100
0010
0001
1000
,
0001
1000
0001
0010
0100
0010
0001
0010
,
0001
0100
0001
0100
0010
0100
0001
1000
,
0010
1000
0010
1000
0100
0010
0100
1000
,
0010
1000
0010
0100
0001
0010
0100
0010
,
0100
0010
0001
1000
0100
1000
0100
0010
,
0100
0010
0001
0010
0001
0100
0001
0010
,
0100
0010
0001
1000
0010
1000
0001
0010
,
0001
0010
0100
0010
0001
1000
0001
0010
,
0100
0010
0100
1000
0010
0100
0001
1000
,
0100
1000
0001
1000
0010
0100
0001
0100
,
0010
1000
0100
0010
0001
0010
0001
1000
,
0100
1000
0001
0100
0010
1000
0100
0010
,
0001
1000
0001
1000
0001
0100
0010
1000
,
0100
0000
0010
0000
0100
0000
0001
0000
1000
0000
0001
0000
1000
0001
1000
0000
,
0100
0000
0010
0000
0100
0010
0100
0000
0010
0000
0000
0000
1000
0001
0100
0000
,
0010
0000
0100
0000
1000
0010
0100
0000
0010
0000
0000
0000
0000
0000
0000
0000
,
0000
0000
0000
0000
,
1000
0000
0100
0000
0001
0000
0010
0000
0100
0000
0000
0000
1000
0100
0010
0000
,
0100
0000
0001
0000
1000
0100
0000
0010
0001
0000
0000
0000
0000
0000
0000
0000
,
0001
0010
0001
1000
0100
1000
0001
0100
,
0100
0010
0100
1000
0010
0100
0001
0100
,
0010
1000
0001
0100
0001
1000
0001
1000
,
1001
0000
0000
0000
0000
0000
0000
0000
0001
0000
1000
0001
1000
0001
0000
1000
0010
0000
0001
1000
0001
0000
1000
0000
1000
0000
0001
1000
0001
1000
0000
0001
,
0100
0000
1000
0001
1000
0000
0001
0000
0001
0000
1000
0001
1000
0001
0000
1000
0010
0000
0001
1000
0001
0000
1000
0000
1000
0000
0001
1000
0001
1000
0000
0001
,
0100
0000
1000
0001
1000
0000
0001
0000
0001
0000
1000
0001
1000
0001
0000
1000
0010
0000
0001
1000
0001
0000
1000
0000
1000
0000
0001
1000
0001
1000
0000
0001
,
0100
0000
1000
0001
1000
0000
0001
0000
0001
0000
1000
0001
1000
0001
0000
1000
0010
0000
0001
1000
0001
0000
1000
0000
1000
0000
0000
0000
0000
0000
0000
0000
,
0000
0000
0000
0110
,
1000
0000
0001
0000
0000
1000
0001
0000
1000
0000
0010
0000
0001
0000
1000
0000
0001
1000
0010
0100
0001
0000
1000
0000
0010
0000
0000
0000
0000
0000
0000
0000
,
0000
0000
0000
1001
,
0000
0000
0101
0000
,
0000
0000
1001
0000
,
0000
0000
0110
0000
,
0000
0000
0000
0000
,
0000
0000
0000
0000
,
0110
0000
0000
0000
0100
0010
0001
0010
,
0100
1000
0010
0100
0001
0010
0100
1000
,
0100
0010
0100
0010
0001
0010
0001
1000
,
0100
1000
0001
0010
0100
0000
1000
0000
,
0001
0100
0001
0010
,
0100
1000
0001
0010
,
0100
0010
0001
1000
,
0001
0000
1000
0000
0110
1001
0000
0000
,
0000
0000
0000
0000
0000
0000
0000
0000
0000
0000
0000
0000
0000
0000
0000
0000
0001
1000
0000
0000
0100
0000
0000
0000
0001
1000
0000
0000
0010
0000
0000
0000
,
0100
0010
0000
0000
1000
0000
0000
0000
0010
0100
0000
0000
0010
0000
0000
0000
1000
0001
0000
0000
0100
0000
0000
0000
1000
0001
0000
0000
0010
0000
0000
0000
,
0010
1000
0000
0000
0100
0000
0000
0000
0001
0010
0000
0000
0100
0000
0000
0000
0001
1000
0000
0000
0100
0000
0000
0000
0001
1000
0000
0000
0010
0000
0000
0000
,
0001
1000
0000
0000
0010
0000
0000
0000
1000
0001
0000
0000
0100
0000
0000
0000
1000
0001
0000
0000
0010
0000
0000
0000
0001
1000
0000
0000
0010
0000
0000
0000
,
1000
0000
0000
0010
,
1000
0001
0100
0010
,
0001
1000
0000
0000
0100
0000
0000
0000
0001
1000
0000
0000
0010
0000
0000
0000
0100
0010
0000
0000
1000
0000
0000
0000
0010
0100
0000
0000
0010
0000
0000
0000
,
1000
0001
0000
0000
0100
0000
0000
0000
1000
0001
0000
0000
0010
0000
0000
0000
0010
1000
0000
0000
0100
0000
0000
0000
0001
0010
0000
0000
0100
0000
0000
0000
,
0001
1000
0000
0000
0100
0000
0000
0000
0001
1000
0000
0000
0010
0000
0000
0000
0001
1000
0000
0000
0010
0000
0000
0000
1000
0001
0000
0000
0100
0000
0000
0000
,
1000
0000
0100
0000
0010
0000
0000
0000
0100
0010
0001
0010
0100
1000
0001
0100
,
0010
0100
0001
1000
0001
0010
0100
1000
0001
1000
0010
1000
0001
0100
0001
1000
,
0010
0100
0010
0100
0001
1000
0100
1000
0100
0010
0100
0010
0001
0100
0010
0100
,
0010
0000
0000
0000
0100
0000
0000
0000
0001
0000
0000
0000
1000
0000
0000
0000
0010
0000
0000
0000
1000
0000
0000
0000
0010
0000
0000
0000
1000
0000
0000
0000
0100
0000
0000
0000
0010
0000
0000
0000
0100
0000
0000
0000
1000
0000
0000
0000
0001
1000
0001
1000
0001
1000
0001
1000
0010
0100
0010
0100
0010
0100
0010
0100
,
0010
0010
0001
0010
0001
0010
0100
1000
0001
0100
0010
1000
0001
0100
0010
0100
,
0010
1000
0100
1000
0010
1000
0100
0000
0001
0000
0010
0000
0100
0000
0010
0000
,
0100
1000
0100
0010
0001
1000
0001
1000
,
0100
0000
1000
0000
0100
0000
0010
0000
0001
1000
0100
0010
0100
1000
0100
0010
,
0001
0010
0001
0100
0010
0100
0001
0100
0010
1000
0100
0010
0001
0010
0100
0010
,
0001
0100
0001
1000
0010
0100
0001
1000
0010
1000
0100
0010
0001
1000
0010
1000
,
0001
0100
0001
1000
0100
0010
0100
1000
0000
0000
0000
0000
0001
0000
1000
0000
,
0100
0010
0100
0010
0100
1000
0001
0010
,
0001
0010
0100
0010
0001
0100
0001
1000
,
0001
1000
0010
1000
0010
0100
0010
1000
,
0100
1000
0001
0100
0010
1000
0001
1000
,
0100
1000
0001
0100
0010
1000
0001
0100
,
0010
1000
0100
0010
0100
0010
0100
1000
,
0001
0000
0010
0000
0001
0000
1000
0000
0010
1000
0010
1000
0100
1000
0001
0010
,
0100
1000
0100
1000
0010
1000
0100
0010
0001
0010
0001
0100
0010
0100
0010
0100
,
0001
1000
0010
1000
0100
0001
0010
0100
0010
0100
0001
0010
0001
0010
0001
1000
,
0100
1000
0010
0100
0001
0100
0010
0100
0010
1000
0010
1000
0001
0100
0010
0100
,
0001
0100
0010
1000
0100
0010
0100
1000
0001
1000
0001
0010
0001
1000
0010
1000
,
0010
1000
0100
0010
0100
0010
0100
1000
0001
0100
0001
0010
0001
1000
0100
1000
,
0001
0100
0010
1000
0001
1000
0010
0100
0010
1000
0010
1000
0100
0010
0001
1000
,
0001
0100
0001
0100
0010
0100
0010
1000
0010
0100
0001
1000
0010
0100
0001
0100
,
0010
0000
0100
0000
0001
0000
1000
0000
0010
0000
0000
0000
0000
0000
0000
0000
4000
3004
4003
3004
4003
3004
4003
3004
4003
3004
4003
3004
4003
3004
4003
3004
,
4003
3004
4003
3004
4003
3004
4003
3004
4003
3004
4003
3004
4003
3004
4003
3004
4003
3004
4003
3004
4003
3004
4003
3004
4003
3004
4003
3004
4003
3004
4003
3004
,
4003
3004
4003
3004
4003
3004
4003
3004
4003
3004
4003
3004
4003
3000
0000
0000
0000
0000
0000
0000
0000
0000
0000
0000
0000
0000
0000
0000
0000
0000
0000
0000
;
