#TITLE:Team Hot Wheels Theme Song;
#SUBTITLE:映画「Team Hot Wheels:The Origin of Awersome!」;
#ARTIST:Linus Dotson, Gabriel Mann;
#SUBTITLETRANSLIT:Movie「Team Hot Wheels:The Origin of Awersome!」;
#GENRE:キッズ;
#MUSIC:Team Hot Wheels Theme Song.ogg;
#BANNER:Team Hot Wheels Theme Song.png;
#BACKGROUND:Team Hot Wheels Theme Song-bg.png;
#CDTITLE:./CDTitles/NSD WORLD.png;
#SAMPLESTART:5.696;
#SAMPLELENGTH:15.000;
#SELECTABLE:YES;
#OFFSET:0.000;
#BPMS:0.000=210.000;
#STOPS:;
#BGCHANGES:;
#FGCHANGES:;

//--------------- dance-single - ----------------
#NOTES:
     dance-single:
     :
     Beginner:
     2:
     0,0,0,0,0:
0000
0000
0000
0000
,
0000
0000
0000
0000
,
0000
0000
0000
0000
,
0000
0000
0000
0000
,
1000
0000
0000
0000
,
0001
0000
0000
0000
,
0000
0000
1000
0000
,
0001
0000
0000
0000
,
0000
0000
0010
0000
,
0100
0000
0000
0000
,
0000
1000
0000
0000
,
0001
0000
0000
0000
,
0000
0010
0000
0000
,
1000
0000
0000
0000
,
0000
0000
0001
0000
,
0100
0000
0000
0000
,
0000
0000
0010
0000
,
0100
0000
0000
0000
,
0000
0000
0001
0000
,
1000
0000
0000
0000
,
0000
0010
0000
0000
,
1000
0000
0000
0000
,
1000
0000
0000
0000
,
1000
0000
0000
0000
,
0001
0000
0000
0000
,
0001
0000
0000
0000
,
0001
0000
0000
0000
,
0000
0010
0000
0010
,
0000
0010
0000
0000
,
1000
0000
0000
0000
,
0000
0000
0000
0000
,
0001
0000
0000
0000
,
0000
0000
0000
0000
,
0010
0000
0100
0000
,
0010
0000
0000
0000
,
0000
1000
0000
0001
,
0000
1000
0000
0000
,
0010
0000
0100
0000
,
1000
0000
0000
0000
,
0001
0000
1000
0000
,
0001
0000
0000
0000
,
0010
0000
0100
0000
,
0010
0000
0000
0000
,
0001
0000
1000
0000
,
0001
0000
0000
0000
,
0100
0000
1000
0000
,
0001
0000
0000
0000
,
0020
0000
0030
0000
,
0200
0000
0000
0000
,
0300
0000
0000
0000
,
1000
0000
0001
0000
,
1000
0000
0001
0000
,
1001
0000
0100
0000
,
0000
0000
0010
0000
,
0001
0000
1000
0000
,
0000
0000
0001
0000
,
1000
0000
0001
0000
,
0000
0000
0100
0000
,
0010
0000
1000
0000
,
0000
0001
0000
1000
,
0001
0000
0100
0000
,
0000
0000
0010
0000
,
0100
0000
1000
0000
,
0000
0000
0001
0000
,
1000
0000
0100
0000
,
0000
0010
0000
0000
,
0100
0000
0000
0000
,
2002
0000
0000
0000
,
0000
0000
0000
0000
,
0000
0000
0000
0000
,
0000
0000
0000
0000
,
0000
0000
0000
0000
,
0000
0000
0000
0000
0000
3003
0000
0000
;

//--------------- dance-single - ----------------
#NOTES:
     dance-single:
     :
     Easy:
     4:
     0,0,0,0,0:
0000
0000
0000
0000
,
0000
0000
0000
0000
,
0000
0000
0000
0000
,
0000
0000
0000
0000
,
0002
0000
1003
0000
,
0100
0000
0100
0000
,
0000
0001
1000
0000
,
0100
0000
0100
0000
,
0000
0001
1000
0000
,
0100
0000
0100
0000
,
0000
0001
1000
0000
,
0010
0000
0010
0000
,
0000
1000
0001
1000
,
0010
0000
0010
0000
,
0000
1000
0001
0000
,
0010
0000
0010
0000
,
0000
0100
1000
0000
,
0100
0000
0010
0000
,
0000
0001
1000
0000
,
0001
0000
0000
0000
,
0000
1000
1001
0000
,
0100
0000
0100
0000
,
0010
0000
0000
0000
,
0001
0000
0001
0000
,
0001
0000
0000
0000
,
1000
0000
0001
0000
,
1000
0000
0000
0000
,
0010
0000
0010
0000
,
0010
0000
0000
0000
,
0100
0000
1000
0000
,
0001
0000
0000
0000
,
0010
0000
0100
0000
,
0010
0000
0000
0000
,
1000
0000
0001
0000
,
1000
0000
0000
0000
,
0010
0000
0100
0000
,
1000
0000
0000
0000
,
0002
0000
0000
0003
,
0000
0000
0010
0000
,
2000
0000
0000
3000
,
0000
0000
0010
0000
,
0001
0000
0000
0000
,
1000
0000
0000
0000
,
0001
0000
0000
0000
,
0100
0000
0010
0000
,
0100
0000
0000
0000
,
1000
0000
0000
0000
,
0001
0000
0000
0000
,
2002
0000
0000
0000
,
3003
0000
0000
0000
,
0100
0000
0010
0000
,
0100
0010
0100
0010
,
1001
0000
1000
0000
,
0000
0001
1000
0000
,
0100
0000
0010
0000
,
0000
0001
1000
0000
,
0100
0000
0010
0000
,
0000
0001
1000
0000
,
0001
0000
0000
0000
,
0000
1000
0001
1000
,
0010
0000
0100
0000
,
0000
0001
1000
0000
,
0010
0000
0100
0000
,
0000
0001
1000
0000
,
0100
0000
0010
0000
,
0000
0001
1000
0000
,
0001
0000
0000
0000
,
1001
0000
0000
0000
;

//--------------- dance-single - ----------------
#NOTES:
     dance-single:
     :
     Medium:
     8:
     0,0,0,0,0:
0000
0000
0000
0000
,
0000
0000
0000
0000
,
0000
0000
0000
0000
,
0000
0000
0000
0000
,
0020
0000
0130
1000
,
0001
0010
0100
0000
,
1000
0001
1000
0000
,
0100
0010
0001
0000
,
1000
0001
0100
0000
,
0010
1000
0001
0000
,
0100
0010
1000
0000
,
0001
1000
0001
0000
,
0100
1000
0001
0000
,
1000
0001
0100
0000
,
0010
0100
1000
0000
,
0001
1000
0001
0000
,
0100
0010
1000
0000
,
0001
1000
0001
0000
,
0100
0010
1000
0000
,
0001
1000
0001
0000
,
0010
0000
0110
0000
,
1000
0001
1000
0000
,
0001
0100
0010
0000
,
1000
0001
0100
0000
,
0010
0000
0000
0000
1000
0000
0000
0002
,
0000
1003
0010
0100
,
0000
0000
1000
0000
0001
0000
1000
0001
,
0000
0010
0100
1000
,
0000
0001
1000
0001
,
1000
0000
0010
0000
,
0100
0000
0001
0000
,
1000
0000
0001
0000
,
0100
0000
0000
0000
0001
0000
0000
1001
,
0000
0100
0000
0010
,
0000
0000
0100
0000
0000
0000
0100
1000
,
0000
0100
0000
0001
,
0000
1000
0001
1000
,
0001
0100
0010
0100
,
1000
0000
0001
0000
0100
0000
0000
1001
,
0000
0001
0100
0010
,
0000
1000
0001
0100
,
0010
0000
0100
0000
1000
0000
0000
0101
,
0000
0000
1000
0000
0001
0000
0000
1001
,
0000
1000
0001
0010
,
0100
0000
1000
0001
,
0100
0000
0010
0000
0100
0000
0000
1000
,
0000
0001
0100
0000
,
0020
0000
2030
0000
,
3020
0000
0000
0230
,
0000
0000
0000
0000
,
0310
0000
0001
0000
,
1000
0001
1000
0001
,
1001
0100
0010
0000
,
0000
0001
1001
0000
,
0100
0010
1000
0001
,
0100
0010
1001
0000
,
0100
0010
0001
0010
,
0100
1000
0001
0000
,
1000
0001
0100
0000
,
1000
0001
0100
0010
,
1000
0001
0100
0000
,
0010
0100
1000
0000
,
0001
1000
0001
0100
,
0000
0010
0100
1000
,
0001
0100
0010
0000
,
0001
0100
0010
0000
,
1000
0001
1000
0001
,
1001
0000
0000
0000
;

//--------------- dance-single - ----------------
#NOTES:
     dance-single:
     :
     Hard:
     13:
     0,0,0,0,0:
0000
0000
0000
0000
,
0000
0000
0000
0000
,
0000
0000
0000
0000
,
0000
0000
0000
0000
,
0020
0000
1030
0100
,
1000
0010
0100
0010
,
1000
0001
1001
0000
,
0100
0010
0001
0010
,
0100
1000
1001
0000
,
0100
0010
1000
0001
,
0100
0010
1001
0000
,
0100
0010
0001
0010
,
0100
1000
0001
1001
,
0100
0010
0001
1000
,
0010
0100
0101
0000
,
1000
0001
0100
0010
,
0001
0010
1010
0000
,
0010
0100
0010
0001
,
0010
0100
0110
0000
,
1000
0001
0100
0010
,
1000
0000
0001
1000
0001
1000
0001
1000
,
0001
0000
0010
0000
1000
0010
0001
0000
,
0100
0010
0001
1000
,
0010
0100
1000
0000
0001
0000
1000
0001
,
0010
0100
0010
1000
0100
0001
0000
1002
,
0000
1003
0100
1000
,
0001
0000
0100
0001
0010
1000
0001
0020
,
0000
1030
0100
0001
,
0010
1000
0001
0000
0010
0100
1000
0000
,
0100
0010
0001
0000
1000
0010
0100
0000
,
0001
1000
0001
0000
0100
0010
0100
0000
,
1000
0001
0010
0000
0100
1000
0001
0000
,
0010
0100
0001
0000
0010
0100
0000
1001
,
0000
0000
0010
0001
0100
0000
1000
0100
,
0001
0000
0010
0001
1000
0100
0001
0020
,
0000
0000
1030
0000
0100
1000
0001
0000
,
0100
0001
0100
0010
0100
1000
0002
0000
,
1003
0000
0100
0000
0010
0100
1000
0100
,
0001
0000
1000
0000
0001
0100
0010
2000
,
0000
0000
3001
0000
0010
0100
1000
0001
,
0000
0010
0100
1000
0000
0001
0100
0010
,
1000
0001
0010
0100
1000
0000
0001
1000
,
0000
0100
0010
0001
0010
0100
0000
1001
,
0000
0000
1000
0000
0001
0010
0100
0000
,
0001
0010
0100
0000
1000
0001
0010
0000
,
0100
0000
1000
0010
0001
0100
1000
0001
,
0100
0000
1000
0000
0001
2000
0000
0000
,
3002
0000
0203
0000
,
0320
0000
0000
2030
,
0000
0000
0000
0000
,
3001
0000
0110
0000
,
0001
0100
0010
1000
,
0001
0100
0010
0100
,
0001
1000
1001
0100
,
0010
0100
1000
0100
,
0010
0001
1001
0100
,
0010
0100
0001
1000
,
0010
0100
1001
0100
,
0010
0100
1000
0100
,
0010
0001
1000
1001
,
0010
0100
1000
0001
,
0100
0010
1010
0100
,
0001
1000
0010
0100
,
1000
0100
0101
0010
,
0100
0010
0100
1000
,
0100
0010
0110
1000
,
0001
1000
0010
0100
,
1001
0000
0000
0000
;
