
//----- song ID: tmnt -----//
#TITLE:TMNT Theme Song;
#SUBTITLE:TVアニメ「Teenage Mutant Ninja Turtles」;
#ARTIST:SEBASTIAN EVANS II;
#SUBTITLETRANSLIT:TV Anime「Teenage Mutant Ninja Turtles」;
#GENRE:アニメ;
#MUSIC:TMNT Theme Song.ogg;
#BANNER:TMNT Theme Song.png;
#BACKGROUND:TMNT Theme Song-bg.png;
#CDTITLE:./CDTitles/NSD WORLD.png;
#SAMPLESTART:4.294;
#SAMPLELENGTH:15.000;
#SELECTABLE:YES;
#OFFSET:0.000;
#BPMS:0.000=111.511;
#STOPS:;
#BGCHANGES:;
#FGCHANGES:;

//--------------- dance-single - ----------------
#NOTES:
     dance-single:
     :
     Beginner:
     1:
     0,0,0,0,0:
0000
0000
0000
0000
,
0000
0000
0000
0000
,
0010
0000
0000
0000
,
0010
0000
0000
0000
,
0100
0000
0000
0000
,
0100
0000
0000
0000
,
1000
0000
0000
0000
,
1000
0000
0000
0000
,
0001
0000
0000
0000
,
0001
0000
0000
0000
,
0010
0000
0000
0000
,
0100
0000
0000
0000
,
0010
0000
0000
0000
,
0100
0000
0000
0000
,
2000
0000
3000
0000
,
0002
0000
0003
0000
,
1000
0000
0000
0000
,
0001
0000
0000
0000
,
0010
0000
0000
0000
,
0100
0000
0000
0000
,
0010
0000
0000
0000
,
1000
0000
0000
0000
,
0001
0000
0000
0000
,
0110
0000
0000
0000
,
0010
0000
0000
0000
,
0100
0000
0000
0000
,
0010
0000
0000
0000
,
1001
0000
0000
0110
;

//--------------- dance-single - ----------------
#NOTES:
     dance-single:
     :
     Easy:
     3:
     0,0,0,0,0:
0000
0000
0000
0000
,
0000
0000
0000
0000
,
0100
0100
1000
0000
,
0100
0100
0001
0000
,
0100
0100
1000
0000
,
0001
1000
0001
1001
,
0100
0000
0010
0000
,
0001
0000
1000
0000
,
0001
1000
0001
0000
,
0100
0010
0100
0000
,
0001
1000
0100
0000
,
0001
0010
0100
0000
,
1000
0001
1000
0000
,
0100
0010
0001
1001
,
0100
0000
0001
0000
,
1000
0001
1000
1001
,
0200
0000
0301
0000
,
1000
0000
0001
0000
,
2010
0001
0001
3010
,
2010
0001
0100
3001
,
1001
0100
0010
1001
,
0100
0010
0001
0000
,
1000
0001
1000
0001
,
0100
1000
0001
1000
,
0100
0010
0001
0000
,
1000
0001
1000
0000
,
0010
0100
1000
0000
,
0002
2003
3000
1001
;

//--------------- dance-single - ----------------
#NOTES:
     dance-single:
     :
     Medium:
     7:
     0,0,0,0,0:
0000
0000
0000
0000
,
0000
0000
0000
0000
,
0100
0001
1000
0000
0001
1000
0001
0000
,
0100
0010
1000
0000
0001
1000
0001
0000
,
0100
0010
0100
0000
1000
0001
1000
0000
,
0100
0010
0100
0010
0000
0100
0110
0000
,
1000
0000
0001
0000
0100
0010
0100
0000
,
1000
0000
0001
0000
0100
0010
1000
0000
,
0001
0000
1000
0000
0001
1000
0001
0000
,
0100
0000
0010
0000
0001
1000
0001
0000
,
0100
0010
1000
0000
0001
0000
1000
0000
,
0001
1000
0001
0000
0110
0000
1001
0000
,
0100
0010
0001
0000
1000
0001
1000
0000
,
0100
1000
0100
0000
0001
0100
0001
0000
,
0100
0000
1001
0000
0100
0010
1000
0000
,
0001
0000
1001
0000
0100
1000
0001
0000
,
1001
0200
1000
0301
,
1000
0000
0001
0000
0100
0010
1000
0000
,
2100
0001
0001
3100
,
2100
0010
0001
0010
0100
0010
3001
0000
,
1001
0100
0010
0000
1001
0000
0100
0000
,
0010
1000
0001
0000
0100
0000
0010
0000
,
0011
0100
1000
0100
0010
0001
1100
0000
,
0010
0000
0100
0000
1000
0001
1000
0000
,
0100
0010
0001
0000
1000
0001
1000
0000
,
0100
0010
0100
0000
1000
0001
0100
0000
,
0010
1000
0001
0000
0100
1000
0001
0000
,
1000
0001
1000
0001
0000
0100
0110
0000
;

//--------------- dance-single - ----------------
#NOTES:
     dance-single:
     :
     Hard:
     11:
     0,0,0,0,0:
0000
0000
0000
0000
,
0000
0000
0000
0000
,
0001
0000
1000
0000
0001
0000
0100
0000
0010
0000
1000
0002
0000
0000
0103
0000
,
0010
0000
1000
0000
0001
0000
0100
0000
0010
0000
1000
0002
0000
0000
0103
0000
,
0010
0000
1000
0000
0001
0000
0100
0000
0010
0000
0001
0020
0000
0000
0130
0000
,
1000
0001
1000
0001
1000
0000
0001
0000
0000
0000
1000
0000
1001
0000
0000
0000
,
0100
0000
0001
0000
1000
0000
0001
0000
0100
0000
0010
0000
1000
0100
0001
0000
,
1000
0000
0001
0000
1000
0000
0001
0000
0100
0000
0010
0000
0001
1000
0010
0000
,
0100
0000
1000
0000
0001
0000
0100
0000
0010
0000
1000
0000
0001
0010
0100
0000
,
0010
0000
0100
0000
1000
0000
0001
0000
1000
0000
0001
0000
1000
0010
0001
0000
,
0100
0000
0010
0000
0100
0000
0001
0000
0100
0000
1000
0100
0002
0000
0000
0000
,
0103
0000
0010
0000
1000
0000
0001
0000
0100
0000
0010
0100
2000
0000
0000
0000
,
3001
0000
0100
0000
0010
0000
0100
0000
1000
0000
0001
0010
0200
0000
0000
0000
,
0310
0000
1000
0000
0001
0000
0010
1000
0100
0000
0001
0000
1001
0000
0000
0000
,
1000
0001
1000
0000
0001
0100
0001
0000
,
0100
0010
0001
0100
1000
0001
1001
0000
,
0010
0000
1000
0000
0001
0010
0100
0000
0010
0000
0001
0000
0010
0000
1000
0000
,
0100
0001
1000
0000
0001
0010
0100
0000
0010
0000
0001
0000
0010
0000
1000
0001
,
0100
0000
1000
0100
0010
0000
0001
0010
0100
0000
1000
0001
0100
0000
0001
1000
,
0100
0000
0010
0100
1000
0000
0001
0000
0100
0000
0010
0000
0100
0000
1000
0100
,
0001
0010
0200
0000
0301
0000
1000
0000
0010
0000
0100
0000
1000
0000
0100
0010
,
0001
0100
1000
0000
0001
0000
0100
0000
0010
0001
0000
0100
1000
0000
0001
1000
,
0001
0100
0010
0100
1000
0000
0001
0100
0000
0100
1000
0000
0001
0000
1000
0000
,
0001
0000
0000
0100
1000
0000
0000
0010
0001
0000
1001
0000
0110
0000
1001
0000
,
0100
0000
0001
0000
1000
0000
0010
0000
0100
0000
0001
2000
0000
0000
3010
0000
,
0100
0000
0001
0000
1000
0000
0010
0000
0100
0000
0001
2000
0000
0000
3010
0000
,
0100
0000
0001
0000
1000
0000
0010
0000
0100
0000
1000
0200
0000
0000
0310
0000
,
0001
1000
0001
1000
0001
0000
1000
0000
0000
0000
0001
0000
1001
0000
0000
0000
;
