
//----- song ID: sugo -----//
#TITLE:SUDDEN GUST OC;
#ARTIST:Sampling Masters MEGA;
#GENRE:WORLD LEAGUER'S PRIVILEGE;
#MUSIC:SUDDEN GUST OC.ogg;
#BANNER:SUDDEN GUST OC.png;
#BACKGROUND:SUDDEN GUST OC-bg.png;
#CDTITLE:./CDTitles/NSD WORLD.png;
#SAMPLESTART:13.594;
#SAMPLELENGTH:15.000;
#SELECTABLE:YES;
#OFFSET:0.000;
#BPMS:0.000=150.000
,28.000=200.000
,164.000=100.000
,192.000=200.000
;
#STOPS:229.500=0.300
,231.500=0.300
,274.000=0.100
,274.333=0.100
,274.667=0.100
,275.000=0.100
,276.667=0.100
,277.000=0.100
,277.333=0.100
,277.667=0.050
,277.833=0.050
,278.000=0.050
,278.167=0.050
,278.333=0.050
,278.500=0.050
,278.667=0.050
,286.500=0.150
,287.333=0.100
,287.667=0.100
,289.333=0.100
,290.333=0.100
,291.333=0.050
,291.500=0.050
,291.667=0.050
,291.833=0.050
,316.000=0.100
,316.333=0.100
,316.667=0.100
,317.000=0.100
,317.333=0.100
,317.667=0.100
;
#BGCHANGES:;
#FGCHANGES:;

//--------------- dance-single - ----------------
#NOTES:
     dance-single:
     :
     Beginner:
     3:
     0,0,0,0,0:
0000
0000
0000
0000
,
0000
0000
0000
0000
,
0000
0000
0000
0000
,
0000
0000
0000
0000
,
0000
0000
0000
0000
,
0000
0000
0000
0000
,
0000
0000
0000
0000
,
0000
0000
0000
0000
,
0000
0000
0000
0000
,
1000
0000
0001
0000
,
0100
0000
0010
0000
,
0100
0000
1000
0000
,
0001
0000
0000
0000
,
1000
0000
0001
0000
,
0100
0000
0010
0000
,
1000
0000
0001
0000
,
0100
0000
0000
0000
,
0110
0000
1000
0000
,
0001
0000
0000
0000
,
0010
0000
0100
0000
,
1000
0000
0000
0000
,
0010
0000
0100
0000
,
1000
0000
0000
0000
,
0001
0000
1000
0000
,
0001
0000
0000
0000
,
0110
0000
0000
1000
,
0001
0000
0000
0000
,
0001
0000
0010
0000
,
0100
0000
0000
0000
,
1000
0000
0000
0100
,
0010
0000
0000
0000
,
0001
0000
0000
0000
,
0010
0000
0000
0000
,
0110
0000
0000
0000
,
1000
0000
0000
0000
,
0001
0000
0010
0000
,
0100
0000
0000
0000
,
1000
0000
0000
0000
,
0010
0000
0000
0000
,
0001
0000
1000
0000
,
0001
0000
0000
0000
,
0110
1000
0010
0100
,
1000
0001
0000
0000
,
0110
0001
0001
0001
,
0010
0100
1000
0000
,
0100
1000
0100
0000
,
0010
0001
1000
0000
,
0110
1000
0001
0100
,
0010
0000
0100
0000
,
1000
0001
1000
0000
,
0100
0000
0000
0000
,
0010
0000
0000
0000
,
1000
0000
0000
0000
,
0001
0000
0000
0000
,
0010
0000
0000
0000
,
0100
0000
0000
0000
,
1000
0000
0000
0001
,
0000
0010
0000
0100
,
1000
0000
0010
0000
,
0100
0000
1000
0000
,
0001
0000
0010
0000
,
0100
0000
1000
0000
,
0001
0000
0100
0000
,
0010
0000
0001
0000
,
1000
0000
0001
0000
,
0100
0000
0010
0000
,
0100
0000
0110
0000
,
0000
0000
0000
0000
,
1000
0001
1000
0000
,
0000
0000
0002
0000
0000
0000
0000
0000
0000
1003
0000
0000
,
0000
0000
0000
0010
,
0000
0000
0000
0100
0000
0000
0000
0000
0000
0000
0000
0000
0000
0000
0000
0001
0000
0000
0000
0000
0000
0000
1000
0000
,
0000
0000
0000
0000
0010
0000
0000
0100
0000
0000
0000
0000
,
1001
0000
0100
0000
,
0100
0000
0001
0000
,
1000
0000
0001
0000
,
0100
0000
0010
0000
,
0100
0000
1000
0000
,
0001
0000
1000
0000
,
0220
0000
0330
0000
,
0000
0000
1000
0000
,
0100
0000
0010
0000
,
0001
0000
0010
0000
,
0100
0000
1000
0000
,
0000
0000
0001
0000
,
1000
0000
0001
0000
,
0100
0000
0010
0000
,
0000
0000
1000
0000
,
0000
0001
0220
0000
,
0000
0000
0000
0000
,
0000
0000
0330
0000
;

//--------------- dance-single - ----------------
#NOTES:
     dance-single:
     :
     Easy:
     7:
     0,0,0,0,0:
0000
0000
0000
0000
,
0000
0000
0000
0000
,
0000
0000
0000
0000
,
0000
0000
0000
0000
,
0000
0000
0000
0000
,
0000
0000
0000
0000
,
0000
0000
0000
0000
,
0000
0000
0000
0000
,
0000
0000
0000
0000
,
1000
0001
0100
0010
,
0100
1000
0001
0000
,
0100
0010
1000
0001
,
0100
0000
0010
0000
,
0100
0010
0001
0010
,
0100
1000
0001
0000
,
1000
0000
0001
0000
,
0100
0010
0001
0000
,
0110
0000
1000
0000
,
0001
0000
0010
0000
,
0100
0000
1000
0000
,
0001
0010
0100
0000
,
0001
0000
1000
0000
,
0001
0000
0010
0000
,
0100
1000
0001
0000
,
0110
0000
1000
0000
,
1002
0000
0003
0100
,
0010
1000
0000
0001
,
0100
0010
1000
0001
,
0100
0000
0000
0110
,
2001
0000
0000
3010
,
0010
0100
0000
1000
,
0001
0100
0000
0010
,
0100
0000
0000
0010
,
0001
1000
0001
0100
,
0010
0100
0000
1000
,
0001
0100
0010
0001
,
0010
0000
0000
0110
,
1001
0100
0000
0010
,
0100
0001
0000
0100
,
0001
0100
0010
0001
,
0110
0000
1000
0000
,
1001
0100
0010
0001
,
0001
1000
0001
0000
0200
0000
0000
0000
,
0310
1000
0001
0100
,
0010
0001
1000
0000
,
1001
0100
0010
0001
,
0010
0100
1000
0000
,
0001
0010
0100
1000
,
0001
1000
0001
0100
,
0100
0100
0001
0000
0000
0100
1000
0000
,
0110
1000
0000
0001
,
0000
0100
0010
0100
,
1000
0000
0001
0100
,
0010
0001
0010
0100
,
1000
0001
0010
0100
,
0010
0100
1000
0001
,
0100
0010
0100
1000
,
0001
0000
0100
0001
1000
0000
0001
0100
,
1000
0010
0100
0010
,
1000
0001
0100
0010
,
0100
1000
0001
0100
,
0010
0100
1000
0001
,
0100
0010
0100
0010
,
0001
0010
0100
0010
,
0100
0000
1000
0000
0001
0000
0100
1000
,
0000
0000
0100
0000
1000
0100
0000
0000
,
0100
1000
0010
0000
0110
0000
0000
0000
,
0000
0000
0000
0000
0001
0100
1000
0000
,
0001
1000
0002
1003
,
0000
0000
0200
0000
0000
0320
0000
0000
1030
0100
0000
0000
,
0000
0000
0000
0110
,
0000
0000
0000
0010
0000
0000
0000
0000
0000
0100
0000
0000
0000
0000
0000
0110
0000
0000
0000
0000
1000
0000
0001
0000
,
0000
0000
0100
0000
1000
0000
0000
1001
0000
0000
0200
0000
,
0310
0010
0100
1000
,
0001
0100
0010
0101
,
1000
0010
0100
0001
,
0010
0100
1000
1010
,
0100
0010
0100
1000
,
0001
0100
0010
0001
,
0200
0310
0110
0000
,
0000
0000
1001
0100
,
0010
0100
1000
0001
,
0100
0010
0100
1000
,
0001
0100
0010
0100
,
0010
0001
0010
0100
,
0010
1000
0001
0100
,
0010
0000
0100
0000
1000
0001
0000
0000
,
0000
0000
0000
0000
0110
0000
0000
0001
,
0000
1000
2002
0000
,
0000
0000
0000
3003
,
0110
0000
0000
1001
0000
0000
0000
0000
;

//--------------- dance-single - ----------------
#NOTES:
     dance-single:
     :
     Medium:
     12:
     0,0,0,0,0:
0000
0000
0000
0000
,
0000
0000
0000
0000
,
0000
0000
0000
0000
,
0000
0000
0000
0000
,
0000
0000
0000
0000
,
0000
0000
0000
0000
,
0000
0000
0000
0000
,
0000
0000
0000
0000
,
0000
0000
0000
0000
,
0100
1000
0100
0010
0000
0001
0100
0010
,
0000
1000
0001
0100
0000
0010
0100
1000
,
0010
0000
1000
0000
0010
0001
0100
0000
,
1000
0000
0001
1000
0100
0001
0010
0000
,
0100
1000
0001
0010
0000
0100
0010
0100
,
0000
1000
0001
0100
0000
0010
0100
0010
,
1000
0000
0001
0000
0100
0010
0100
0000
,
1000
0000
0001
0000
0010
0100
1000
0100
,
0010
0001
0010
0100
0000
1000
0010
0100
,
0000
0001
1000
0010
0000
0100
0010
0001
,
0100
0000
0001
0000
0100
1000
0010
0000
,
0001
0000
1000
0001
0010
1000
0100
0001
,
0010
0001
1000
0100
0000
0010
0100
0010
,
0000
0001
1000
0010
0000
0100
0010
0100
,
0001
0000
1000
0000
0010
0100
0010
0000
,
0001
0100
1000
0000
0100
0010
0001
0010
,
1000
0000
0001
0000
0100
0000
0010
0100
,
1000
0000
0001
0000
0100
0100
0010
0000
,
1000
0001
0100
0000
0010
0100
1000
0000
,
1001
0000
0000
0110
,
0100
0000
1000
0000
0001
0010
0100
0000
,
1000
0000
0001
0000
0010
0100
1000
0000
,
0001
0000
0000
0110
0000
0000
0001
0000
,
1000
0000
0100
0000
0010
0100
1000
0000
,
1001
0100
0010
0100
,
0010
0000
1000
0001
0100
0000
0010
0000
,
0100
1000
0001
0000
0010
0100
1000
0000
,
0001
1000
0001
0110
,
1001
0000
0100
0000
0010
0100
1000
0000
,
0001
0000
0010
0000
0100
1000
0010
0000
,
0010
0000
1000
0000
0001
0010
0100
0000
,
0100
1000
0000
0001
0100
0000
1000
0000
,
0001
0010
0100
0000
1000
0001
0100
0000
,
0020
0100
2030
0000
,
3001
0010
0100
0000
0010
1000
0001
0000
,
0200
0000
0000
0000
0010
0000
0000
0000
0310
0000
0000
0001
0000
0000
1000
0001
,
0100
1000
0001
0010
0100
1000
0001
0100
,
0020
0000
1000
0000
0230
0000
0001
0010
,
0301
0010
1000
0001
0100
0010
1000
0001
,
0010
0100
1000
0000
0001
0010
0100
0000
,
1000
0001
1000
0001
1000
0001
1000
0001
,
1000
0100
0010
0100
0000
1000
0001
0010
,
0100
1000
0000
0001
0010
0100
0001
0100
,
1000
0010
0100
1000
0000
0010
0001
1000
,
0001
0010
0000
1000
0001
0010
0100
1000
,
0001
0010
0100
0010
0000
0001
1000
0100
,
0010
0001
0000
1000
0100
0010
1000
0010
,
0001
0100
0010
0001
0000
0100
1000
0001
,
1000
0100
0000
0001
1000
0100
0010
0001
,
1000
0100
0001
0100
1000
0001
0100
0000
,
1000
0000
0010
0000
0100
0001
1000
0000
,
0001
0010
0100
1000
0010
0000
0100
0000
,
0010
1000
0001
0100
,
0010
1000
0100
0000
0001
0010
0100
0000
,
1000
0000
0001
1000
0010
0000
0100
0000
,
1000
0000
0001
0000
0100
1000
0010
0100
,
0000
0001
0010
0100
1000
0001
0000
0000
,
0110
0000
1001
0000
0100
0010
0000
0000
,
0000
0000
0000
0000
0000
0001
1000
0000
,
0010
0100
2000
3001
,
0000
0000
1000
0100
0010
0200
0000
0000
0310
1000
0000
0000
,
0000
0000
0000
0110
,
0000
0000
0000
0110
0000
0000
0000
0000
0000
1010
0000
0000
0000
0000
0000
0101
0000
0000
0000
0000
1000
0000
0001
0000
,
0000
0000
0100
0000
0010
0000
0000
0100
0000
0000
0020
0000
,
0130
1000
0010
0000
0100
0000
1000
0000
,
0001
0010
0100
0000
1000
0000
0001
0000
,
0100
0010
0100
0010
0100
0000
1000
0001
,
0000
0010
0100
0000
1000
0000
1001
0000
,
0100
0000
0001
1000
0000
0000
0001
0000
0100
0010
0000
0000
,
0100
0000
0010
1000
0000
0000
0001
0000
1000
0010
0000
0000
,
0200
0010
0310
0000
,
0000
0010
0100
0000
0100
1000
0100
0010
,
0000
0001
0100
0010
0000
1000
0001
0100
,
0000
0010
0100
1000
0010
0000
1000
0001
,
0010
0001
0100
0010
1000
0000
0001
1000
,
0100
0001
0010
0000
0100
1000
0001
0010
,
0000
0100
0010
0100
0000
1000
0001
0100
,
0000
0010
0100
0010
1000
0010
0000
0000
,
0000
0000
0000
0000
1001
0000
0000
0110
,
0000
0100
1000
0100
0002
0000
0000
0000
,
0000
0000
0000
0003
,
0110
0000
0000
1001
0000
0000
0000
0000
;

//--------------- dance-single - ----------------
#NOTES:
     dance-single:
     :
     Hard:
     16:
     0,0,0,0,0:
0000
0000
0000
0000
,
0000
0000
0000
0000
,
0000
0000
0000
0000
,
0000
0000
0000
0000
,
0000
0000
0000
0000
,
0000
0000
0000
0000
,
0000
0000
0000
0000
,
0000
0000
0000
0000
,
0000
0000
0000
0000
,
0100
0010
0001
1000
0001
0100
0010
1000
,
0100
0010
0001
1000
0001
0010
0100
0010
,
0001
0010
0100
1000
0010
1000
0001
0010
,
0100
0010
0100
1000
0010
0100
0001
1000
,
0010
1000
0010
0100
0010
1000
0100
0010
,
0100
1000
0001
0100
0001
0100
0010
1000
,
0010
1000
0001
1000
0100
0010
0100
1000
,
0010
0100
0010
0100
0010
1000
0001
1000
,
0100
0010
0100
0010
0001
1000
0010
0100
,
0001
1000
0001
0100
0010
1000
0010
1000
,
0010
0100
0001
0100
0010
0100
0001
0010
,
0100
0010
0001
0010
0100
1000
0001
0100
,
0001
0100
0010
0100
0010
1000
0001
1000
,
0100
0010
0100
1000
0001
0010
0100
1000
,
0010
1000
0001
1000
0001
0010
0100
0010
,
0200
0000
0000
0000
0000
0000
0310
0000
0001
0010
0000
0001
,
0010
0100
0001
0010
0001
1000
0100
1000
,
0001
1000
0010
0100
0001
0100
0001
0010
,
0100
1000
0001
1000
0100
1000
0001
0010
,
2000
0000
0000
0000
0000
0000
3100
0100
,
0001
0000
0001
0010
0100
0010
0001
0100
,
0001
0010
0001
0100
0010
1000
0100
1000
,
0110
0000
0000
0101
0000
0000
0110
0000
,
0110
0000
1000
0000
0001
0010
1000
0000
,
0100
0010
1000
0100
1000
0001
0010
0001
,
1000
0001
0100
0010
1000
0010
1000
0100
,
0010
0001
1000
0001
0010
0001
1000
0100
,
0002
0000
1000
0000
0100
0000
0013
0010
,
1000
0000
1000
0100
0010
0100
1000
0010
,
1000
0100
1000
0010
0100
0001
0010
0001
,
0110
0000
0000
1010
0000
0000
0110
0000
,
0100
0000
0010
0000
0000
0000
0001
0000
1000
0000
0100
0000
0010
0100
0010
0100
,
0020
0100
1030
0001
0200
0001
0310
0000
,
2000
0000
0000
0000
0000
0000
0000
0000
0001
0000
0000
0000
0000
0000
0000
0000
0010
0000
0000
0000
0000
0000
0000
0000
0001
0000
0000
0000
0000
0000
0000
0000
3200
0000
0000
0000
0000
0000
0000
0010
0000
0000
0000
0000
0000
0010
0000
0000
0000
0000
0000
0010
0000
0000
0000
0000
0000
0010
0000
0000
0000
0001
0000
0000
,
0320
0100
1030
0100
2000
0010
3001
0010
,
0200
0000
1000
0000
0010
0000
0001
0000
0310
0000
0000
0110
0000
0000
0100
1000
,
0200
0010
0301
1000
0020
1000
0130
0000
,
0002
0000
1000
0000
0100
0000
1000
0000
0023
1000
0000
0001
0001
0000
1000
0000
,
0230
0010
0001
0010
0302
0100
1003
0100
,
0010
0001
0100
0010
0100
0000
1000
0010
,
1000
0001
1000
0001
1000
0001
1000
0001
0010
0100
0010
0100
0010
0100
0010
0100
,
0100
0010
0100
0010
0100
1000
0001
0010
,
0001
0100
0001
0010
0100
0010
0100
0010
,
0001
0100
0010
0100
0001
0010
0001
0100
,
0001
1000
0100
0010
0100
0010
0100
1000
,
0010
1000
0010
0100
0010
1000
0100
1000
,
0100
1000
0010
0100
0001
0010
0100
0010
,
0001
1000
0001
0100
0001
0010
0100
0001
,
1000
0010
0100
1000
0001
0010
0100
1000
,
0001
1000
0010
0100
0010
1000
0001
0100
,
0010
1000
0100
0010
0001
1000
0010
0100
,
0010
0100
0001
0100
0001
0010
0001
0100
,
0010
1000
0010
0100
0010
0100
0001
1000
,
0001
0100
0001
1000
0010
0100
0010
1000
,
0001
0100
0010
0100
0001
0010
0100
1000
,
0010
0100
0001
1000
0010
0100
1000
0001
,
0000
0000
1000
0000
0100
0000
0010
0000
0001
0000
1000
0000
0000
0000
0001
0010
,
0100
1000
0100
0000
1000
0001
0000
1000
,
0100
0001
0010
0000
0001
0000
0010
0000
1000
0000
0001
0000
0100
0000
0000
0000
,
0101
0000
0000
0110
0000
0000
1000
0100
0010
0001
1000
0100
,
0010
0000
0000
0000
0001
0000
1000
0000
0100
0000
1000
0100
0010
0001
0010
0100
1000
0000
0001
0000
0000
1000
0000
0000
,
0010
0001
1000
0100
1000
0001
0110
0000
,
0000
0000
0000
1001
0000
0000
0000
0000
0000
0101
0000
0000
0000
0000
0000
0110
0000
0000
0000
0000
1000
0000
0001
0000
,
0100
0000
0000
0000
1000
0000
0000
0000
0010
0000
1000
0000
0000
0000
0110
0000
0001
0000
0000
0000
1000
0100
0010
0001
,
1000
0100
0010
1000
0001
0010
0100
1000
,
0010
0100
0010
0100
0001
0100
0010
0000
,
0110
1000
0010
0100
0001
0010
0100
1000
,
0010
1000
0100
0010
0001
0010
0100
0000
,
0100
0000
0010
1000
0000
0100
0010
0000
0001
0100
0000
1000
,
0001
0000
0010
0100
0000
1000
0010
0000
0100
0010
0000
0100
,
1000
0100
0010
0001
0100
0010
1000
0000
0000
0000
0000
0000
,
0000
0100
0110
0000
0010
0100
0010
1000
,
0010
0100
0001
0010
0100
1000
0010
1000
,
0001
1000
0010
0100
0010
1000
0010
1000
,
0001
0010
0001
1000
0001
1000
0100
0010
,
0001
1000
0010
1000
0001
1000
0100
0010
,
0100
1000
0100
1000
0010
1000
0001
0010
,
0100
0010
0100
0010
0001
1000
0000
0000
,
0000
0000
0000
0000
0101
0000
0000
1001
,
0000
0000
0100
1000
2002
0000
0000
0000
,
0000
0000
0000
3003
,
0110
0000
0000
1001
0000
0000
0000
0000
;
