
//----- song ID: rhch -----//
#TITLE:Rough\: CHA0Z;
#ARTIST:NAMCO Sound Team "Nothing But Requiem";
#GENRE:ナムコオリジナル;
#MUSIC:Rough CHA0Z.ogg;
#BANNER:Rough CHA0Z.png;
#BACKGROUND:Rough CHA0Z-bg.png;
#CDTITLE:./CDTitles/NSD WORLD.png;
#SAMPLESTART:90.899;
#SAMPLELENGTH:15.000;
#SELECTABLE:YES;
#OFFSET:0.000;
#BPMS:0.000=180.000
,28.000=1440.000
,92.000=256.000
,100.000=1024.000
,108.000=256.000
,110.000=1024.000
,116.000=256.000
,126.500=1024.000
,130.500=512.000
,131.500=256.000
,133.500=1024.000
,149.000=256.000
,152.000=236.000
,154.000=200.000
,156.000=170.000
,157.000=1408.000
,169.000=176.000
,170.000=168.300
,172.000=256.000
,205.000=1024.000
,213.000=256.000
,244.000=1024.000
,252.000=256.000
,320.000=236.000
,324.000=206.000
,326.000=186.000
,328.000=166.000
,330.000=156.000
,332.000=116.000
,335.667=96.000
,338.000=90.500
,340.000=100.000
,344.000=105.100
,348.000=220.000
,352.000=230.000
,356.000=240.000
,360.000=250.000
,364.000=256.000
,371.000=1024.000
,377.000=256.000
,382.000=1024.000
,390.000=256.000
,404.000=1024.000
,414.000=256.000
,438.000=512.000
,446.000=1024.000
,462.000=128.000
,466.000=256.000
,561.000=2048.000
,569.000=260.000
,571.000=220.000
,575.000=190.000
,577.000=180.000
,580.000=187.000
,582.000=45.000
,585.000=58.800
,586.000=666.000
,632.000=333.000
,639.000=280.000
,640.000=260.000
,641.000=240.000
,642.000=220.000
,643.000=200.000
,644.000=180.000
,645.000=160.000
,646.000=140.000
,648.000=139.000
,651.625=1191.000
,657.000=140.000
,660.000=2026.000
,676.000=8.840
;
#STOPS:;
#BGCHANGES:;
#FGCHANGES:;

//--------------- dance-single - ----------------
#NOTES:
     dance-single:
     :
     Challenge:
     19:
     0,0,0,0,0:
0000
0000
0000
0000
,
0000
0000
0000
0000
,
0000
0000
0000
0000
,
0000
0000
0000
0000
,
0000
0000
0000
0000
,
0000
0000
0000
0000
,
0000
0000
0000
0000
,
0000
0000
0000
0000
,
0000
0000
0000
0000
,
0000
0000
0000
0000
,
0000
0000
0000
0000
,
0000
0000
0000
0000
,
0000
0000
0000
0000
,
0000
0000
0000
0000
,
0000
0000
0000
0000
,
0000
0000
0000
0000
,
0000
0000
0000
0000
,
0000
0000
0000
0000
,
0000
0000
0000
0000
,
0000
0000
0000
0000
,
0000
0000
0000
0000
,
0020
0000
0000
0000
,
0000
0000
0000
0000
,
0130
0000
0000
0000
0000
0000
0000
0000
0000
0000
0000
0000
0000
0000
0000
0000
0000
0000
0000
0000
0000
0000
0000
0000
0000
0000
0000
0001
0000
0000
1000
0000
0000
0000
0000
0000
0001
0000
0000
0000
0100
0000
0000
0000
0010
0000
0000
0000
,
1000
0000
0010
1000
0001
0000
1000
0100
0010
0000
0001
0010
0100
0000
1000
0001
,
0200
0000
0000
0000
,
0000
0000
0000
0000
,
0310
1000
0001
1000
0020
0000
0000
0000
,
0000
0000
0000
0000
,
0130
0000
0001
0000
1000
0000
0010
0000
0100
0000
1000
0000
0010
1000
0100
0000
,
0001
0010
0100
0000
1000
0001
1000
0000
0010
1000
0001
0000
0010
0100
1000
0000
,
0010
0000
0000
0100
0000
0000
0010
0000
0000
0000
0000
0000
0000
0000
0000
0000
0000
0000
0001
0000
0000
0000
1000
0000
0000
0000
0100
0000
0000
0000
0020
0000
0000
0000
0000
0000
0000
0000
0000
0000
0000
0000
0000
0000
0000
0000
0000
0000
,
0000
0000
0000
0000
0000
0000
0000
0030
,
0000
0001
0100
0010
0000
0000
0000
0000
,
0020
0000
0000
0000
,
0000
0000
0000
0000
,
0000
0000
0000
0000
,
0000
0000
0000
0000
0000
0000
0000
0000
0000
0000
0000
0000
0000
0000
0000
0000
0000
0000
0000
0000
0000
0000
0000
0000
0000
0000
0000
0000
0000
0000
0000
0000
0000
0000
0000
0000
0000
0000
0000
0000
0000
0000
0000
0000
0000
0000
0000
0000
0030
0000
0000
0000
0000
0000
0000
0000
0000
0000
0000
0000
0000
0000
0000
0000
0000
0000
0000
0000
0000
0000
0000
0000
0000
0000
0000
0000
0000
0000
0000
0000
0000
0000
0000
0000
0000
0000
0000
0000
0000
0000
0000
0000
0000
0000
0000
0000
0000
0000
0000
0000
0000
0000
0000
0000
0000
0000
0000
0000
0000
0000
0000
0010
0000
0000
0000
0000
0000
0000
0000
0000
0000
0000
0000
0000
0000
0000
0000
0000
0000
0000
0000
0000
0000
0000
0000
0000
0000
0000
0000
0000
0100
0000
0000
0000
0000
0000
0000
0000
0000
0000
0000
0000
0000
0000
0000
0000
0000
0000
0000
0000
0000
0000
0000
0000
0000
0000
0000
0000
0000
0000
0000
0000
0000
0000
0000
0000
0000
0000
0000
0000
0000
0000
0000
0000
0000
0000
0000
0000
0000
0000
0000
0000
,
0000
0000
0000
0000
0000
0000
0000
0000
1000
0000
0000
0000
0000
0000
0000
0000
0000
0000
0000
0000
0000
0000
0000
0000
0001
0000
0000
0000
0000
0000
0000
0000
0000
0000
0000
0000
0000
0000
0000
0000
0000
0000
0000
0000
0000
0000
0000
0000
0000
0000
0000
0000
0000
0000
0000
0000
0000
0001
0000
0000
0000
0000
0000
0000
0000
0000
0000
0000
0000
0000
0000
0000
1000
0000
0000
0000
0000
0000
0000
0000
0000
0000
0000
0000
0000
0000
0000
0000
0000
0000
0000
0000
0000
0000
0000
0000
,
0000
0001
0000
1000
0000
0000
0000
0000
0000
0000
0000
0000
,
0000
0000
0220
0000
,
0000
0000
0000
0000
,
0000
0330
0000
0000
,
0200
0000
0000
0000
0000
0000
0000
0000
0000
0000
0300
0000
0200
0000
0000
0000
0000
0000
0000
0000
0000
0000
0300
0000
0002
0000
0000
0000
0000
0000
0000
0000
0000
0000
0000
0000
1003
0000
0000
0100
0000
0000
0001
0000
0000
0000
0000
0000
,
1001
0000
0000
0000
0001
0010
1000
0001
0100
0010
1000
0001
0100
0010
1000
0001
,
0100
0000
0001
1000
0001
0000
1000
0001
0100
0000
0010
0000
0110
0000
0000
0000
,
1000
0000
0000
0000
0000
0000
0001
0000
0000
0000
0000
0000
1000
0000
0000
0100
0000
0000
0001
0000
0000
0010
0000
0000
0100
0000
0000
1000
0000
0000
0000
0000
0001
0000
0000
0000
0100
0000
0000
0000
1000
0000
0000
0000
0001
0000
0000
0000
,
0100
0000
0000
0000
0000
0000
0001
0000
0000
0010
0000
0000
0100
0000
0000
0000
0000
0000
1000
0000
0000
0000
0000
0000
0001
0000
0000
0000
0000
0000
0000
0000
0100
0000
0000
0000
0000
0000
0000
0000
0110
0000
0000
0000
0000
0000
0000
0000
,
0110
0000
0000
1000
0001
0100
0010
1000
0010
0100
0010
0001
,
1000
0001
0100
0010
1000
0001
0100
0010
1000
0000
0001
0000
0100
0000
1000
0000
,
0001
0000
1000
0001
1000
0000
0010
0000
0100
1000
0001
0100
0010
1000
0001
0100
,
0010
0001
0100
0001
0020
0000
0000
0000
0000
0000
0000
0000
0000
0000
0000
0000
,
0000
0000
0000
0000
,
0000
0000
0000
0000
0000
0000
0030
0000
0000
0000
0000
0000
1001
0000
0000
0000
0001
0000
1000
0000
0000
0100
0000
0000
,
0001
0000
1000
0000
0010
0000
0100
0000
0000
0010
0000
0000
0100
0000
0000
0000
0010
0000
0100
0000
0000
1000
0000
0000
,
0001
0100
0001
0100
0010
1000
0010
1000
0010
0000
0000
1000
0001
0000
0100
0000
,
1000
0001
0000
0100
1000
0000
0100
0000
0010
0000
0100
0000
0010
0000
1000
0000
,
0010
0000
0000
0100
0000
0000
1000
0000
0000
0010
0000
0000
0100
0000
0000
0000
0001
0000
1000
0000
0000
0100
0000
0000
,
0010
0000
0001
0000
1000
0000
0010
0000
0000
1000
0000
0000
0001
0000
0000
0000
0010
0000
0100
0000
0000
1000
0000
0000
,
0001
0010
1000
0001
0100
0000
1000
0001
0100
0000
0010
0100
1000
0000
0001
0000
,
1000
0100
0000
0010
0100
0000
0010
0000
0100
0000
1000
0000
0001
0000
0100
0000
,
0020
0000
0000
0000
,
0000
0000
0000
0030
0000
0000
0000
0000
0000
0000
0000
0000
0000
0000
0000
0000
,
1001
0000
0000
0000
0002
0000
0000
0000
0203
0000
2300
0000
3001
1000
0001
1000
,
0001
0000
0110
0000
0100
1000
0010
0000
,
0001
0000
0100
0000
1000
0000
0000
0000
0010
0000
0100
0000
1000
0010
1000
0010
,
1000
0010
1000
0010
1000
0000
0100
0000
0010
0001
0010
0001
0010
0000
0100
0000
,
1001
0000
0000
0000
0110
0000
0000
0000
0010
0000
0100
0000
1000
0010
1000
0010
,
1000
0010
1000
0010
1000
0000
0000
0000
0010
0000
0100
0000
1000
0000
0000
0000
,
1000
0001
1000
0001
0100
0000
1000
0000
0001
0000
0100
1000
0001
0100
0010
0000
,
1000
0001
0100
0010
1000
0000
0010
0000
0100
0000
0001
0010
1000
0100
0001
0000
,
1001
0000
0000
0000
0101
0000
0000
0000
1001
0000
0000
0000
0010
0100
0010
0100
,
0010
0110
0101
1001
,
1000
0001
1000
0000
0010
0000
0100
0010
,
1000
0001
0100
0010
1000
0000
0001
0100
0010
0100
1000
0000
0100
0010
1000
0001
,
0100
0000
0000
0000
0101
0000
0000
0000
1010
0000
0000
0000
0100
0010
0100
0010
,
0100
0010
0100
0000
1010
0000
0110
0000
,
0010
1000
0010
1000
0010
0000
0000
1000
0001
0000
0010
0000
0100
0000
1000
0000
,
0010
0100
1000
0001
1000
0100
0000
0010
0100
0000
0001
0000
0010
0000
1000
0000
,
0100
0010
1000
0001
0100
0010
1000
0001
,
0100
0010
1000
0001
0100
0010
0100
1000
,
0001
0100
1000
0010
0100
0001
0100
1000
,
0100
0001
0100
0010
1000
0100
0010
0001
,
1000
0000
0000
0000
0000
0000
0000
0000
0001
0000
0000
0000
0000
0000
0000
0000
0000
0000
0000
1000
0000
0000
0000
0000
0000
0000
0000
0000
0000
0000
0000
0010
0000
0000
0000
0000
0000
0000
0000
0000
0000
0000
0000
0000
0001
0000
0000
0000
,
0000
1000
0000
0000
0000
0001
0000
0000
0000
0000
0000
0000
0000
0000
0000
0000
0000
0000
0000
0000
0000
0000
0000
0000
0000
0000
0000
0000
0000
0000
0000
0000
,
0010
0000
1000
0000
0001
0000
0000
0000
0000
0000
0000
0000
0001
1000
0010
0000
1000
0000
0001
0000
0100
0000
0010
0000
0000
0000
1000
0010
1000
0010
1000
0010
,
1000
0000
0100
0010
0100
0000
0001
0000
0000
0000
1000
0000
0100
0000
0010
0000
1000
0000
0000
0000
0001
0000
1000
0000
0000
0000
0000
0000
0000
0000
0000
0000
,
1000
0100
0010
1000
,
0001
1000
0001
1000
,
0010
0100
0010
0100
0010
0100
0010
0100
,
0010
0100
0010
0100
0010
0100
0010
0100
0010
0100
0010
0100
0010
0100
0010
0100
,
0010
0000
1000
0001
0100
0000
0001
0010
0100
0000
1000
0000
0001
0010
0100
1000
,
0001
0000
1000
0100
0010
0000
0001
0000
1000
0000
0001
0000
0020
0000
0000
0000
,
0000
0000
0000
0000
,
0000
0000
0000
0000
1030
0000
0100
0000
0010
0000
0100
0000
1000
0000
0001
0010
,
0001
0010
0001
0010
0100
0010
0100
0010
0200
0000
0000
0000
0000
0000
0000
0000
,
0000
0000
0000
0000
,
0300
0000
0000
0000
0000
0000
0000
0000
0010
0100
1000
0010
0001
0000
1000
0000
,
0010
0100
0001
0100
0010
0100
0010
1000
,
0001
0000
1000
0000
0010
0000
0100
0000
0010
0000
1000
0000
0100
0010
0100
0000
,
1000
0000
0001
0010
0100
0000
1000
0000
0010
0100
1000
0000
0001
0000
0100
0000
,
0020
0000
0000
0000
,
0000
0000
0000
0000
,
0000
0000
0130
0110
,
0001
0010
0100
0000
1000
0000
0000
0000
1010
0000
0000
0000
0101
0000
0000
0000
,
0001
1000
0001
1000
0001
0000
0000
0000
0101
0000
0000
0000
1010
0000
0000
0000
,
1000
0010
1000
0010
1000
0000
0000
0000
0101
0000
0000
0000
0110
0000
0000
0000
,
1000
0001
1000
0001
1000
0000
0000
0000
0101
0000
0000
0000
1001
0000
0000
0000
,
0101
1010
0110
0101
,
1010
0000
0110
0000
0010
1000
0100
0010
,
0001
0100
0010
0100
0001
0010
0001
1000
,
0100
1000
0001
0100
0020
0000
0000
0000
,
0000
0000
0000
0000
,
0000
0000
0000
0000
,
0000
0000
0000
0000
,
0000
0000
0000
0000
0000
0000
0030
0001
1000
0000
0001
0100
,
0000
0010
0100
0000
0100
0010
0100
0000
0000
0000
0000
0000
,
2000
0000
3002
0000
,
0023
0000
0000
0000
0000
0000
0000
0000
0031
0000
0010
1000
0001
0000
0100
0000
,
0010
0000
1000
0000
0100
1000
0010
0100
0001
0000
0100
0001
0010
0100
1000
0000
,
0001
0000
0100
1000
0010
0001
1000
0100
0010
0000
1000
0001
0100
1000
0010
0000
,
0100
0000
1000
0000
0100
0001
1000
0100
0010
0100
1000
0001
0100
1000
0010
0100
,
0001
0010
0100
1000
0010
0001
0100
1000
0001
0000
1000
0000
0001
0000
0100
1000
,
0010
0000
0100
0000
0001
0000
0010
1000
0100
0000
1000
0010
0001
0000
0010
1000
,
0001
0000
0100
0010
0001
0000
0010
1000
0100
0000
1000
0100
0010
0000
0100
0010
,
0001
0100
1000
0000
0100
1000
0010
0100
0001
0010
1000
0100
0010
0100
1000
0010
,
0001
0100
0010
1000
0100
0001
1000
0000
0010
0000
1000
0000
0100
0000
1000
0000
,
0010
0000
0000
0000
0010
0000
0100
0000
1000
0010
0100
0010
0100
0000
0000
0000
,
0001
0010
0100
1000
0001
0100
0010
0100
1000
0001
0010
0100
1000
0000
0001
0000
,
0010
1000
0001
0000
0100
1000
0001
1000
0010
0100
0001
0010
0100
1000
0100
0010
,
0100
1000
0010
0100
0001
0010
0100
0010
0100
0000
1000
0000
0001
0000
0010
0100
,
0010
0000
0000
0000
0000
0000
1000
0000
0000
0000
0000
0000
0001
0000
0000
1000
0000
0000
0010
0000
0000
0100
0000
0000
0010
0000
0000
0000
1000
0000
0000
0000
0001
0000
0000
0000
0100
0000
0000
0000
0010
0000
0000
0000
0100
0000
0000
0000
,
0010
0000
0000
0000
1000
0000
0000
0000
0010
0000
0000
0000
0100
0000
0000
0000
0001
0000
0000
0000
1000
0000
0000
0000
0010
0000
0000
0100
0000
0000
1000
0000
0000
0001
0000
0000
0100
0000
0000
0000
0000
0000
0000
0000
0000
0000
0000
0000
,
0001
0100
1000
0100
0010
0000
0000
0000
0001
1000
0001
0100
0010
0000
1000
0001
,
0100
0000
0000
0010
0000
0000
1000
0000
0000
0001
0000
0000
0100
0000
0000
0000
0000
0000
0000
0000
0000
0000
0000
0000
0010
0000
0000
0000
0100
0000
0000
0000
0001
0000
0000
0000
0100
0000
0000
0000
0001
0000
0000
0000
1000
0000
0000
0000
,
0010
0100
0001
0010
0001
1000
0010
0100
0010
1000
0010
0100
,
0001
1000
0100
0010
0001
0010
0001
1000
0100
1000
0001
0100
,
0010
1000
0001
0010
0100
0010
0001
0010
0001
0100
0001
0010
,
0100
0000
0000
0000
0000
0000
0000
0000
0010
0000
0000
0000
0000
0000
0000
0000
0001
0000
0000
0000
0000
0000
0000
0000
1000
0000
0000
0000
0000
0000
0000
0000
0010
0000
0000
0000
0000
0000
0000
0000
0100
0000
0000
0000
0000
0000
0000
0000
0010
0000
0000
0000
0000
0000
0100
0000
0000
0001
0000
0000
0010
0000
0000
0100
0000
0000
1000
0000
0000
0000
0000
0000
0010
0000
0000
0000
0000
0000
0100
0000
0000
1000
0000
0000
0001
0000
0000
0100
0000
0000
0010
0000
0000
0000
0000
0000
,
0100
0000
1000
0100
0010
0001
0100
0000
0001
0000
1000
0001
1000
0001
1000
0001
,
1000
0010
0220
0000
0000
0000
0000
0000
,
0330
0000
0000
0000
,
0000
0000
0000
0000
0000
0000
1000
0000
0001
0000
1000
0000
0001
0000
1000
0000
0001
0000
1000
0000
0000
0110
0000
0000
,
0000
0000
0000
0000
0000
0000
0110
0000
0000
0000
0000
0000
1000
0000
0000
0000
0001
0000
1000
0000
0000
0000
0001
0000
0000
0000
0000
1000
0000
0000
0001
0000
0000
0000
0000
0000
1000
0000
0000
0001
0000
0000
1000
0000
0000
0001
0000
0000
,
1000
0001
1000
0002
0000
0000
0000
0000
0000
0000
0000
0000
0000
0000
0000
0000
,
0000
0000
2000
0000
,
0000
0000
0000
0000
0000
0000
0000
0000
0000
0000
0000
0000
0000
0000
0000
0000
0000
0000
0000
0000
0000
0000
0000
0000
0000
3003
0000
0000
0000
0000
0000
0000
0001
0000
0000
0000
0000
0000
0000
0000
0100
0000
0000
0000
0000
0000
0000
0000
0001
0000
0000
0000
0000
0000
0000
0000
0100
0000
0000
0000
0000
0000
0000
0000
,
0010
0100
0001
1000
0100
1000
0010
0100
,
0010
1000
0100
0010
0100
1000
0010
1000
,
0100
1000
0001
0010
0100
1000
0001
1000
,
0010
1000
0100
0010
0001
0100
0010
1000
,
0100
0010
0001
0100
0010
0100
0001
1000
,
0001
0100
0010
1000
0001
0010
0001
0100
,
0001
1000
0100
1000
0010
1000
0100
0010
,
0001
0100
0001
1000
0100
0010
0001
0100
,
0001
1000
0100
0010
0001
1000
0100
0010
,
0001
1000
0001
0100
0001
0010
0100
1000
,
0001
1000
0100
0010
0100
1000
0010
0100
,
0001
0000
1000
0000
0010
0000
0000
1000
0000
0000
0010
0000
0100
0000
0000
0001
,
0000
0100
0000
0000
1000
0000
0001
0100
0000
0000
0001
0000
0100
1000
0000
0000
,
0001
0000
0000
0000
0000
1000
0000
0000
0100
0000
0000
0001
0000
0000
0100
0000
0010
0000
1000
0000
0010
0000
0001
0000
0010
0000
1000
0000
0001
0000
0100
0000
,
0010
0000
0001
0100
0000
1000
0000
0000
0001
0000
0000
0000
1001
0000
0000
0000
0100
0000
0010
0000
0001
0000
0000
0000
0001
1000
0001
1000
0001
1000
0000
0000
,
0010
0000
0000
0000
0000
0000
0000
0000
0000
0000
0000
0000
0100
0000
0000
0000
0000
0000
0000
0000
0000
0000
0000
0000
1000
0000
0000
0000
0000
0000
0000
0000
0100
0000
0000
0000
0000
0000
0000
0000
0000
0000
0000
0000
0000
0001
0000
0000
0000
0000
0000
1000
0000
0000
0000
0000
0000
0001
0000
0000
0000
0000
0000
1000
0000
0000
0000
0000
0000
0000
0000
0000
0000
0000
0000
0000
0000
0000
0000
0000
0000
0000
0000
0000
0001
0000
0000
0000
0000
0000
0000
0000
0000
0000
0000
0000
1000
0000
0000
0000
0000
0000
0000
0000
0000
0000
0000
0000
0000
0000
0000
0000
0000
0000
0000
0000
0000
0000
0000
0000
0010
0000
0000
0000
0000
0000
0100
0000
0000
0000
0000
0000
0010
0000
0000
0000
0000
0000
0000
0000
0000
0000
0000
0000
1000
0000
0000
0000
0000
0000
0000
0000
0000
0000
0000
0000
0001
0000
0000
0000
0000
0000
0000
0000
0000
0000
0000
0000
0000
0000
0000
0000
0000
0000
0000
0000
0000
0000
0000
0000
0000
0000
0000
0000
0000
0000
0000
0000
0000
0000
0000
0000
,
0000
0000
0000
0000
,
0000
1001
0000
0000
,
0000
0000
0000
0000
,
0000
0000
0000
0000
,
0000
0000
0000
0000
,
0000
0000
0000
0000
,
1001
1001
0000
0000
;
