#TITLE:RAGING FIRE;
#ARTIST:NAMCO Sound Team "Xeronoxxxia";
#GENRE:ナムコオリジナル;
#MUSIC:RAGING FIRE.ogg;
#BANNER:RAGING FIRE.png;
#BACKGROUND:RAGING FIRE-bg.png;
#CDTITLE:./CDTitles/NSD WORLD.png;
#SAMPLESTART:13.075;
#SAMPLELENGTH:15.000;
#SELECTABLE:YES;
#OFFSET:0.000;
#BPMS:0.000=300.000
,274.000=150.000
,275.000=300.000
,305.000=150.000
,306.000=300.000
,336.000=150.000
,337.000=300.000
,367.000=150.000
,368.000=300.000
;
#STOPS:;
#DISPLAYBPM:300.000;
#BGCHANGES:;
#FGCHANGES:;

//--------------- dance-single - ----------------
#NOTES:
     dance-single:
     :
     Beginner:
     4:
     0,0,0,0,0:
0000
0000
0000
0000
,
0000
0000
0000
0000
,
0000
0000
0000
0000
,
0000
0000
0000
0000
,
0000
0000
0000
0000
,
0000
0000
0000
0000
,
0000
0000
0000
0000
,
0000
0000
0000
0000
,
0000
0000
0000
0000
,
1001
0000
0000
0100
,
0000
0000
0110
0000
,
0000
0001
0000
0000
,
1001
0000
0100
0010
,
0100
0000
1000
0000
,
0001
0000
1000
0000
,
0000
0000
0000
0000
,
0000
0000
0000
0000
,
1001
0000
0100
0000
,
0010
0000
0000
0000
,
0001
0000
1000
0000
,
0001
0000
0000
0000
,
0100
0000
0010
0000
,
0001
0000
0000
0000
,
0100
0000
0010
0000
,
0100
0000
0000
0000
,
0100
0000
1000
0000
,
0001
0000
0000
0000
,
0100
0000
0010
0000
,
0100
0000
0000
0000
,
1000
0000
0001
0000
,
0100
0000
0000
0000
,
0010
0000
0001
0000
,
0010
0000
0000
0000
,
0100
0000
1000
0000
,
0001
0000
0000
0000
,
0100
0000
0000
0000
,
0010
0000
0000
0000
,
0001
0000
1000
0000
,
0001
0000
0000
0000
,
0100
0000
0000
0000
,
0010
0000
0000
0000
,
1000
0000
0001
0000
,
0100
0000
0000
0000
,
0010
0000
0000
0000
,
0100
0000
0000
0000
,
0001
0000
1000
0000
,
0001
0000
0000
0000
,
0100
0000
0000
0000
,
0010
0000
0000
0000
,
1000
0000
0000
0000
,
0000
0000
0000
0000
,
0001
0000
0000
0000
,
0000
0000
0000
0000
,
0100
0000
0000
0010
,
0000
0000
0000
0100
,
0000
0000
1000
0000
,
0001
0000
1000
0000
,
1001
0000
0000
0000
,
0100
0000
0000
0000
,
0010
0000
0000
0000
,
0001
0000
0000
0000
,
1000
0000
0001
0000
,
1000
0000
0000
0000
,
2002
0000
0000
0000
,
0000
0000
3003
0000
,
0100
0000
0000
0000
,
0010
0000
0000
0000
,
0001
0000
1000
0000
,
0001
0000
0000
1000
,
0000
0001
0000
0100
,
0000
0000
0000
0010
,
0000
0001
0000
0010
,
0000
0000
0000
1000
,
0000
0001
0000
0100
,
0000
0000
0000
0010
,
0000
0100
0000
1000
,
0000
0000
1000
0000
,
0001
0000
0100
0000
,
0000
0000
0010
0000
,
0001
0000
0010
0000
,
0000
0000
0100
0000
,
0000
0000
1000
0000
,
0000
0000
0001
0000
,
0000
0000
0100
0000
,
0000
1000
0000
0000
,
0000
0001
0000
0000
,
0000
0100
0000
0000
,
0000
0010
0000
0000
,
0000
0100
0000
0000
,
0000
0010
0000
0000
,
0000
0100
0000
1000
,
0000
0100
0000
0000
,
0010
0000
0000
0000
,
0100
0000
0000
0000
,
0010
0000
0001
0000
,
0010
0000
0000
0000
,
0200
0000
0000
0000
,
0300
0000
0000
0000
,
0020
0000
0000
0000
,
0030
0000
0000
0000
,
2000
0000
0000
0000
,
3000
0000
0000
0000
,
0002
0000
0000
0000
,
0003
0000
0000
0000
,
0100
0000
0010
0000
,
0100
0000
0000
0000
,
1000
0000
0001
0000
,
1000
0000
0000
0000
,
1000
0000
0100
0000
,
0010
0000
0001
0000
,
0000
0000
0000
0000
,
0000
0000
0000
0000
,
1001
0000
0000
0000
,
0100
0000
0000
0000
,
0010
0000
0000
0000
,
0001
0000
0000
0000
,
1000
0000
0000
0000
,
0001
0000
0000
0000
,
0100
0000
0000
0000
,
0010
0000
0000
0000
,
0001
0000
0000
0000
,
1000
0000
0000
0000
,
0001
0000
0000
0000
,
0100
0000
0000
0000
,
0010
0000
0000
0000
,
0100
0000
0000
0000
,
1000
0000
0000
0000
,
0001
0000
0000
0000
,
0100
0000
0000
0000
,
0010
0000
0000
0000
,
0100
0000
0000
0000
,
1000
0000
0000
0000
,
0001
0000
0000
0000
,
0100
0000
0000
0000
,
0010
0000
0000
0000
,
0100
0000
0000
0000
,
0010
0000
0000
0000
,
1000
0000
0000
0000
,
0001
0000
0000
0000
,
0100
0000
0000
0000
,
0010
0000
0000
0000
,
0001
0000
0000
0000
,
1000
0000
0001
0000
,
1000
0000
0000
0000
,
1001
0000
0000
0000
;

//--------------- dance-single - ----------------
#NOTES:
     dance-single:
     :
     Easy:
     7:
     0,0,0,0,0:
0000
0000
0000
0000
,
0000
0000
0000
0000
,
0000
0000
0000
0000
,
0000
0000
0000
0000
,
0000
0000
0000
0000
,
0000
0000
0000
0000
,
0000
0000
0000
0000
,
0000
0000
0000
0000
,
0000
0000
0000
0000
,
0101
0000
0000
0100
,
0000
0000
1000
0000
,
0000
0001
0000
0000
,
1000
0000
0001
0000
,
0100
0000
0010
0000
,
1000
0000
0001
0000
,
0200
0300
0200
0300
,
0200
0300
0200
0300
,
1001
0000
0100
0000
,
0010
1000
0001
0000
,
0010
0000
0100
0000
,
1000
0100
0001
0000
,
0100
0000
0010
0000
,
0100
0001
1000
0000
,
0001
0000
0100
0000
,
0010
1000
0001
0000
,
0100
0000
1000
0000
,
0001
1000
0100
0000
,
0010
0000
0100
1000
,
0010
0000
0001
0000
,
1000
0000
0001
0010
,
0100
0000
0010
0000
,
1000
0100
0001
0000
,
0100
1000
0010
0000
,
1001
0000
0010
0100
,
0010
0000
1000
0000
,
0001
0000
0100
0000
,
0010
1000
0001
0000
,
0100
0000
0010
0100
,
1000
0001
1000
0001
,
0100
0000
0010
0000
,
0100
1000
0001
0000
,
0110
0000
1000
0001
,
0100
0010
0100
0000
,
1000
0001
0100
0010
,
0100
1000
0001
0000
,
0110
0000
0100
0010
,
0001
0010
0100
0000
,
1000
0001
0100
0010
,
0100
1000
0001
0000
,
0210
0000
0000
0000
,
0000
0000
0300
0000
,
2000
0000
0000
0000
,
0000
0000
3000
0000
,
0001
1000
0000
0001
,
1000
0000
0000
0001
,
1000
0000
0100
0000
,
0010
0000
0001
0000
,
1001
0000
0100
0000
,
0010
0000
0001
0000
,
0010
0000
0100
0000
,
1000
0000
0001
0000
,
0001
0010
0100
1000
,
0001
0100
0100
0010
,
0200
0000
0000
0000
,
0000
0000
0300
0000
,
1001
0000
0100
0010
,
0100
1000
0001
0100
,
0010
0000
0100
1000
,
0001
0100
0010
0110
,
0000
0001
0010
0100
,
1000
0001
0010
0100
,
1000
0001
0010
0100
,
1000
0010
0100
1001
,
0000
0100
0010
0100
,
1000
0001
0100
0010
,
0000
0100
1000
0001
,
0010
0100
0110
0000
,
0001
0010
0100
0001
,
0010
0000
0100
1000
,
0001
0010
0100
1000
,
0001
0000
0100
0000
,
0100
0000
0010
1000
,
0001
0000
0100
0000
,
1000
0100
0001
0010
,
1000
0101
0000
1000
,
0000
0001
0100
0010
,
0000
1010
0000
0010
,
0100
1000
0001
1000
,
0010
0101
0000
0010
,
1000
0100
0010
0001
,
1000
0001
0010
0100
,
0001
0010
0100
1000
,
1001
0000
0100
0010
,
0100
1000
0001
1000
,
0010
0100
1000
0001
,
0100
0001
0010
0000
,
0220
0000
0000
0000
,
0330
0000
0000
0000
,
0002
0000
0000
0000
,
1003
0000
0000
0000
0000
0100
0000
0000
0000
0010
0000
0000
,
0200
0000
0000
0000
,
0302
0000
0000
0000
,
2003
0000
0000
0000
,
3100
0000
0000
0000
0000
0001
0000
0000
0000
1000
0000
0000
,
0001
0000
0100
0000
,
1000
0000
0001
0000
,
0100
0000
0010
0000
,
0100
0000
1000
0000
,
0001
1000
0001
1000
,
0001
1000
0001
1000
,
0001
0000
0000
0000
,
0000
0000
0000
0000
,
1001
0000
0100
0010
,
0100
1000
0001
0000
,
0100
0010
0100
1000
,
0001
0100
0010
0000
,
0100
0000
1000
0001
,
0100
0010
0100
0000
,
1000
0001
0100
0010
,
0001
0010
0100
0000
,
1000
0000
0001
1000
,
0001
0100
0010
0000
,
0100
0000
1000
0001
,
0010
0100
0010
0000
,
0100
0000
1000
0000
,
0001
0100
0010
0000
,
0010
0001
0010
0100
,
1000
0000
1001
0000
,
0110
0000
0001
0000
,
0010
0000
0100
0000
,
1000
0001
0100
0010
,
0100
0000
1000
0000
,
0001
0000
0100
0000
,
0010
0000
0001
0010
,
0100
1000
0001
0000
,
1000
0001
1000
0000
,
0100
0000
0010
0000
,
0001
1000
0001
0000
,
0100
0000
0010
0000
,
0001
1000
0001
0000
,
0100
0000
0010
0000
,
0100
0000
1000
0000
,
0001
1000
0001
0000
,
0100
0010
0100
1000
,
1001
0000
0000
0000
;

//--------------- dance-single - ----------------
#NOTES:
     dance-single:
     :
     Medium:
     12:
     0,0,0,0,0:
0000
0000
0000
0000
,
0000
0000
0000
0000
,
0000
0000
0000
0000
,
0000
0000
0000
0000
,
0000
0000
0000
0000
,
0000
0000
0000
0000
,
0000
0000
0000
0000
,
0000
0000
0000
0000
,
0000
0000
0000
0000
,
1010
0000
0100
0010
,
0000
1000
0001
0000
,
0010
1000
0000
0100
,
0001
0010
1000
0100
,
0010
0001
0100
1000
,
0001
0100
1000
0100
,
0020
0030
0020
0030
,
0020
0030
1001
0000
,
1001
0000
0000
0100
0000
1000
0010
0000
0000
1000
0000
0000
,
0100
0000
0000
0001
0000
0000
1000
0000
0000
0010
0000
0001
,
0100
1000
0010
1000
,
0001
0010
1000
0100
,
0010
0000
0000
0001
0000
1000
0100
0000
0000
1000
0000
0000
,
0010
0000
0000
1000
0000
0000
0001
0000
0000
0010
0000
0100
,
1000
0100
0010
0001
,
0100
0000
0000
0001
0000
0000
1000
0000
0100
0010
0000
0000
,
0010
0000
0000
1000
0000
0100
0001
0000
0000
0010
0000
0000
,
1000
0001
0010
1000
,
0100
0000
0000
0000
0000
1000
0010
0000
0000
0001
0000
0000
,
0100
0010
1000
0100
,
0001
0000
0000
0100
0000
0010
1000
0000
0000
0100
0000
0000
,
0010
0001
0100
1000
,
0001
0010
1000
0100
,
0010
0000
0100
0001
0000
0000
0100
0000
0010
0000
0000
0100
,
1000
0000
0000
0010
0000
0001
0100
0000
0000
0010
0000
0000
,
0100
0000
0000
1000
0000
0000
0001
0000
0000
0010
0000
0100
,
1000
0000
0000
0000
0000
0100
0010
0000
0000
0000
0000
1000
,
0100
0001
1000
0100
,
0010
0000
0000
0000
0000
0001
0100
0000
0000
0010
0000
0000
,
0001
0000
0000
1000
0000
0000
0001
0000
0100
1000
0000
0000
,
0010
1000
0100
1000
,
0010
0001
1000
0010
,
0100
0000
0000
0010
0000
0100
0001
0000
0000
1000
0000
0000
,
0010
0000
0000
0100
0000
0000
0010
0000
1000
0010
0000
0000
,
0001
1000
0010
0100
,
0010
0001
1000
0001
,
0100
0000
0000
0010
0000
1000
0010
0000
0000
0100
0000
0000
,
1000
0000
0000
0100
0000
0000
0010
0000
0000
1000
0000
0100
,
0001
0000
0000
1000
0000
0000
0010
0000
0001
0100
0000
0000
,
0010
0001
1000
0010
,
0120
0000
0000
0000
,
0000
0000
0230
0000
,
0302
0000
0000
0000
,
0000
0000
0203
0310
,
1000
0001
0100
1000
,
0001
0100
0000
1000
,
0001
0000
0000
1000
0000
0001
0010
0000
0000
0000
0000
0000
,
0100
0000
1000
0001
0000
0000
1000
0000
0000
0000
0000
0000
,
1000
0100
0010
0001
,
0100
0001
1000
0001
,
0100
1000
0010
0100
,
0001
0010
1000
0010
,
1000
0100
0010
0001
,
1000
0010
0010
0100
,
0020
0000
0000
0000
,
0000
0000
0030
0000
,
1001
0000
0000
0100
0000
0001
0010
0000
0000
0100
0000
0000
,
0010
0001
1000
0010
,
0100
0000
0000
1000
0000
0100
0010
0000
0000
0001
0000
0000
,
1000
0010
0100
0110
,
0001
0000
0100
1000
0000
0000
0100
0000
0000
0010
0000
0000
,
0001
0000
0000
1000
0000
0001
0100
0000
0000
0010
0000
0000
,
0001
0000
0100
1000
0000
0000
0100
0000
0000
0010
0000
0000
,
0001
0000
0000
0100
0000
1000
0010
0000
0000
0001
0000
0000
,
0100
0000
1000
0010
0000
0000
0100
0000
0000
0010
0000
0000
,
0001
1000
0010
0100
,
1000
0000
0100
0010
0000
0000
0001
0000
0000
1000
0000
0000
,
0100
0000
0000
0010
0000
0000
0110
0000
0000
0001
0000
0010
,
1000
0100
0010
1000
,
0100
0000
0010
0001
0000
0000
0010
0000
0000
0001
0000
0100
,
1000
0100
0010
0001
,
1000
0000
0001
0100
0000
0000
0010
0000
0000
1000
0000
0100
,
0010
0001
0100
0001
,
1000
0000
0000
0100
0000
1000
0010
0000
0000
1000
0000
0100
,
0001
0010
1000
0100
,
0001
0000
0000
1010
0000
0000
0100
0000
0010
0001
0000
0000
,
0100
1000
0010
0100
,
0000
0000
0000
0101
0000
0000
0000
0000
1000
0100
0000
0000
,
0010
0001
1000
0001
,
0100
0000
0000
1010
0000
0000
0001
0000
1000
0100
0000
0000
,
0001
0010
0100
1000
,
0001
0000
0000
1000
0000
0000
0100
0000
0001
0010
0000
0000
,
1000
0100
0010
0001
,
1001
0000
0000
0000
0000
1000
0010
0000
0000
0100
0000
0000
,
0010
0000
0000
0001
0000
0010
1000
0000
0000
0001
0000
0000
,
0100
0000
0000
0010
0000
1000
0001
0000
0000
1000
0000
0000
,
0010
1000
0100
0001
,
0220
0000
0330
0000
,
0101
0000
0000
0000
,
2020
0000
3030
0000
,
0101
0000
0000
0000
0000
0010
0000
0000
0000
0100
0000
0000
,
0220
0000
0300
0000
,
2030
0000
0000
0000
,
3002
0000
0000
0000
,
0013
0000
0000
0000
0000
1000
0000
0000
0000
0001
0000
0000
,
1000
0100
0010
1000
,
0001
0100
1000
0100
,
0010
0001
0100
1000
,
0010
0100
0001
0100
,
1000
0000
0010
0001
0000
0000
1000
0000
0010
0001
0000
0000
,
1000
0000
0010
0001
0000
0000
1000
0000
0010
0001
0000
0000
,
1000
0000
0000
0200
0000
0300
0200
0000
,
0300
0002
0000
0003
1001
0000
0000
0000
,
1001
0000
0000
0100
0000
1000
0010
0000
0000
0100
0000
0000
,
0010
0000
0000
0001
0000
0000
1000
0000
0000
0100
0000
0001
,
0010
0100
0010
0001
,
1000
0000
0000
0010
0000
0000
0100
0000
0001
1000
0000
0000
,
0010
0000
0000
0100
0000
1000
0001
0000
0000
1000
0000
0000
,
0010
0000
0000
0100
0000
0000
0010
0000
0000
1000
0000
0100
,
0001
1000
0010
0100
,
1000
0000
0001
0100
0000
1000
0010
0000
0000
0100
0000
0000
,
0001
0000
0000
0100
0000
0010
1000
0000
0000
0001
0000
0000
,
1000
0000
0000
0010
0000
0000
0100
0000
0000
0001
0000
0100
,
0010
0000
0000
0100
0000
0010
0001
0000
0000
1000
0000
0000
,
0100
0010
0100
1000
,
0010
0000
0000
1000
0000
0100
0001
0000
0000
0100
0000
0000
,
1000
0000
0000
0010
0000
0000
0100
0000
0000
0001
0000
0010
,
0100
1000
0100
0010
,
0001
0000
0000
0100
0000
0000
1000
0000
0010
0001
0000
0000
,
0100
0000
0000
0010
0000
0100
1000
0000
0000
0010
0000
0000
,
0100
0000
0000
1000
0000
0000
0010
0000
0000
0100
0000
1000
,
0001
1000
0010
0100
,
0010
0000
0000
1000
0000
0010
0001
0000
0000
0100
0000
0000
,
1000
0000
0000
0100
0000
1000
0010
0000
0000
0001
0000
0000
,
0100
0000
0000
0001
0000
0010
1000
0000
0000
0100
0000
1000
,
0010
0000
0000
0001
0000
0000
1000
0000
0000
0100
0000
0010
,
0001
1000
0001
0100
,
0010
0000
0000
0000
0000
0010
0100
0000
0000
0010
0000
0000
,
1000
0000
0010
0001
0000
0000
1000
0000
0000
0100
0000
0000
,
0010
0000
0000
0001
0000
0010
0100
0000
0000
0010
0000
0000
,
1000
0000
0000
0001
0000
0000
1000
0000
0010
0100
0000
0000
,
0010
0000
0000
1000
0000
0001
0100
0000
0000
0010
0000
1000
,
0010
0000
0000
0100
0000
0000
0001
0000
0100
0010
0000
0000
,
1000
0000
0000
0001
0000
0100
1000
0000
0000
0001
0000
0100
,
0010
0000
0000
0100
0000
0000
0010
0000
0100
0001
0000
0000
,
1001
0000
0000
0000
;

//--------------- dance-single - ----------------
#NOTES:
     dance-single:
     :
     Hard:
     17:
     0,0,0,0,0:
0000
0000
0000
0000
,
0000
0000
0000
0000
,
0000
0000
0000
0000
,
0000
0000
0000
0000
,
0000
0000
0000
0000
,
0000
0000
0000
0000
,
0000
0000
0000
0000
,
0000
0000
0000
0000
,
0000
0000
0000
0000
,
1001
0000
0100
0101
,
0000
0100
1001
0000
,
0010
0110
0000
1000
,
0110
0000
0000
0100
0000
0000
1000
0000
0001
0100
0000
1000
,
0001
0000
0010
0100
0000
1000
0001
0000
0100
0010
0000
0001
,
0010
0000
0100
0001
0000
1000
0001
0000
0100
0010
0000
0001
,
0020
0030
0020
0030
,
0020
0030
1001
0000
,
0110
0000
0000
0100
0000
1000
0010
0000
0000
0100
0000
0001
,
0010
0000
0000
0100
0000
0010
1000
0000
0000
0001
0000
0010
,
0100
0010
1000
0100
,
1000
0100
1000
0010
,
0100
0000
0000
0001
0000
0010
0100
0000
0000
0010
0000
0100
,
1000
0000
0000
0001
0000
0100
1000
0000
0000
0010
0000
0100
,
1000
0000
0000
0100
0000
0001
0010
0000
0000
0100
0000
1000
,
0010
0000
0000
0100
0000
0001
1000
0000
0010
0001
0000
0000
,
1000
0000
0000
0010
0000
0100
1000
0000
0000
0001
0000
0010
,
0100
0000
0000
0010
0000
1000
0100
0000
0000
0001
0000
0100
,
0010
0000
0000
0001
0000
0010
0100
0000
0000
0001
0000
1000
,
0100
0000
0000
0010
0000
1000
0100
0000
0000
0010
0000
0000
,
1000
0000
0100
0001
0000
0010
1000
0000
0001
0100
0000
0000
,
1000
0000
0000
0001
0000
0010
0100
0000
0000
0001
0000
0010
,
0100
0000
0000
0001
0000
1000
0010
0000
0000
0100
0000
0001
,
1000
0000
0000
0100
0000
0000
0010
0000
1000
0100
0000
0001
,
0010
0000
0000
0001
0000
0100
1000
0000
0000
0001
0000
0010
,
0100
0000
0000
0010
0000
0000
0100
0000
0010
0001
0000
0010
,
0100
0000
1000
0001
0000
0010
1000
0000
0000
0001
0000
0000
,
1000
0000
0100
0010
0000
0000
1000
0000
0001
0100
0000
0000
,
0010
0000
0100
0001
0000
1000
0010
0000
0000
0001
0000
0100
,
1000
0000
0000
0010
0000
0001
1000
0000
0000
0100
0000
1000
,
0010
0000
0001
0100
0000
0001
0010
0000
1000
0001
0000
0000
,
0010
0001
1000
0100
0000
0010
1000
0000
0001
0100
0000
0000
,
0010
0000
0000
0001
0000
0100
1000
0000
0100
0010
0000
0001
,
0100
0000
0000
0010
0000
1000
0100
0000
0010
0001
0000
1000
,
0010
0001
0010
0100
0000
0000
1000
0000
0001
0100
0000
0000
,
0010
0000
1000
0001
0000
0000
0010
0000
0100
0001
0000
0100
,
1000
0000
0100
0001
0000
0010
1000
0000
0000
0100
0000
0000
,
0010
0000
0000
0001
0000
1000
0100
0000
0001
0010
0000
0100
,
1000
0000
0000
0010
0000
0001
0100
0000
1000
0001
0000
0000
,
1000
0001
0100
0010
0000
0000
1000
0010
0100
0001
0000
0000
,
1001
0000
0200
0300
0200
0300
0200
0300
,
0200
0300
0200
0300
1000
0001
1000
0001
,
1001
0000
0020
0030
0020
0030
0020
0030
,
0020
0030
0020
0030
0001
1000
1001
0000
,
0110
0000
0200
0300
0200
0300
0110
0000
,
0101
0000
0020
0030
0020
0030
1010
0000
,
1010
0000
0000
0000
0000
0000
0020
0000
0000
0030
0001
0000
0010
0000
0000
0000
0000
0000
1000
0000
0000
0000
0100
0000
,
1000
0000
0001
0100
0000
0001
0010
0000
0000
1000
0000
0000
,
0100
0000
0000
0001
0000
0000
1000
0000
0000
0010
0000
0100
,
1000
0000
0000
0010
0000
0001
0100
0000
0010
0001
0000
0000
,
1000
0000
0000
0100
0000
0000
0010
0000
1000
0100
0000
0001
,
0010
0000
1000
0001
0000
0010
0100
0000
0000
0010
0000
0000
,
1000
0000
0100
0010
0000
0001
1000
0000
0100
0010
0000
1000
,
0100
0000
0010
0001
0000
1000
0100
0000
0010
0001
0000
1000
,
0010
0000
0010
0000
0010
0000
0010
0000
0010
0000
0100
0000
,
0100
0000
0100
0000
0100
0000
0100
0000
0000
0000
0000
0000
,
1001
0000
0000
0000
0000
0001
0100
0000
0000
1010
0000
0000
,
0010
0002
2003
3020
,
0130
0000
0000
1000
0000
0010
0100
0000
0000
0011
0000
0000
,
0020
0230
2300
3001
,
0000
0000
1000
0001
0000
0000
0010
0000
0000
0110
0000
0000
,
0100
0000
0000
0010
0000
0001
0100
0000
0010
1000
0000
0000
,
0100
0000
0001
0100
0000
0000
2000
0000
0000
3200
0000
0000
,
0320
0000
0000
0031
0000
1000
0010
0000
0000
0110
0000
0000
,
0000
0000
0001
0100
0000
0000
0010
0000
0000
2000
0000
0000
,
3200
0320
0032
1003
,
0100
0000
1000
0010
0000
0000
1000
0000
0000
0001
0000
0000
,
0110
0000
0000
1002
0000
0000
1003
0000
0000
0000
0000
0001
,
0100
2000
3200
0320
,
0031
0000
1000
0100
0000
0000
0010
0000
0000
0001
0000
0010
,
0100
1010
0110
0101
,
1000
0000
0010
0100
0000
0000
1001
0000
0000
0000
0000
0001
,
0100
1000
0110
0100
,
0100
0000
0000
0001
0000
1000
0001
0000
0000
0000
0000
1000
,
0001
0101
0110
1001
,
0110
0000
0000
1001
0000
0000
0000
0000
0001
0100
0000
0000
,
1000
0110
0100
0100
,
0001
0000
1000
0001
0000
0000
0000
0000
1000
0001
0000
0000
,
0101
0000
0000
0110
0000
0000
1001
0000
0000
0100
0000
0010
,
0100
0000
0000
1001
0000
0000
0000
0000
0001
0100
0000
0000
,
1010
0010
0002
2003
,
3020
0000
0000
0130
0000
0000
1000
0000
0010
0100
0000
0000
,
0011
0020
0230
2300
,
3001
0000
0000
0000
0000
1000
0001
0000
0000
0010
0000
0000
,
0110
0000
0000
0100
0000
0000
0010
0000
0001
0100
0000
0010
,
1000
0000
0000
0100
0000
0001
0100
0000
0000
2000
0000
0000
,
3200
0320
0032
1003
,
2002
0000
3003
0000
,
0202
0000
0303
0000
,
2020
0000
3030
0000
,
0101
0000
0000
0000
0000
1001
0000
0000
0100
0001
0000
0000
,
0220
0000
0330
0000
,
2020
0000
3030
0000
,
0022
0000
0033
0000
,
1010
0000
0000
0000
0000
0101
0000
0000
0000
0101
0000
0000
,
1001
0000
0000
0000
0000
0100
0000
0000
0000
0101
0000
0000
,
0010
0000
0000
0000
0000
0100
1000
0000
0000
0100
0000
0000
,
0010
0000
0000
0010
0000
1000
0010
0000
0000
1000
0000
0000
,
0100
0000
0001
0100
0000
0010
1000
0000
0001
0100
0000
1000
,
0001
0000
0010
0100
0000
1000
0001
0000
0100
0010
0000
0001
,
0010
0000
0100
0001
0000
1000
0001
0000
0100
0010
0000
0001
,
0100
0000
0000
0200
0000
0300
0200
0000
,
0300
0002
0000
0003
1001
0000
0000
0000
,
0110
0000
0000
0100
0000
1000
0010
0000
0000
0100
0000
0001
,
0010
0000
0000
0100
0000
0010
1000
0000
0000
0001
0000
0010
,
0100
0000
0000
0010
0000
0100
1000
0000
0000
0100
0000
0001
,
1000
0000
0000
0100
0000
0001
1000
0000
0000
0010
0000
0001
,
0100
0000
0000
0001
0000
0010
0100
0000
0000
0010
0000
0100
,
1000
0000
0000
0001
0000
0100
1000
0000
0000
0010
0000
0100
,
1000
0000
0000
0100
0000
0001
0010
0000
0000
0100
0000
1000
,
0010
0000
0000
0100
0000
0001
1000
0000
0010
0001
0000
0000
,
1000
0000
0000
0010
0000
0100
1000
0000
0000
0001
0000
0010
,
0100
0000
0000
0010
0000
1000
0100
0000
0000
0001
0000
0100
,
0010
0000
0000
0001
0000
0010
0100
0000
0000
0001
0000
1000
,
0100
0000
0000
0010
0000
1000
0100
0000
0000
0010
0000
0000
,
1000
0000
0100
0001
0000
0010
1000
0000
0001
0100
0000
0000
,
1000
0000
0000
0001
0000
0010
0100
0000
0000
0001
0000
0010
,
0100
0000
0000
0001
0000
1000
0010
0000
0000
0100
0000
0001
,
1000
0000
0000
0100
0000
0000
0010
0000
1000
0100
0000
0001
,
0010
0000
0000
1000
0000
0100
0010
0000
0000
0101
0000
0000
,
1010
0000
0000
0100
0000
0010
0100
0000
0000
1000
0000
0001
,
0010
0000
0000
1000
0000
0100
0010
0000
0000
0001
0000
0010
,
0100
1000
0001
0100
,
0010
0000
0000
1000
0000
0001
0100
0000
0000
1000
0000
0000
,
0010
0000
1000
0100
0000
0000
0010
0000
0001
0010
0000
0000
,
1000
0000
0100
0010
0000
0000
1000
0000
0001
0010
0000
0000
,
0010
0000
0100
1000
0000
0000
0001
0000
0010
0100
0000
0000
,
1000
0000
0001
0100
0000
0010
0100
0000
0000
1000
0000
0001
,
0010
0000
0000
1000
0000
0010
0100
0000
0000
0001
0000
0010
,
0100
0000
0000
1000
0000
0001
0100
0000
0000
0100
0000
0010
,
0100
1000
0010
0001
,
1001
0000
0000
0000
0000
0100
0010
0000
0000
0001
0000
0000
,
1010
0000
0000
0100
0000
0000
0001
0000
0010
0100
0000
0000
,
1000
0000
0000
0100
0000
0010
0100
0000
0000
1000
0000
0001
,
0100
0000
0000
1000
0000
0001
0100
0000
1000
0010
0000
0100
,
1001
0000
0000
0000
;
