
//----- song ID: pitf -----//
#TITLE:ピッチフェイダ;
#ARTIST:NAMCO Sound Team "Sho Okada" feat. ボンジュール鈴木;
#TITLETRANSLIT:Pitch Fader;
#ARTISTTRANSLIT:NAMCO Sound Team "Sho Okada" feat. Bonjour Suzuki;
#GENRE:ナムコオリジナル;
#MUSIC:Pitch Fader.ogg;
#BANNER:Pitch Fader.png;
#BACKGROUND:Pitch Fader-bg.png;
#CDTITLE:./CDTitles/NSD WORLD.png;
#SAMPLESTART:27.993;
#SAMPLELENGTH:15.000;
#SELECTABLE:YES;
#OFFSET:0.000;
#BPMS:0.000=180.000
,110.000=135.000
,113.000=180.000
,126.000=135.000
,129.000=180.000
,140.000=135.000
,143.000=145.000
,146.000=156.000
,149.000=168.000
,152.000=180.000
,155.000=193.000
,158.000=206.000
,161.000=225.000
,164.000=180.000
,260.000=135.000
,263.000=145.000
,266.000=156.000
,269.000=168.000
,272.000=180.000
,275.000=193.000
,278.000=206.000
,281.000=225.000
,286.000=180.000
,299.000=225.000
,304.000=180.000
,316.000=225.000
,321.000=135.000
,324.000=145.000
,327.000=156.000
,330.000=168.000
,333.000=180.000
,336.000=193.000
,339.000=206.000
,342.000=225.000
,345.000=222.000
,348.000=235.000
,351.000=250.000
,354.000=265.000
,357.000=275.000
,360.000=286.000
,362.000=300.000
,364.000=400.000
,365.000=500.000
,366.000=600.000
,367.000=700.000
,368.000=800.000
,369.000=900.000
,370.000=1000.000
,371.000=2000.000
,372.000=2765.000
,565.000=10.000
;
#STOPS:18.000=0.333
,139.250=0.333
;
#BGCHANGES:;
#FGCHANGES:;

//--------------- dance-single - ----------------
#NOTES:
     dance-single:
     :
     Beginner:
     5:
     0,0,0,0,0:
0000
0000
0000
0000
,
0000
0000
0000
0000
,
0000
0000
0000
0000
,
0000
0000
0000
0000
,
0000
0000
0000
1000
,
0000
0001
0000
0100
,
0000
0010
0000
1000
,
0000
0001
0000
0200
,
0000
0320
0000
1030
,
0000
0001
0000
0100
,
0000
0010
0000
0100
,
0000
1000
0000
0001
,
1000
0001
0000
0100
,
0000
0010
0000
0001
,
0000
0100
0000
0010
,
0000
0100
0000
1000
,
0000
0001
0000
0100
,
0000
0010
0000
0001
,
0000
1000
0000
0100
,
0000
0010
0000
0001
,
0000
1000
0000
0001
,
0000
0100
0000
0010
,
0000
0100
0000
1000
,
0000
0001
0000
0100
,
0010
0010
0000
0100
,
0000
1000
0000
0001
,
0000
0100
0000
0010
,
0000
0100
0000
1000
,
0000
0001
0010
0000
,
0001
0000
0100
0000
,
0010
0000
0100
0000
,
0010
1000
0001
1000
,
0001
1000
0000
0010
,
0000
0010
0000
0100
,
0000
0000
1000
0000
0000
0000
0001
1001
,
0000
0000
0000
0200
,
0000
0000
0320
0000
,
0000
0032
0000
0000
,
2003
0000
0000
3002
,
0000
0000
2003
0000
,
0000
3020
0000
0000
,
0230
0000
0000
0300
,
0010
0000
0000
0100
0000
0000
0000
0000
,
1000
0000
0000
0000
,
0001
0000
0000
1000
0000
0000
0000
0000
,
1000
0000
0000
0000
,
0100
0000
0000
0010
0000
0000
1000
0000
,
0001
0000
0000
0000
,
1000
0000
0000
0100
0000
0000
0000
0000
0001
0000
0000
0000
0000
0000
0000
0000
,
1001
0000
0010
0000
,
0100
0000
1000
0000
,
0100
0000
0010
0000
,
0100
0000
0001
0000
,
0100
0000
0010
0000
,
0100
0000
0010
0000
,
1000
0000
0001
0000
,
0100
0000
0010
0000
,
0200
0000
0300
0000
,
0020
0000
0030
0000
,
1000
0000
1000
0000
,
0001
0000
0001
0000
,
0100
0000
0010
0000
,
0100
0000
1000
0000
,
1000
0000
0001
0000
,
0100
0100
0001
0000
,
0100
0010
0100
0000
,
1000
0001
1000
0000
,
0100
0010
0100
0000
,
1000
0000
0001
0000
,
1000
0000
0001
0000
,
1000
2002
0000
0000
,
0000
0000
3003
1001
,
0000
0000
0000
0000
,
0000
0000
0000
0100
,
0000
0000
0000
0010
,
0000
0000
0000
0000
,
1000
0000
0000
0000
,
0001
0000
1000
0000
,
0000
0000
0000
0000
,
1000
0000
0100
0010
,
0100
1000
0000
0000
,
0001
0000
0000
1000
,
0000
0000
0001
0000
,
0000
1000
0000
0000
,
0001
0000
0000
1000
,
0000
0000
0001
0000
,
0000
1000
0000
0000
,
0001
0000
0000
1000
,
0000
0000
0001
0000
,
1000
0000
0001
0000
,
1000
0000
0001
1000
,
0001
1000
0000
2002
,
0000
0000
0000
0000
,
0000
0000
0000
0000
,
0000
0000
0000
0000
,
0000
0000
0000
0000
,
0000
0000
0000
0000
,
0000
0000
0000
0000
,
0000
0000
0000
0000
,
0000
0000
0000
0000
,
0000
0000
0000
0000
,
0000
0000
0000
0000
,
0000
0000
0000
0000
,
0000
0000
0000
0000
,
0000
0000
0000
0000
,
0000
0000
0000
0000
,
0000
0000
0000
0000
,
0000
0000
0000
0000
,
0000
0000
0000
0000
,
0000
0000
0000
0000
,
0000
0000
0000
0000
,
0000
0000
0000
0000
,
0000
0000
0000
0000
,
0000
0000
0000
0000
,
0000
0000
0000
0000
,
0000
0000
0000
0000
,
0000
0000
0000
0000
,
0000
0000
0000
0000
,
0000
0000
0000
0000
,
0000
0000
0000
0000
,
0000
0000
0000
0000
,
0000
0000
0000
0000
,
0000
0000
0000
0000
,
0000
0000
0000
0000
,
0000
0000
0000
0000
,
0000
0000
0000
0000
,
0000
0000
0000
0000
,
0000
0000
0000
0000
,
0000
0000
0000
0000
,
0000
0000
0000
0000
,
0000
0000
0000
0000
,
0000
0000
0000
0000
,
0000
0000
0000
0000
,
0000
0000
0000
0000
,
0000
0000
0000
0000
,
0000
0000
0000
0000
,
0000
0000
0000
0000
,
0000
0000
0000
0000
,
0000
0000
0000
0000
,
0000
0000
0000
0000
,
0000
0000
0000
0000
,
0000
3003
0000
0000
;

//--------------- dance-single - ----------------
#NOTES:
     dance-single:
     :
     Easy:
     7:
     0,0,0,0,0:
0000
0000
0000
0000
,
0000
0000
0000
0000
,
0000
0000
0000
0000
,
0000
0000
0000
0000
,
0000
0000
0000
1000
,
0010
0100
0000
1000
,
0001
0100
0010
1000
,
0001
0000
0100
0000
0010
0000
1000
0010
,
0001
0010
0100
0000
0010
0000
0100
0000
,
1000
0001
0100
0010
,
0100
1000
0001
0010
,
0100
0000
0001
0000
0010
0000
0100
0010
,
1000
0100
0001
0000
1001
0000
0010
0000
,
0100
1000
0001
0100
,
0010
0000
1000
0001
1000
0000
0100
0000
,
0010
0001
0010
0100
,
1000
0000
0001
0100
0010
0000
0100
0000
,
1000
0001
0100
0010
,
0001
0000
0010
0100
1000
0000
0001
0000
,
1000
0000
0001
0100
0010
0000
0100
0000
,
1000
0001
0110
1000
,
0001
0100
1000
0010
,
0001
0100
0000
1000
0000
0000
0001
0000
,
0010
0100
0010
0001
,
1000
0001
0000
0000
1000
0000
0001
0000
,
0100
0000
0010
0000
0001
0000
0010
1000
,
0000
0001
1000
0100
,
0010
0000
1000
0001
0100
0000
0010
0000
,
0100
1000
0001
0100
,
0010
0000
1000
0001
,
0100
0000
0010
0100
1000
0000
0001
0000
,
0100
0010
0100
1000
0001
1000
0001
0100
,
1000
0001
1000
0000
0110
0000
0001
0000
,
0010
0000
0100
1000
0001
0000
0100
0000
,
0010
0000
0001
0010
0100
0000
1000
1001
,
0000
1000
0001
0100
,
0010
1000
0001
0100
,
0010
1000
0001
0100
,
0010
0100
1000
0000
0001
0100
1000
0000
,
0001
0010
0100
0000
0010
0001
0100
0000
,
1000
0100
0010
1000
0100
0001
0010
1000
,
0220
0000
0000
0330
,
1000
0000
0000
0010
0000
0000
0100
0000
,
0010
0000
0000
1000
0000
0000
0000
0000
,
0001
0000
0000
1000
0000
0000
0001
0000
0000
0000
0000
0000
0100
0000
0000
0000
,
0010
0000
0000
1000
0000
0000
0000
0000
,
0001
0000
0000
1000
0000
0000
0100
0000
,
0010
0000
0000
0100
0000
0000
0010
0000
,
1000
0000
0000
0001
0000
0000
0000
0000
0110
0000
0000
0000
1000
0000
0000
0000
,
0001
0000
0100
0000
1000
0001
0100
0000
,
0010
0000
0001
0000
0010
0100
1000
0000
,
0001
0000
0100
0000
0010
0001
0010
0000
,
0100
0000
1000
0000
0001
0100
0010
0000
,
0100
0000
1000
0000
0001
0100
0010
0000
,
0001
0000
0010
0000
0100
0001
0010
0000
,
0100
0000
1000
0000
0001
0100
0010
0000
,
0100
0000
1000
0000
0001
0100
0010
0000
,
0001
0010
0100
0001
,
1000
0000
0001
0000
0100
1000
0001
0000
,
0010
0000
0100
0000
1000
0000
0001
0010
,
0100
0000
1000
0000
0001
1000
0001
0000
,
0100
0000
0010
0000
0100
0001
0010
0000
,
0100
1000
0001
0010
0100
0000
0100
0000
,
1000
0000
0001
0000
0100
0001
0010
0000
,
0100
1000
0001
0000
0010
0000
0100
0000
,
1001
0010
0100
1000
,
0001
0100
0010
1000
,
0001
0100
0010
1000
,
0001
0100
0010
0100
,
1000
0001
0100
0010
,
1000
0000
0001
0100
1000
0001
0010
0100
,
1000
0001
0100
1000
0010
0000
1001
0000
,
0100
0000
0011
0000
,
1000
0000
0101
0010
,
0100
0000
1100
0000
,
0010
0000
0000
0000
0000
0000
0000
0001
0000
0000
0000
0000
0000
1000
0000
0000
0000
0000
0001
0000
0000
0000
0000
0000
,
1000
0100
0000
0110
,
0000
0001
0000
0001
,
1000
0001
0000
0001
,
0100
0000
0000
0000
0000
0000
0010
0000
0000
0000
0000
0000
0100
0000
0000
0001
0000
0000
0100
0000
0010
0000
0000
0000
,
0001
0010
0100
1000
,
0010
1000
0010
0010
,
0100
1000
0010
1000
,
1000
1000
0100
0100
,
0010
1000
0001
1000
,
0100
0010
0001
0100
,
0010
1000
0010
0100
,
0001
0010
0100
1000
,
0010
1000
0100
1000
,
0001
0010
0100
1000
,
0001
0100
0010
1000
,
0020
0000
0000
0000
,
0000
0000
0000
0000
,
0000
0000
0000
0000
,
0000
0000
0000
0000
,
0000
0000
0000
0000
,
0000
0000
0000
0000
,
0000
0000
0000
0000
,
0000
0000
0000
0000
,
0000
0000
0000
0000
,
0000
0000
0000
0000
,
0000
0000
0000
0000
,
0000
0000
0000
0000
,
0000
0000
0000
0000
,
0000
0000
0000
0000
,
0000
0000
0000
0000
,
0000
0000
0000
0000
,
0000
0000
0000
0000
,
0000
0000
0000
0000
,
0000
0000
0000
0000
,
0000
0000
0000
0000
,
0000
0000
0000
0000
,
0000
0000
0000
0000
,
0000
0000
0000
0000
,
0000
0000
0000
0000
,
0000
0000
0000
0000
,
0000
0000
0000
0000
,
0000
0000
0000
0000
,
0000
0000
0000
0000
,
0000
0000
0000
0000
,
0000
0000
0000
0000
,
0000
0000
0000
0000
,
0000
0000
0000
0000
,
0000
0000
0000
0000
,
0000
0000
0000
0000
,
0000
0000
0000
0000
,
0000
0000
0000
0000
,
0000
0000
0000
0000
,
0000
0000
0000
0000
,
0000
0000
0000
0000
,
0000
0000
0000
0000
,
0000
0000
0000
0000
,
0000
0000
0000
0000
,
0000
0000
0000
0000
,
0000
0000
0000
0000
,
0000
0000
0000
0000
,
0000
0000
0000
0000
,
0000
0000
0000
0000
,
0000
0000
0000
0000
,
0000
0000
0000
0000
,
0000
0000
0000
0000
,
0000
0030
0000
0000
;

//--------------- dance-single - ----------------
#NOTES:
     dance-single:
     :
     Medium:
     13:
     0,0,0,0,0:
0000
0000
0000
0000
,
0000
0000
0000
0000
,
0000
0000
0000
0000
,
0000
0000
0000
0000
,
0000
0000
0000
0000
0000
0000
1000
0100
,
0010
0001
0100
0001
0000
0010
1000
0010
,
0001
0000
1100
0000
0010
0000
1000
0010
,
0001
0010
0100
1000
0010
0000
1000
0010
,
0001
0000
0000
0010
0000
0000
0100
0000
0000
0000
1000
0000
0010
0000
0000
0000
0001
0000
0100
0000
0000
0000
0000
0000
,
1000
0010
0001
0010
0100
1000
0010
0001
,
0100
0010
1000
0010
0001
0000
0010
1000
,
0100
1000
0001
1000
0010
1000
0100
0010
,
1000
0100
0001
0000
1001
0000
0010
0001
,
0100
0010
1000
0100
0001
0000
0100
1000
,
0010
0100
1000
0001
1000
0000
0100
0001
,
0010
1000
0001
1000
0010
0000
0100
0001
,
1000
0010
0001
0100
0010
0000
0100
0010
,
1000
0100
0001
1000
0100
0000
0010
1000
,
0001
0100
0010
0100
1000
0000
0001
0010
,
1000
0010
0001
0100
0010
0000
0100
0001
,
1000
0010
0001
0000
0110
0000
1000
0010
,
0001
0000
0100
0001
1000
0000
0010
1000
,
0001
0100
0001
1000
0010
0000
0001
1000
,
0010
0000
0100
1000
0010
0000
0001
0100
,
1000
0001
0100
0010
1000
0010
0001
1000
,
0100
0000
1010
0000
0001
0100
0010
1000
,
0000
0100
0001
0100
1000
0000
0101
0000
,
0010
0100
1000
0001
0100
1000
0010
0001
,
0100
0010
1000
0000
1001
0000
0100
1000
,
0010
0100
0010
0100
1000
0000
0001
1000
,
0100
0000
0010
0100
1000
0100
0001
0010
,
0100
0010
0100
1000
0001
1000
0001
0100
,
1000
0001
1000
0000
0110
0000
0001
1000
,
0010
0001
0100
1000
0001
0010
0100
0000
,
0010
1000
0001
0010
0100
0001
1000
1001
,
0000
0000
1000
0010
0001
1000
0100
0001
,
0010
0100
1000
0100
0001
0010
0100
1000
,
0010
0001
1000
0100
0001
1000
0100
0001
,
0010
0100
1000
0000
0001
0100
1000
0010
,
0001
0010
0100
1000
0010
0001
0100
0001
,
1000
0100
0010
1000
0100
0001
0010
1000
,
0220
0000
0000
0330
,
1000
0000
0100
0010
0000
0000
0100
0000
,
0010
0000
0001
1000
0000
0000
0100
0000
,
0001
0000
0000
1000
0000
0000
0001
0000
0000
0000
0000
0000
0100
0000
0000
0000
,
0010
0000
0001
1000
0000
0100
0010
0000
,
0001
0000
0010
1000
0000
0000
0100
0000
,
0010
0000
1000
0100
0000
0000
0010
0000
,
1000
0000
0000
0001
0000
0000
0000
0000
0110
0000
0000
0000
1000
0000
0000
0000
,
0001
0010
0100
0000
1000
0001
0100
0000
,
0010
1000
0001
0100
0010
0100
1000
0000
,
0001
0000
0100
0000
0010
0001
0010
0000
,
0100
0010
1000
0100
0001
0100
0010
0000
,
0100
0000
1000
0010
0001
0100
0010
0000
,
0001
1000
0010
1000
0100
0001
0010
0000
,
0100
0000
1000
0010
0001
0100
0010
0000
,
0100
0001
1000
0010
0001
0100
0010
0000
,
0001
0000
0010
1000
0100
0000
0001
0000
,
1000
0000
0001
0010
0100
1000
0001
0000
,
0110
0000
0101
0000
1000
0100
0001
0010
,
0100
0000
1000
0010
0001
1000
0001
0000
,
0100
1000
0010
1000
0100
0001
0010
0000
,
0100
1000
0001
0010
0100
0001
0100
0000
,
1000
0100
0001
0010
0100
0001
0010
0000
,
0100
1000
0001
1000
0010
0001
0100
0000
,
1001
0000
0010
1000
0100
0001
1000
0100
,
0001
0010
0100
1000
0010
0001
1000
0100
,
0001
0010
0100
1000
0010
0001
1000
0100
,
0001
0010
0100
1000
0010
0001
0100
0010
,
1000
0010
0001
0010
0100
1000
0010
0100
,
1000
0010
0001
0100
1000
0001
0010
0100
,
1000
0001
0100
1000
0110
0000
1001
0000
,
0010
0000
1100
0000
,
0001
0100
1010
0100
,
0010
1000
0011
0000
,
0100
0000
0000
0000
0000
0000
0000
1000
0000
0000
0000
0000
0000
0001
0000
0000
0000
0000
1000
0000
0000
0000
0000
0000
,
0001
0010
1000
0110
,
0000
1000
0001
1000
,
0001
1000
0000
1000
,
0010
0000
0000
0000
0000
0000
0100
0000
0000
0000
0000
0000
0010
0000
0000
1000
0000
0000
0010
0000
0100
0000
0000
0000
,
1000
0100
0010
0001
,
0100
0001
0100
0100
,
0010
0001
0100
0001
,
0001
0001
0010
0010
,
0100
0001
1000
0001
,
0010
0100
1000
0010
,
0100
0001
0100
0010
,
1000
0100
0010
0001
,
0100
0001
0010
0001
,
1000
0100
0010
0001
,
1000
0010
0100
0001
,
0020
0000
0000
0000
,
0000
0000
0000
0000
,
0000
0000
0000
0000
,
0000
0000
0000
0000
,
0000
0000
0000
0000
,
0000
0000
0000
0000
,
0000
0000
0000
0000
,
0000
0000
0000
0000
,
0000
0000
0000
0000
,
0000
0000
0000
0000
,
0000
0000
0000
0000
,
0000
0000
0000
0000
,
0000
0000
0000
0000
,
0000
0000
0000
0000
,
0000
0000
0000
0000
,
0000
0000
0000
0000
,
0000
0000
0000
0000
,
0000
0000
0000
0000
,
0000
0000
0000
0000
,
0000
0000
0000
0000
,
0000
0000
0000
0000
,
0000
0000
0000
0000
,
0000
0000
0000
0000
,
0000
0000
0000
0000
,
0000
0000
0000
0000
,
0000
0000
0000
0000
,
0000
0000
0000
0000
,
0000
0000
0000
0000
,
0000
0000
0000
0000
,
0000
0000
0000
0000
,
0000
0000
0000
0000
,
0000
0000
0000
0000
,
0000
0000
0000
0000
,
0000
0000
0000
0000
,
0000
0000
0000
0000
,
0000
0000
0000
0000
,
0000
0000
0000
0000
,
0000
0000
0000
0000
,
0000
0000
0000
0000
,
0000
0000
0000
0000
,
0000
0000
0000
0000
,
0000
0000
0000
0000
,
0000
0000
0000
0000
,
0000
0000
0000
0000
,
0000
0000
0000
0000
,
0000
0000
0000
0000
,
0000
0000
0000
0000
,
0000
0000
0000
0000
,
0000
0000
0000
0000
,
0000
0000
0000
0000
,
0000
0030
0000
0000
;

//--------------- dance-single - ----------------
#NOTES:
     dance-single:
     :
     Hard:
     17:
     0,0,0,0,0:
0000
0000
0000
0000
,
0000
0000
0000
0000
,
0000
0000
0000
0000
,
0000
0000
0000
0000
,
0000
0000
0000
0000
0000
0000
0001
0010
,
0100
0000
0010
1000
0001
0000
1000
0000
0100
0000
1000
0000
0001
0000
1000
0000
,
0001
0000
0010
1000
0001
0000
1000
0100
0010
0000
0100
0000
0010
0000
0100
0000
,
0001
0000
0010
0100
0001
0000
0010
0000
0100
0000
1000
0000
0001
1000
0010
0100
,
0001
0000
0000
1000
0000
0000
0100
0000
0001
0000
0010
0000
0001
0000
0100
0000
1000
0000
0001
0000
0000
0100
0000
0000
,
0001
0000
1000
0100
0010
0000
1000
0000
0001
0000
0010
0000
0100
0010
1000
0000
,
0001
0100
1000
0000
0100
0001
0010
0000
0100
0000
0010
0000
0001
0000
1000
0000
,
0100
0000
1000
0010
0001
0000
1000
0000
0001
0000
0010
0000
0001
0010
0100
1000
,
0010
0000
0100
0001
0010
1000
0100
0000
0002
0000
0000
0000
0103
0000
1000
0000
,
0010
0000
1000
0001
0100
0000
0010
0000
0002
0000
0000
0000
0013
1000
0100
0001
,
0010
0000
1000
0000
0001
0000
0100
0000
0001
0000
0100
0000
0001
0010
1000
0000
,
0100
0000
1000
0000
0010
0100
1000
0000
0002
0000
0000
0000
1003
0000
0100
0010
,
0001
0000
0010
0000
0100
0001
1000
0100
0010
0000
0100
0001
0010
0100
1000
0001
,
0100
0000
0010
0000
0100
0001
0010
0000
0100
0000
1000
0000
0010
0001
0100
0000
,
0001
0010
1000
0000
0010
0000
1000
0001
0100
0000
1000
0001
0100
0000
0010
1000
,
0100
0000
1000
0000
0001
0000
0010
1000
0001
0000
0010
0000
0001
1000
0100
0001
,
0010
0000
0100
0001
0010
0000
1000
0100
0020
0000
0000
0000
0031
0000
0010
0000
,
0001
0000
1000
0000
0100
0001
1000
0000
0010
0000
0100
0000
0010
0000
0100
1000
,
0001
0100
0000
1000
0001
0000
0010
0000
0001
0000
0010
0000
0100
0000
0010
0000
,
0001
1000
0100
0000
0001
0000
0010
0000
0001
0010
0000
1000
0100
0000
0010
0000
,
0001
0000
0000
0100
0000
0000
1000
0000
0000
0010
0000
0000
0001
0000
0000
0000
1000
0000
0000
0000
0010
0000
0000
0000
0100
0000
0000
0000
0010
0000
0000
0000
1000
0000
0000
0000
0001
0000
0000
0000
0000
0000
0100
0000
0000
0000
0000
0000
,
0010
0000
0100
0000
0001
0000
0100
0010
0001
0010
0000
0100
0001
0000
0100
0000
,
0010
0000
0100
0010
0001
0000
1000
0100
0010
0000
1000
0100
0010
0000
1000
0001
,
0100
0000
0000
0000
0000
0000
0010
0000
0000
0000
0000
0000
0001
0000
0000
0000
0000
0000
0010
0000
0000
0000
0000
0000
0001
0000
0000
0000
1000
0000
0000
0000
0000
0010
0000
0000
0001
0000
0000
0100
0000
0000
0010
0000
0000
0100
0000
0000
,
1000
0100
0010
1000
0001
0010
0100
0010
0001
0000
1000
0000
0100
0000
0010
0000
,
0100
1000
0010
0000
0001
0010
0100
0010
0001
0010
0000
0100
0001
0000
0010
0000
,
0100
0000
1000
0000
0100
0001
1000
0000
0001
0000
0010
0100
0001
0000
1000
0000
,
0100
0000
1000
0100
0010
0000
0100
0000
0001
1000
0010
0100
0001
0000
0010
1000
,
0100
0001
1000
0100
0010
0000
0100
0000
0001
0000
1000
0000
0001
0100
1000
0000
,
0001
0010
0100
0000
0010
0000
0100
1000
0010
0000
1000
0000
0001
0000
0100
0001
,
0010
0000
1000
0000
0100
0000
1000
0010
0001
1000
0100
0000
0010
0000
1000
0000
,
0010
1000
0001
0100
0010
1000
0100
1000
,
0100
0010
0100
1000
0001
0010
0001
1000
,
0100
1000
0100
1000
0010
0100
0010
1000
,
0010
1000
0001
0100
0001
0010
0100
1000
,
0001
0000
1000
0000
0100
0000
1000
0000
0100
0001
0010
0000
0100
0001
1000
0000
,
0010
0001
0100
0000
0001
1000
0100
1000
0010
1000
0100
0010
0100
1000
0001
0000
,
0220
0000
0000
0330
,
0100
0000
0001
1000
0000
0000
0101
0000
,
0110
0000
1000
0001
0100
0000
1000
0000
,
0100
0000
0000
0001
0000
0000
0100
0000
0000
1000
0000
0000
0010
0000
0000
0100
0000
0000
0001
0000
0010
0000
0000
0000
1000
0000
0000
0000
0100
0000
0000
0000
0010
0000
0000
0000
0002
0000
0000
0000
0000
0000
0000
0000
0000
0000
0000
0000
,
0203
0000
0310
1000
0000
0000
1001
0000
,
0100
0000
0000
0000
0001
0000
1000
0001
0100
0000
0000
0000
0010
1000
0000
0100
,
0001
0000
0010
1000
0100
0001
0100
1000
,
0100
0000
0000
0100
0000
0000
0000
0000
0101
0000
0000
0000
0200
0000
0000
0000
,
0310
0000
0010
0001
1000
0000
0100
0010
1000
0001
0100
0000
2000
0000
0000
0000
,
3100
0000
0010
0001
0100
0000
0010
0100
1000
0000
0001
0000
1000
0000
0010
0000
,
0100
0000
0010
0100
1000
0000
0100
0001
0010
0000
0001
0000
0020
0000
0000
0000
,
0031
0000
0100
0001
1000
0000
0100
0001
1000
0000
0010
0000
0100
0000
0010
0000
,
1000
0000
0100
1000
0010
0000
0001
1000
0100
0000
0001
0000
0020
0000
0000
0000
,
1030
0000
0001
0100
0010
0000
0100
0010
1000
0000
0001
0000
0010
0000
0001
0000
,
0100
0000
0010
0001
1000
0000
0010
0001
1000
0000
0100
0000
0010
0000
0001
0000
,
0010
0000
0100
1000
0010
0000
0001
0100
1000
0000
0001
0010
0100
0000
0001
0000
,
0020
0000
0000
0000
1030
0001
0010
0001
,
1000
0000
0010
0000
0100
0000
0010
0000
0100
1000
0010
0000
1000
0010
0001
0000
,
0100
0000
0010
1000
0100
0000
0010
0000
1000
0100
0010
0001
0100
0000
0001
0000
,
0100
0000
0010
0001
1000
0000
0100
0000
1000
0001
0100
0000
0010
1000
0001
0000
,
0100
0000
0010
1000
0100
0000
0010
0000
0100
0010
0001
0000
1000
0000
0010
0000
,
0100
0000
0001
0100
0010
0000
0001
0000
1000
0100
0001
0000
1000
0100
0010
0000
,
0100
0000
0010
0001
0100
0000
0010
0000
1000
0000
0100
0000
0010
0001
0100
0000
,
0200
0000
0000
0300
0200
0000
0000
0300
0002
0000
0000
0000
1003
0000
0000
0000
,
0100
0010
0100
1000
0001
1000
0001
0100
,
0010
1000
0100
1000
0100
1000
0010
0100
,
0001
1000
0010
1000
0100
1000
0010
0100
,
0001
1000
0001
0100
0001
0010
0100
0010
,
0100
0010
0001
0100
0010
0100
0001
1000
,
0100
0000
0010
0000
0010
1000
0010
0100
0001
1000
0001
1000
0001
0100
0010
0100
,
0010
0100
0001
0010
0001
0010
0100
0010
0100
0000
0000
0000
1001
0000
0000
0000
,
0110
0000
1100
0000
,
0101
0000
1010
0100
,
0110
0000
0011
0000
,
0100
0000
0000
0000
0000
0000
0000
1000
0000
0000
0000
0000
0000
0001
0000
0000
0000
0000
1000
0000
0000
0000
0000
0000
,
0001
0110
0000
0110
,
0000
1010
0000
1100
,
0001
1000
0000
1000
,
0010
0000
0000
0000
0000
0000
0100
0000
0000
0000
0000
0000
0010
0000
0000
1000
0000
0000
0010
0000
0100
0000
0000
0000
,
1000
0000
0100
1000
0010
0100
0010
0100
,
0001
0010
0100
1000
0100
0010
0100
1000
,
0010
0100
0010
0100
0010
1000
0100
0010
,
0100
1000
0100
1000
0010
1000
0001
0100
,
0001
1000
0001
0010
0100
1000
0010
1000
,
0100
1000
0001
0100
0010
1000
0001
0010
,
0100
1000
0010
0100
0010
1000
0001
1000
,
0010
0100
0001
0100
0010
0100
0010
0100
,
0001
1000
0010
0100
0010
1000
0001
1000
,
0010
0100
0010
0100
0001
0010
0100
1000
,
0010
1000
0010
0100
0001
0010
0100
1000
,
0020
0000
0000
0000
,
0000
0000
0000
0000
,
0000
0000
0000
0000
,
0000
0000
0000
0000
,
0000
0000
0000
0000
,
0000
0000
0000
0000
,
0000
0000
0000
0000
,
0000
0000
0000
0000
,
0000
0000
0000
0000
,
0000
0000
0000
0000
,
0000
0000
0000
0000
,
0000
0000
0000
0000
,
0000
0000
0000
0000
,
0000
0000
0000
0000
,
0000
0000
0000
0000
,
0000
0000
0000
0000
,
0000
0000
0000
0000
,
0000
0000
0000
0000
,
0000
0000
0000
0000
,
0000
0000
0000
0000
,
0000
0000
0000
0000
,
0000
0000
0000
0000
,
0000
0000
0000
0000
,
0000
0000
0000
0000
,
0000
0000
0000
0000
,
0000
0000
0000
0000
,
0000
0000
0000
0000
,
0000
0000
0000
0000
,
0000
0000
0000
0000
,
0000
0000
0000
0000
,
0000
0000
0000
0000
,
0000
0000
0000
0000
,
0000
0000
0000
0000
,
0000
0000
0000
0000
,
0000
0000
0000
0000
,
0000
0000
0000
0000
,
0000
0000
0000
0000
,
0000
0000
0000
0000
,
0000
0000
0000
0000
,
0000
0000
0000
0000
,
0000
0000
0000
0000
,
0000
0000
0000
0000
,
0000
0000
0000
0000
,
0000
0000
0000
0000
,
0000
0000
0000
0000
,
0000
0000
0000
0000
,
0000
0000
0000
0000
,
0000
0000
0000
0000
,
0000
0000
0000
0000
,
0000
0000
0000
0000
,
0000
0030
0000
0000
;
