
//----- song ID: plna -----//
#TITLE:POLARiSNAUT;
#ARTIST:cosMo@暴走P;
#ARTISTTRANSLIT:cosMo@BousouP;
#GENRE:ナムコオリジナル;
#MUSIC:POLARiSNAUT.ogg;
#BANNER:POLARiSNAUT.png;
#BACKGROUND:POLARiSNAUT-bg.png;
#CDTITLE:./CDTitles/NSD WORLD.png;
#SAMPLESTART:57.074;
#SAMPLELENGTH:15.000;
#SELECTABLE:YES;
#OFFSET:0.000;
#BPMS:0.000=226.000
,47.000=56.500
,48.000=113.000
,50.000=226.000
,78.000=113.000
,80.000=226.000
,272.000=56.500
,276.000=113.000
,281.000=226.000
,319.000=452.000
,376.000=904.000
,390.000=28.250
,393.000=113.000
,401.000=452.000
,463.000=226.000
,514.000=904.000
,515.000=113.000
,523.000=226.000
;
#STOPS:514.000=0.465;
#BGCHANGES:;
#FGCHANGES:;

//--------------- dance-single - ----------------
#NOTES:
     dance-single:
     :
     Beginner:
     7:
     0,0,0,0,0:
0000
0000
0000
0000
,
0000
0000
0000
0000
,
0000
0000
0000
0000
,
0000
0000
0000
0000
,
0000
0000
0000
0000
,
0000
0000
0000
0000
,
0101
0000
0000
1001
0000
0000
0110
0000
,
0000
1001
0000
0000
0110
0000
2002
0000
,
0000
0000
0000
0000
,
0000
0000
0000
0000
,
0000
0000
0000
0000
,
0000
0000
0000
3003
,
0100
0000
0010
0000
,
0100
0000
1000
0000
,
0001
0000
0100
0000
,
0010
0000
0001
0000
,
1000
0000
0001
0000
,
0100
0000
0010
0000
,
1000
0000
0001
0000
,
0100
0000
1001
0000
,
0010
0000
0100
0000
,
1000
0000
0100
0000
,
0001
0000
1000
0000
,
0001
0100
0010
0000
,
0100
0000
1000
0000
,
0001
0000
0100
0000
,
0010
0000
0001
0000
,
2000
0000
3000
0000
,
0001
0000
0100
0000
,
0010
0000
0001
0000
,
1000
0000
0001
0000
,
0100
0000
0010
0000
,
2000
0000
3000
0000
,
0002
0000
0003
0000
,
0100
0000
0010
0000
,
0001
0000
0000
0000
,
0110
0000
1000
0000
,
0001
0000
0100
0000
,
0010
0000
0001
0000
,
1000
0000
0000
0000
,
0001
0000
0100
0000
,
0010
0000
0000
0000
,
0001
0000
1000
0001
,
0100
0000
0010
0000
,
0110
0000
1000
0000
,
0001
0000
0100
0000
,
1000
0000
0001
0000
,
0100
0000
0100
0000
,
1000
0000
0001
0000
,
0100
0000
1000
0000
,
0002
0000
0000
0000
,
0003
0000
0000
0000
,
1000
0000
0100
0000
,
0010
0000
0000
0000
,
0001
0000
1000
0000
,
0100
0000
0000
0000
,
0010
0000
0001
0000
,
0010
0000
0100
0000
,
1000
0001
1000
0000
,
0100
0010
0100
0000
,
1001
0000
0100
0000
,
0010
0000
0001
0000
,
0010
0000
0100
0000
,
1000
0000
0000
0000
,
0001
0000
1000
0000
,
0001
0000
0100
0010
,
1000
0000
0001
0000
,
1000
0001
0010
1000
,
2002
0000
3003
0000
,
0010
0100
1000
0001
,
1000
0001
0000
0100
,
0000
0000
0000
0020
,
0000
0030
0000
0200
,
0000
0300
0000
2000
,
0000
3000
0000
0002
,
0000
0003
0000
0100
,
0000
0010
0000
0001
,
0000
1000
0000
0001
,
0000
0100
0000
0010
,
1000
0001
0000
1000
,
0000
0001
0000
0100
,
0000
0000
0000
0010
,
0000
0100
0000
1000
,
0000
0000
0000
0001
,
0000
0100
0000
0010
,
0000
0000
0000
1000
,
0000
0001
0000
0100
,
0000
0000
0000
0010
,
0000
0001
0000
0010
,
0000
0100
0000
1000
,
0000
0001
0000
0100
,
0000
0010
0000
1000
,
0000
0001
0000
0100
,
0000
0010
0000
0000
,
2002
0000
0000
0000
,
0000
0000
0000
0000
,
0000
0000
0000
0000
,
0000
0000
3003
0200
,
0320
0031
1000
0001
,
0100
0000
0010
1000
0001
0000
0100
0000
,
0020
1030
0000
0000
,
0101
0000
0000
1001
,
0000
0000
0001
0000
,
0000
0000
1000
0000
,
0000
0020
0000
0000
,
0001
0000
0000
0001
,
0000
0000
0001
0000
,
0030
0000
0000
0000
,
0000
1010
0000
0000
,
0101
0000
0000
1001
,
0000
0000
0001
0000
,
0000
0000
1000
0000
,
0000
2002
0000
0000
,
0000
0000
0000
0000
,
3000
0000
0000
0000
,
0000
0000
0000
1003
,
0100
1000
0010
0100
,
1000
0001
0100
0010
,
1000
0001
0100
0010
,
0100
1000
0001
0100
,
0010
0100
1000
0001
,
0100
0010
1000
0001
,
0100
0010
1000
0001
,
0010
0100
1000
0001
,
1002
0000
0000
0000
,
2003
0000
0000
0000
,
3001
0000
0000
0010
0000
0000
0110
0000
,
1000
0000
0000
0001
0000
0010
0000
0000
,
2000
0000
3000
2002
,
0000
0000
0000
0000
,
0000
0000
0000
0000
,
0000
0000
0000
0000
,
0000
0000
0000
3003
;

//--------------- dance-single - ----------------
#NOTES:
     dance-single:
     :
     Easy:
     10:
     0,0,0,0,0:
0000
0000
0000
0000
,
0000
0000
0000
0000
,
0000
0000
0000
0000
,
0000
0000
0000
0000
,
0000
0000
0000
0000
,
0000
0000
0000
0000
,
1001
0000
0000
0101
0000
0000
0110
0000
,
0000
1001
0000
0000
0100
0000
2002
0000
,
0000
0000
0000
0000
,
0000
3003
0000
0100
,
0010
0000
1000
0010
0001
0100
1000
0001
,
0010
1000
0100
1000
0001
0100
1000
0000
,
0000
0000
1000
0001
,
0100
0010
1000
0001
,
0100
0010
1000
0001
,
0100
0010
0001
0010
,
1000
0000
0001
0100
0010
0000
1000
0000
,
0001
0100
0010
1000
,
0001
0100
0010
1000
,
0001
0100
0010
0000
,
1000
0001
0100
0010
,
1000
0001
0100
0010
,
1000
0001
0100
0010
,
1000
0000
0001
0000
0010
1000
0100
0000
,
0001
0010
0100
1000
,
0001
0100
0001
0010
,
0100
1000
0001
0100
,
0010
1000
0001
0000
1000
0001
0100
0000
,
0010
0000
1000
0000
,
0001
0010
0100
0000
,
0010
0000
1000
0000
,
0001
0100
1000
0001
,
1000
0000
0001
0000
,
0100
0000
0010
0001
,
0010
0000
0100
0000
,
1000
0001
1000
0000
,
1001
0000
0100
0000
,
0010
0001
0010
0000
,
0100
1000
0001
1000
,
0001
0000
0100
0010
,
0100
1000
0001
0000
,
0100
0000
0010
0000
1000
0010
0001
0000
,
0100
1000
0001
0100
,
0010
1000
0001
0100
,
1001
0100
1000
0010
,
0002
0000
0203
0000
,
2300
0000
3002
0000
,
0103
0010
1000
0000
,
1001
0100
0010
1000
,
0001
0010
0001
0100
,
1000
0010
0000
0001
1000
0000
0001
0100
,
0000
1001
0000
0000
,
0110
1000
0001
1000
,
0010
0100
1000
0001
,
0100
0010
0100
1000
,
0001
0100
2000
0000
,
3001
0010
0100
1000
,
0001
1000
0001
0100
,
0010
1000
0001
0100
,
0010
0000
1000
0000
0001
0000
0000
0000
0100
0000
0000
1000
0000
0000
0010
0000
,
0001
1000
0010
0100
,
0001
0010
0100
1000
,
0001
0100
0010
0100
,
1000
0001
0010
0000
0100
0000
1000
0000
,
0001
1000
0000
0001
0100
0000
1000
0001
,
0000
0100
0010
0000
0100
0000
1001
0000
,
0100
1000
0000
0010
1000
0000
0001
0100
,
0000
1000
0001
0000
1000
0100
0001
0010
,
2002
3000
0203
0320
,
1030
0100
0010
0001
,
1000
0001
1000
0000
0001
0000
0220
0000
,
0330
0000
0000
1001
0000
0000
0000
0000
0000
1000
0000
0001
,
0100
0000
0000
0010
0000
1000
0001
0000
0000
0010
0000
0100
,
1000
0000
0000
0001
0000
0010
0100
0000
0000
1000
0000
0001
,
0010
0000
0000
1000
0000
0001
0010
0000
0000
0100
0000
0010
,
0001
0000
0000
0100
0000
1000
0001
0000
0000
0010
0000
0000
,
0100
0000
1000
0000
0001
0000
0100
0001
,
0010
0000
1000
0001
0010
0000
1000
0000
,
0010
0000
0100
0001
0010
0000
0010
1000
,
0100
0000
1000
0010
0001
0000
0010
0000
,
0000
1000
0000
0010
,
0000
0001
0000
0100
,
0000
0010
0000
0100
,
0000
1000
0000
0001
,
0000
0100
0000
0010
,
0000
0100
0000
1000
,
0000
0001
0000
0010
,
0000
0100
0000
1000
,
0000
0001
0000
1000
,
0000
0100
0000
0010
,
0000
0001
0000
0010
,
0000
0100
0000
1000
,
0001
0100
0010
1000
,
0001
0100
0010
1000
,
2002
0000
0000
0000
,
0000
0000
0000
0000
,
0000
0000
0000
0000
,
0000
0000
3003
0020
,
0230
0000
0301
0000
1000
0000
0001
0010
,
0100
0000
1000
0000
0001
0000
0100
0010
,
0200
1300
0000
0000
,
0101
0000
0000
1010
,
0000
0000
0000
0000
0110
0000
0000
0001
,
0000
1000
0001
0100
,
0000
0020
0000
0000
,
0001
0000
0000
1000
,
0000
0000
1000
0000
,
0000
0200
0000
0000
,
0030
0310
0000
0010
,
0100
0000
0100
0010
,
0000
0001
1000
0000
,
0100
1000
0001
0010
,
1000
0120
0000
0000
,
0000
0000
0000
0000
,
2030
0000
0000
0000
,
0000
0000
0000
3001
,
0100
1000
0001
0100
,
0010
1000
0001
0100
,
0010
0100
1000
0001
,
0100
0010
0001
0010
,
1000
0001
0010
0000
0100
1000
0001
0000
,
0010
0100
1000
0000
0001
0010
0100
0000
,
1000
0010
0100
0001
1000
0100
0010
0100
,
0010
1000
0100
0001
1000
0010
0001
0100
,
2002
0000
0000
3003
,
0110
0000
1010
0000
,
1002
0000
0000
0023
0000
0000
0230
0000
,
0301
1000
0001
0010
0000
1000
0001
0010
,
0200
0000
0310
2002
,
0000
0000
0000
0000
,
0000
0000
0000
0000
,
0000
0000
0000
0000
,
0000
0000
0000
3003
;

//--------------- dance-single - ----------------
#NOTES:
     dance-single:
     :
     Medium:
     16:
     0,0,0,0,0:
0000
0000
0000
0000
,
0000
0000
0000
0000
,
0000
0000
0000
0000
,
0000
0000
0000
0000
,
0000
0000
0000
0000
,
0000
0000
0000
0000
,
0101
0000
0000
0110
0000
0000
1001
0000
,
0000
0110
0000
0000
0001
0000
1000
0000
,
0001
0000
1000
0100
0010
0000
0100
0000
,
0010
0000
0001
0100
1000
0000
0001
0000
,
0100
0000
0010
0001
0100
0000
1000
0010
,
0001
0000
0010
0000
0100
0000
1000
0000
0010
0000
0100
0000
2002
0000
0000
3003
,
0000
0000
0010
1000
,
0100
0001
0010
0100
,
1000
0001
0100
0010
,
1000
0001
0100
0010
,
1000
0000
0001
1000
0010
0000
0100
0000
,
1000
0001
0100
0010
,
0001
0000
0100
0001
0010
0000
1000
0000
,
0001
1000
0010
0001
0200
0000
0310
1001
,
0100
0000
1000
0000
0001
0010
0100
0000
,
1000
0000
0001
0000
0010
0100
1000
0000
,
0001
0000
0010
0000
1000
0001
0010
0000
,
0100
0000
0001
0000
0010
0100
1000
0000
,
0001
0000
1000
0000
0001
0010
0100
0000
,
0001
0000
1000
0000
0001
1000
0001
0000
,
0010
0000
0100
0000
0010
0100
1000
0000
,
0001
0010
0100
1000
0010
0001
0100
1000
,
0010
1000
0010
0001
0100
0000
1001
0000
,
0001
0010
0100
1000
0001
0000
1000
0001
,
0100
1000
0001
0000
0100
0010
0001
0100
,
1000
0100
0010
0100
0010
0001
1000
0100
,
0010
0000
1000
0010
1000
0010
1000
0001
,
0010
0100
0010
0001
1000
0001
0010
0001
,
1000
0100
0010
0001
1000
0100
1000
0001
,
0200
0000
0000
0000
0000
0000
0000
0000
0301
0000
0000
1000
0000
0000
0010
0000
,
0001
0000
1000
0010
0001
0000
0100
0000
,
0010
1000
0001
1000
0001
0100
0010
0000
,
1000
0000
0001
0000
0100
0010
1000
0000
,
0001
0000
0010
0000
0100
1000
0001
0010
,
0100
0000
0001
0000
0010
0100
1000
0000
,
1000
0001
0100
0000
0010
0100
0001
0000
,
0010
0100
1000
0000
0001
0010
0100
0000
,
0001
0000
0010
0000
0100
1000
0001
0000
,
1001
0100
0010
0100
,
2000
0000
0000
0000
3001
0010
0100
1000
,
0002
0000
1003
0100
,
0010
0000
1000
0000
0001
1000
0001
0000
,
0010
0100
1000
0001
,
1000
0010
0001
0010
0100
0001
0010
1000
,
0110
0000
0000
0101
0000
0000
1001
0000
,
0000
0000
0000
0100
0000
0000
0010
0000
0000
0100
0000
0000
0001
0000
0010
0000
0001
0000
0010
0000
0001
0000
0010
0000
,
0001
1000
0001
0000
1000
0100
0001
0000
,
0001
1000
0001
0010
0100
1000
0010
0000
,
1000
0001
0010
0100
0010
0100
1000
0000
,
1000
0010
1000
0100
0010
0001
0100
0000
,
1000
0100
0001
0010
1000
0000
0000
0000
0010
0001
0100
0010
1000
0000
0000
0000
,
1000
0100
0010
0001
1000
0000
0000
0000
0010
0100
0001
0010
1000
0000
0010
0000
,
1000
0001
0010
0001
1000
0100
0010
0100
,
0010
0000
0001
0000
1000
0000
0010
0000
1000
0000
0000
0100
0000
0000
0010
0000
,
0100
0000
1000
0010
0100
0001
0100
0001
,
0010
0001
1000
0010
0100
0001
0010
0000
,
1000
0001
0010
0001
1000
0100
1000
0000
,
0010
1000
0100
0000
0010
1000
0001
0000
0100
0010
0001
0000
0100
1000
0001
0000
,
0010
0001
0100
0010
1000
0000
0100
0010
1000
0010
0001
0000
0010
1000
0100
0001
,
0010
0000
0001
0010
1000
0000
0100
0000
1000
0000
0010
0000
1000
0000
0001
0000
,
0010
0001
1000
0010
1000
0001
1000
0001
,
0010
0001
0100
0010
1000
0100
0010
0100
,
2002
3000
0203
0000
,
0310
1000
0001
1001
,
0100
0010
0100
0000
1000
0000
2002
0000
,
3003
0000
0000
0110
0000
0000
0000
0000
0000
0100
0010
1000
,
0010
0000
0000
1000
0010
1000
0001
0000
0000
1000
0010
1000
,
0100
0000
0000
0100
0001
0010
0100
0000
0000
1000
0001
0100
,
0010
0000
0000
1000
0100
1000
0001
0000
0000
1000
0100
0010
,
0001
0000
0000
0100
0010
0100
0001
0000
0000
1001
0000
0000
,
1000
0010
0100
0001
0010
0000
0010
0100
,
0010
0001
1000
0100
0010
0001
1000
0000
,
1000
0010
1000
0001
0010
0000
0010
0001
,
1000
0100
1000
0001
0100
0001
1000
0000
,
0010
0100
0001
0010
,
0001
0010
0100
0010
,
0100
1000
0010
0100
,
0010
0100
0001
0010
,
0001
0100
0001
0100
,
0010
0100
0001
0010
,
0001
0010
0001
1000
,
0010
0100
0010
1000
,
0010
1000
0001
0100
,
0010
1000
0010
0100
,
0010
0100
0001
1000
,
0100
0010
0001
0010
,
0100
1000
0100
1000
,
0010
1000
0100
0010
,
1000
0001
1000
0001
,
1000
0001
1000
0001
,
1000
0001
1000
0001
,
1000
0000
0001
0000
2002
3003
0100
0010
,
0001
1000
1001
0000
0100
0000
0010
0001
,
1000
0000
0101
0000
0010
0000
1000
0001
,
0200
1300
0010
1000
,
0010
0100
0001
1000
,
0001
0000
0010
0000
0001
0000
0000
0110
,
0000
1001
0010
0100
,
0020
0000
0000
0000
,
0001
0000
0000
0001
,
0000
0000
0001
0000
,
0000
0032
0000
0000
,
0000
1003
0100
0001
,
1000
0001
0010
0001
,
1000
0010
1000
0100
,
1000
0001
0010
0001
,
1000
2002
0000
0000
,
0000
0000
0000
3003
,
1000
0010
0001
1000
,
0000
0001
0000
1001
,
0010
0001
0100
0010
1000
0010
0100
0001
,
0010
0001
0010
0100
0010
0100
1000
0100
,
1000
0001
0100
0001
0100
0001
0010
0100
,
1000
0100
0010
0001
0010
0001
1000
0100
,
0010
0001
0100
0010
0100
0001
0010
0100
,
0010
0100
1000
0001
1000
0100
1000
0010
,
0100
0010
0100
0010
1000
0100
1000
0010
,
0100
0001
0010
0100
1000
0010
0100
0001
,
0020
0000
0000
0100
0000
0000
1000
0000
1000
0000
1000
0000
,
0130
0100
1001
0010
,
1000
0001
1000
0001
1000
0000
1001
0000
,
1000
0010
0100
0001
0000
0010
1000
0100
,
0001
1000
0001
1000
0001
1000
0001
0000
0000
2002
0000
0000
,
0000
0000
0000
0000
,
0000
0000
0000
0000
,
0000
0000
0000
0000
,
0000
0000
0000
3003
;

//--------------- dance-single - ----------------
#NOTES:
     dance-single:
     :
     Hard:
     18:
     0,0,0,0,0:
0000
0000
0000
0000
,
0000
0000
0000
0000
,
0000
0000
0000
0000
,
0000
0000
0000
0000
,
0000
0000
0000
0000
,
0000
0000
0000
0000
,
0101
0101
0000
1001
0110
0000
1100
1001
,
0000
0110
1001
0000
0110
0000
0001
0010
,
0100
1000
0001
0010
0100
0010
0100
1000
,
0010
0000
1000
0000
0001
0000
0100
0000
0001
0000
0100
0000
0001
1000
0010
0100
,
0001
0100
0010
0100
0001
0100
0010
1000
0010
0100
0010
0100
0001
0010
0100
0010
,
0100
1000
0010
0100
0010
0100
0001
1000
0100
1000
0100
1000
0200
0000
0000
0320
,
0031
1000
0001
0100
0010
0000
0100
0000
0001
1000
0100
0001
0010
0000
0000
0100
0000
0000
0010
0000
0000
0100
0000
0000
,
0001
0100
0010
1000
0100
1000
0010
1000
,
0100
0010
0100
0010
0100
1000
0010
0100
,
0010
1000
0100
0010
0001
1000
0010
0100
,
0001
0100
0010
0100
0010
1000
0010
0100
,
0001
1000
0001
0010
0001
0010
0100
1000
,
0010
1000
0010
0100
0010
0100
0001
0010
,
0001
0000
0000
0000
1000
0000
0000
0000
0001
0000
1000
0000
0010
0000
0001
0000
0020
0000
0000
0000
0000
0000
0000
0000
1030
0100
0010
0001
1000
0000
0000
0000
,
0001
0000
0100
0000
0001
0000
0100
0000
0001
0010
1000
0000
0010
0000
0100
0000
,
0001
0000
1000
0000
0010
0000
0100
0000
0001
1000
0010
0000
0001
0000
0100
0000
,
0001
0000
0100
0000
0010
0000
1000
0000
0100
0001
1000
0000
0100
0000
1000
0000
,
0010
0000
0100
0000
0001
0000
0010
0000
0001
1000
0010
0000
0100
0000
1000
0000
,
0100
0000
1000
0000
0010
0000
0100
0000
0010
0000
1000
0010
0001
0000
0100
0000
,
0010
0000
1000
0000
0001
0000
0010
0000
0100
0000
0010
0000
0100
1000
0010
0000
,
0001
0000
1000
0000
0001
0000
0010
0000
0100
0000
1000
0000
0100
0001
0010
0000
,
0100
1000
0010
0000
0001
1000
0010
0000
0100
0001
1000
0010
0100
0001
1000
0100
,
0010
0000
1000
0000
0100
0001
0010
0000
0001
1000
0010
0000
0100
0010
1000
0000
,
0001
0000
0010
0000
0001
1000
0010
0100
0001
0010
0100
1000
0010
0000
1000
0000
,
0100
0010
1000
0000
0001
1000
0100
0000
0010
0001
0100
0000
0010
0000
1000
0010
,
0100
0001
1000
0010
0100
0000
1000
0000
0010
1000
0100
0001
0010
0000
1000
0000
,
0001
0000
0100
0000
0010
1000
0100
0000
0001
0000
0010
0000
0100
0000
0010
0000
,
0001
0000
0010
0000
0100
0000
1000
0000
0001
0000
1000
0000
0100
0010
1000
0000
,
0001
0000
0100
0000
0001
0000
1000
0000
0001
0010
0100
0001
1000
0100
0010
1000
,
0002
0000
0000
0000
0003
0000
1000
0010
0001
1000
0100
0000
1000
0001
0100
0000
,
1002
0000
0000
0000
0103
0000
0010
0000
0100
1000
0010
0001
0100
0000
1000
0000
,
0100
0001
1000
0000
0010
0100
1000
0000
0001
0100
0010
1000
0001
0000
1000
0100
,
0001
0000
1000
0000
0010
0000
1000
0001
0100
0000
0010
0000
0001
0010
1000
0000
,
0100
0000
0010
0000
0100
0001
1000
0000
0100
0010
1000
0000
0010
0000
1000
0001
,
0100
0010
0100
1000
0001
0100
0001
1000
,
0010
0000
1000
0000
0010
0000
0100
0000
0010
0100
1000
0000
0001
0000
0010
0000
,
0100
0001
1000
0000
0010
0000
0100
1000
0001
0000
0100
0000
0001
0010
0100
0000
,
0010
1000
0100
0010
0001
1000
0100
1000
,
0001
1000
0010
0100
0001
1000
0010
0100
,
1000
0000
0010
0000
0100
0001
0100
0000
1000
0001
0100
0010
0100
0010
0001
0100
,
0001
0000
0010
0000
0001
0000
0100
0000
0010
0000
1000
0010
0100
0000
1000
0000
,
0001
0010
0100
0000
0010
0000
1000
0000
0010
0100
1000
0000
0010
1000
0100
0000
,
0001
0010
0001
0010
0001
0100
0010
0100
,
0100
0010
0100
0010
0001
1000
0100
0010
0100
0010
0001
0010
0001
1000
0001
0010
,
0100
0101
0000
1010
1010
0000
0110
0101
,
0000
0000
0000
0000
0000
0000
1000
0000
0000
0100
0000
0000
0010
0000
0000
0000
0000
0000
0000
0000
0000
0000
0000
0000
0001
0000
0000
0000
0010
0000
0000
0000
1000
0000
0000
0000
0001
0000
0000
0000
0100
0000
0000
0000
1000
0000
0000
0000
,
0010
0000
0100
0010
0001
0000
0010
0000
0100
0000
1000
0100
0010
0000
0100
0000
,
0001
0000
1000
0100
0010
0000
1000
0000
0001
0000
1000
0010
0001
0000
0100
0000
,
0010
0000
1000
0100
0010
0000
1000
0000
0010
0000
0100
0010
0001
0000
0100
0000
,
0001
0100
1000
0000
0010
0000
1000
0000
0010
0100
1000
0000
0001
0000
0010
0000
,
0001
0010
0100
1000
0010
0000
0100
0000
0010
1000
0100
0010
0001
0000
1000
0000
,
0010
1000
0100
0010
0001
0000
1000
0000
0001
0010
0100
1000
0010
0000
0100
0000
,
0010
1000
0001
0100
0001
1000
0010
0100
,
0010
0000
0100
0000
0001
0010
0100
1000
0010
0000
0000
0110
0000
0000
0101
0000
,
1001
0000
0010
0000
0100
0000
0010
0000
0100
0001
0010
0000
1000
0000
0100
0010
,
1000
0000
0010
0000
1000
0001
0100
0000
0010
0000
0100
1000
0010
0000
0100
0000
,
1000
0001
0010
0000
1000
0000
0100
0010
1000
0000
0010
0000
0100
0000
0001
0000
,
0010
1000
0001
0000
0010
0001
0100
0000
0010
1000
0100
0000
1000
0010
0001
0000
,
1000
0000
0100
0001
0010
0000
0100
0000
1000
0001
0010
0000
1000
0000
0010
0100
,
1000
0000
0100
0000
0010
0001
0100
0000
0010
0000
0100
0001
1000
0000
0010
0000
,
0100
0000
0010
0000
1000
0000
0100
0000
0010
0000
0100
0000
0010
0100
0010
1000
,
0100
1000
0010
1000
0010
0100
0010
0100
0001
1000
0010
1000
0001
1000
0001
0100
,
0020
0100
0100
1000
0032
1000
1000
1000
,
0103
0101
0010
0110
1000
1001
0110
0101
,
0110
0000
0000
1001
0000
0000
0100
0000
0010
0000
0001
0000
0100
0000
0001
0000
0100
0000
0020
0000
0000
0000
0000
0000
,
0000
0000
0000
0130
0000
0000
0100
0000
0000
0100
1000
0001
,
1000
0010
1000
0010
0100
0010
1000
0001
0100
0010
1000
0001
,
1000
0001
1000
0100
0010
0001
1000
0010
1000
0010
1000
0001
,
0010
0100
0010
0100
1000
0001
0100
0001
0100
0010
0100
0010
,
1000
0000
0010
0000
0100
0000
0001
0000
1000
0000
0010
0000
0100
0000
0010
0000
1000
0000
0100
0000
0000
1000
0000
0000
,
0001
0000
0100
0000
0010
0000
1000
0000
0010
0000
1000
0000
0001
0010
0100
1000
,
0001
0100
0010
1000
0001
0010
0100
0000
1000
0100
0010
0000
0001
1000
0001
0000
,
0100
0000
0010
0000
0100
0001
0010
0000
0001
0000
0100
0000
0001
0010
0100
0000
,
0001
0000
1000
0000
0010
1000
0100
0000
0010
0000
1000
0000
0100
0000
0000
0000
,
1000
0010
1000
0100
,
0010
0001
0100
0010
,
0100
0001
0010
0001
,
0010
0001
0100
0010
,
1000
0100
0010
0001
,
0100
0001
0010
0001
,
0100
0010
1000
0001
,
1000
0100
0010
0100
,
0001
0010
0100
1000
,
0100
0010
0100
0001
,
1000
0100
1000
0010
,
1000
0000
0010
0000
0100
0000
0001
0100
,
0001
1000
0010
0100
0001
0010
0001
1000
,
0100
0010
0100
1000
0010
1000
0001
0100
,
0001
1000
0001
0100
0010
0100
0010
1000
,
0001
0100
0001
0010
0100
0010
0001
1000
,
0001
0100
0001
1000
0010
0100
0010
0100
,
0010
1000
0001
0100
0020
0000
0230
2300
,
3002
0000
0203
0000
0310
0000
0001
1000
0100
0010
0001
0000
1000
0001
0100
0010
,
0100
0000
0101
0000
1001
0000
0100
0010
0100
0000
0010
1000
0001
0100
1000
0010
,
0200
0310
0100
0010
,
0100
1000
0100
1000
,
0001
0000
0100
0000
0001
0000
0000
0101
,
0000
1001
0100
0010
,
0001
2000
0000
0000
,
3002
0000
0000
0203
,
0000
0000
0320
0000
,
0000
2030
0000
0000
,
0000
0000
3001
0010
0100
1000
0100
0000
,
1000
0100
0010
0001
1000
0000
0001
0100
,
0010
1000
0001
0000
1000
0001
0100
0010
,
1000
0100
0001
0010
1000
0010
0001
0010
0100
1000
0001
0010
0100
0001
0010
0100
,
1000
0001
0010
0001
0200
0000
0000
0000
0000
0000
0000
0000
0000
0000
0000
0000
,
0000
0000
0000
0000
,
0310
0000
0000
0000
0001
0010
0100
0000
1000
0000
0000
0000
0001
0000
0000
0000
,
0100
0000
0101
1001
,
0100
0000
0010
0100
1000
0000
0010
0001
1000
0000
0100
1000
0010
0000
0001
0010
,
0100
0000
0010
0100
1000
0000
0001
0000
1000
0100
0010
0000
1000
0010
0001
0000
,
0010
0000
0001
0010
0100
0000
0010
1000
0100
0000
0001
0010
0100
0000
0001
0010
,
1000
0000
0100
0001
1000
0000
0010
1000
0100
0000
0010
0000
1000
0100
0001
0010
,
1000
0000
0010
0100
1000
0000
0100
0001
0010
0000
0100
0010
1000
0000
0001
0100
,
1000
0000
0001
0010
0100
0000
0001
1000
0010
0001
0100
1000
0010
0001
0100
0000
,
0010
0100
0010
0001
1000
0001
1000
0010
1000
0001
0010
0100
1000
0100
0010
0001
,
0010
0100
0010
0100
0010
0001
1000
0100
0010
0001
0010
0001
0010
0100
1000
0001
,
0020
0000
0000
0100
0000
0000
1000
0000
1000
0000
1000
0000
,
0130
0000
0000
0000
0001
0010
0100
1000
0001
0100
0010
0100
1000
0000
0000
0000
,
0001
0010
0100
1000
0001
0100
0010
0100
1000
0000
0000
0000
1001
0000
0000
0000
,
1001
1001
1001
0110
0000
0100
0010
0001
,
0100
0010
1000
0001
0010
0001
1000
0000
0000
1001
0000
0000
,
0001
0000
1000
0000
0001
0000
1000
0001
,
1000
0000
0001
0000
1000
0000
0001
0000
1000
0001
1000
0001
1000
0001
1000
0001
,
1000
0001
1000
0001
1000
0001
1000
0001
1000
0001
1000
0001
1000
0001
1000
0001
,
1000
0001
1000
0001
1000
0001
1000
0001
1000
0001
1000
0001
1000
0000
0000
0000
;
