
//----- song ID: otob -----//
#TITLE:オートバーン;
#ARTIST:NAMCO Sound Team "Dustup";
#TITLETRANSLIT:Outburn;
#GENRE:WORLD LEAGUER'S PRIVILEGE;
#MUSIC:Outburn.ogg;
#BANNER:Outburn.png;
#BACKGROUND:Outburn-bg.png;
#CDTITLE:./CDTitles/NSD WORLD.png;
#SAMPLESTART:65.326;
#SAMPLELENGTH:15.000;
#SELECTABLE:YES;
#OFFSET:0.000;
#BPMS:0.000=180.000;
#STOPS:;
#BGCHANGES:;
#FGCHANGES:;

//--------------- dance-single - ----------------
#NOTES:
     dance-single:
     :
     Beginner:
     5:
     0,0,0,0,0:
0000
0000
0000
0000
,
0000
0000
0000
0000
,
0000
0000
0000
0000
,
0000
0000
0000
0000
,
0000
0000
0000
0000
,
0001
0000
1000
0000
,
0100
0000
0010
0000
,
0001
0010
0100
1000
,
0000
0000
0000
0000
,
1001
0000
0100
0000
,
0010
0000
0001
0000
,
1000
0000
0001
0000
,
1000
0001
1000
0000
,
0100
0000
0010
0000
,
0001
0000
1000
0000
,
0010
0000
0100
0000
,
1000
0000
0000
0000
,
1001
0000
0100
0000
,
0010
0000
0001
0000
,
1000
0000
0001
0000
,
0010
0000
0100
0000
,
0010
0000
0100
0000
,
0010
0000
0100
0000
,
1000
0001
1000
0001
,
1000
0000
0000
0000
,
1001
0000
0000
0000
,
0000
0000
0000
0000
,
0000
0000
0000
0000
,
0000
0000
0000
0000
,
0000
0000
0000
0000
,
0000
0000
0000
0000
,
0000
0000
0000
0000
,
0000
0000
0000
0000
,
0010
0000
0000
0000
,
0100
0000
1000
0000
,
0001
0000
0000
0000
,
0100
0000
0001
0000
,
0010
0000
0000
0000
,
1000
0000
0001
0000
,
2002
0000
0000
0000
,
0000
0000
3003
0000
,
0010
0000
0100
0000
,
1000
0000
0000
0000
,
0001
0000
1000
0000
,
0001
0000
0000
0000
,
0001
0000
1000
0000
,
0001
0000
1000
0000
,
1000
0100
0010
0001
,
0000
0000
0000
0000
,
1001
0000
0100
0000
,
0010
0000
0001
0000
,
1000
0000
0001
0000
,
0100
0000
0010
0000
,
0100
0000
1000
0000
,
0001
0000
1000
0000
,
1001
0000
0100
0000
,
0010
0000
0000
0000
,
0001
0000
0100
0000
,
0010
0000
1000
0000
,
0001
0000
1000
0000
,
0001
0000
0000
0000
,
1000
0000
0001
0000
,
0100
0000
0000
0000
,
0010
0000
0100
0000
,
1000
0000
0000
0000
,
1001
0000
0100
0000
,
0010
0000
0001
0000
,
0001
0000
1000
0000
,
0100
0000
0010
0000
,
0010
0000
0100
0000
,
1000
0000
0000
0000
,
0001
0000
1000
0000
,
0001
0000
0000
0000
,
0110
0000
1000
0000
,
0001
0000
0100
0000
,
0001
0000
1000
0000
,
0001
0000
0100
0000
,
0010
0000
0000
0000
,
0100
0000
0000
0000
,
1000
0000
0001
0000
,
1000
0000
0000
0000
,
1001
0000
0000
0000
,
0100
0000
0010
0000
,
0001
0000
0000
0000
,
1000
0000
0001
0000
,
1000
0000
0001
0000
,
0100
0000
0010
0000
,
1000
0100
0010
0001
,
0000
0000
0000
0000
,
1001
0000
0000
0000
;

//--------------- dance-single - ----------------
#NOTES:
     dance-single:
     :
     Easy:
     7:
     0,0,0,0,0:
0000
0000
0000
0000
,
0000
0000
0000
0000
,
0000
0000
0000
0000
,
0000
0000
0000
0000
,
0000
0000
0000
0000
,
1000
0001
0100
0010
,
0001
1000
0001
0100
,
1000
0000
0001
1000
0000
0001
1000
0000
0001
1000
0000
0000
,
1001
0000
0000
0000
,
0110
1000
0001
0100
,
0010
1000
0001
0000
,
1001
0100
0010
0001
,
0010
0100
2000
3000
,
0001
1000
0001
0100
,
0010
0100
0001
0000
,
0010
0100
1000
0001
,
0100
0000
0010
0000
,
0110
1000
0001
0100
,
0010
1000
0001
0000
,
0010
0100
0001
0100
,
0010
0100
1000
0000
,
1000
0000
0001
0000
,
0100
0000
1000
0000
,
0100
0000
0001
1000
0000
0001
1000
0000
0001
1000
0000
0001
,
1000
0000
0000
0000
,
0220
0000
0000
0000
,
0000
0000
0000
0000
,
0000
0000
0000
0000
,
0000
0000
0000
0000
,
0000
0000
0000
0000
,
0330
0000
0000
0000
,
0000
0000
0000
0000
,
0000
0000
0000
0000
,
1000
0001
0100
0010
,
0001
0010
0100
1000
,
0000
0001
1000
0001
,
0100
0010
0001
0010
,
0100
1000
0001
0100
,
0010
0001
0010
0000
,
2002
0000
0000
0000
,
3003
0000
0000
0000
,
0010
0100
1000
0001
,
1000
0001
1000
0000
,
0001
1000
0100
0010
,
0001
0010
0100
0000
,
0001
0000
0000
0010
0000
0100
0000
0000
1000
0100
0000
0000
,
0001
0000
0100
1000
0000
0000
0010
0000
0000
0100
0000
0000
,
1000
0000
0001
0000
0010
0000
0001
0000
0010
0000
0001
0000
,
1001
0000
0000
0000
,
1001
0100
0010
0100
,
1000
0001
0110
0101
,
0010
0100
1000
0001
,
0100
1000
0220
0330
,
1001
0100
0010
1000
,
0001
0100
0010
0100
,
0000
1000
0001
0100
,
0010
0001
2000
3002
,
1003
0100
0001
0010
,
0100
1000
0001
0100
,
0010
0100
1000
0001
,
0100
0010
0110
0000
,
1001
0100
1000
0001
,
0100
0010
0001
2000
,
3001
0010
0100
1000
,
0001
0000
1001
0000
,
0110
1000
0001
0100
,
0010
0100
1000
0001
,
0100
0010
0001
0010
,
0100
1000
0001
0000
,
0101
1000
0001
0100
,
0010
0100
1000
0001
,
0100
0010
0100
1000
,
0001
0000
1001
0000
,
0110
0001
0010
0100
,
1000
0001
0100
0000
,
0110
0001
0010
0100
,
1000
0001
1000
0000
,
1000
0001
0100
0010
,
0001
0010
0100
1000
,
0001
1000
0100
0010
,
0001
0000
1001
0000
,
0110
1000
0001
0100
,
0010
0001
0010
0000
,
0100
1000
0001
0100
,
0010
0100
1000
0000
,
1001
0000
0101
0000
,
1000
0000
0001
0000
,
1000
0000
0001
1000
0000
0001
1000
0000
0001
1000
0000
0001
,
1000
0000
0000
0000
,
0110
0000
0000
0000
;

//--------------- dance-single - ----------------
#NOTES:
     dance-single:
     :
     Medium:
     12:
     0,0,0,0,0:
0000
0000
0000
0000
,
0000
0000
0000
0000
,
0000
0000
0000
0000
,
0000
0000
0000
0000
,
0000
0000
0000
0000
,
1000
0001
0100
0010
,
0100
1000
0001
0100
,
0001
0010
0100
1000
0000
0000
0001
0010
0100
1000
0000
0000
,
1001
0000
0000
0000
,
0110
0000
0000
0001
0000
0000
0010
0100
1000
0001
0000
0000
,
0010
0000
0000
0100
0000
0010
1000
0000
0010
0100
0000
0000
,
0001
0010
0100
0001
,
1000
0000
0000
0010
0000
0001
0010
0000
1000
0001
0000
0000
,
1010
0000
0000
0101
0000
0000
0100
0000
1000
0001
0000
0000
,
0010
0000
0100
0001
0000
1000
0001
0000
0000
1000
0000
0000
,
0001
0000
0000
0100
0000
0000
0010
0000
0001
0010
0000
0000
,
0100
1000
0001
0100
,
0110
0000
0000
1000
0000
0000
0001
0000
0001
0010
0000
0000
,
0100
0000
0000
1000
0000
0000
0001
0000
0001
0010
0000
0000
,
1000
0001
0100
0010
,
0100
0000
0000
0010
0000
0000
0001
0000
0001
0010
0000
0000
,
0100
0000
0000
1001
0000
0000
0100
0000
0010
0001
0000
0000
,
0100
0000
1000
0010
0000
0000
0001
0000
1000
0000
0000
0000
,
0010
0000
1000
0100
0000
0010
0001
0000
0100
1000
0000
0000
,
1001
0000
0000
0000
,
2002
0000
0000
0000
,
0000
0000
0000
0000
,
0000
0000
0000
0000
,
0000
0000
0000
0000
,
0000
0000
0000
0000
,
0000
0000
0000
0000
,
3003
0000
0000
0000
,
0000
0000
0000
0000
,
0010
0100
1000
0001
,
0100
0010
0001
1000
,
0001
0100
0010
0100
,
1000
0000
0000
0001
0000
0000
0100
0000
1000
0001
0000
0000
,
0010
0100
0010
0100
,
1000
0000
0001
1000
0000
0000
0001
0000
0000
0010
0000
0000
,
0220
0000
0000
0000
,
0000
0000
0330
0000
,
1001
0100
1000
0001
,
1000
0000
0000
0010
0000
0000
0100
0000
1000
0010
0000
1000
,
0101
1001
0100
1000
,
0001
0000
0000
0010
0000
1000
0100
0010
0001
0110
0000
0000
,
1000
0000
0100
0001
0000
0010
0100
0000
1000
0010
0000
0001
,
0100
0000
0010
1000
0000
0100
0001
0000
0010
0100
0000
0010
,
1000
0001
1000
0001
1000
0001
1000
0001
1000
0001
1000
0001
,
1001
0000
0000
0000
,
1001
0000
0000
0101
0000
0010
1000
0000
0010
0001
0000
0010
,
0100
0000
0010
0001
0000
0010
0100
0000
0000
0020
0000
0000
,
1030
0000
0000
0001
0000
1000
0010
0000
1000
0001
0000
0100
,
0010
0000
0010
0001
0000
0000
2000
0000
0000
3200
0000
0000
,
0310
0000
0000
0100
0000
1000
0010
0000
1000
0001
0000
1000
,
0010
0000
0001
0100
0000
0001
1000
0000
0000
0200
0000
0000
,
0310
0000
1000
0001
0000
1000
0010
0000
1000
0100
0000
0001
,
1000
0000
0010
0001
0000
0100
0010
0000
1000
0002
0000
0000
,
1003
0000
0000
0010
0000
0100
1000
0000
0000
0001
0000
0000
,
1000
0000
0001
0010
0000
1000
0100
0000
0010
0002
0000
0000
,
0103
0000
0000
0010
0000
0000
0100
0000
1000
0010
0000
0001
,
1000
0000
0010
0100
0000
0100
1000
0000
0100
0010
0000
0001
,
1000
0101
1010
0101
,
0100
0000
1000
0010
0000
0001
1000
0000
0001
0010
0000
0100
,
1000
0101
0010
0101
,
1020
0000
0230
0000
,
0310
0000
0001
0100
0000
1000
0010
0000
1000
0001
0000
0001
,
1000
0000
0000
0001
0000
0010
1000
0000
0000
0010
0000
1000
,
0100
0000
0001
0010
0000
1000
0100
0000
0010
0001
0000
0100
,
1000
0000
0000
0001
0000
1000
0010
0000
0000
0200
0000
0001
,
1300
0101
1010
0100
,
1000
0000
0010
0001
0000
0000
0100
0000
1000
0010
0000
0000
,
1000
0000
0001
0100
0000
0000
1000
0000
0010
0001
0000
0000
,
0010
0000
1000
0100
0000
0000
0110
0000
0000
0000
0000
0000
,
1000
0000
0001
0010
0000
0000
1000
0000
0000
0100
0000
1000
,
0010
0000
0001
0100
0000
0001
0010
0000
0000
0002
0000
0000
,
1003
0000
0100
0010
0000
1000
0100
0000
0001
0010
0000
0010
,
1000
0000
0000
0001
0000
0100
0010
1000
0001
0100
0000
0000
,
1000
0100
0010
0001
0000
0000
1000
0000
0000
0001
0010
0100
,
1000
0000
0001
0100
0000
1000
0010
0000
0000
0001
0010
0100
,
1000
0000
0100
0010
0000
0001
1000
0000
0001
0100
1000
0001
,
0120
0000
1030
0110
,
0110
0000
0000
0001
0000
0000
0010
0100
1000
0001
0000
0000
,
0010
0000
0000
0100
0000
0010
1000
0000
0010
0100
0000
0000
,
0001
0010
0100
0001
,
1000
0000
0000
0010
0000
0001
0010
0000
1000
0001
0000
0000
,
1100
0001
1100
0010
,
0101
0000
0000
1000
0000
0000
0001
0000
1000
0100
0000
0000
,
0001
0010
0100
1000
0100
0010
0001
0010
0100
1000
0100
0010
,
0001
0000
0000
0000
,
0110
0000
0000
0000
;

//--------------- dance-single - ----------------
#NOTES:
     dance-single:
     :
     Hard:
     16:
     0,0,0,0,0:
0000
0000
0000
0000
,
0000
0000
0000
0000
,
0000
0000
0000
0000
,
0000
0000
0000
0000
,
0000
0000
0000
0000
,
1001
0000
0001
0100
0000
1000
0001
0000
0100
0010
0000
1000
,
0001
0000
1000
0001
0000
0010
0100
0000
0010
0100
0000
1000
,
0001
0100
0010
1000
0001
0100
0010
0100
1000
0001
0100
0010
,
1000
0000
0000
0000
0000
0000
1000
0000
1000
0001
0000
0100
,
1001
0000
0001
0100
0000
1000
0001
0010
1000
0001
0000
0100
,
1000
0000
0001
1000
0000
0100
0010
0000
1000
0102
0000
0010
,
1003
0000
0100
0010
0000
1000
0001
0100
1000
0001
0000
1000
,
0001
0000
0100
0010
0000
1000
0001
1000
0001
2000
0000
3000
,
1001
0000
0000
0101
0000
0000
1000
0010
1000
0100
0000
1000
,
0001
0000
1000
0001
0000
0010
0001
0000
1000
0001
0000
1000
,
0010
0000
0100
1000
0000
0001
0100
1000
0001
0100
0000
1000
,
0001
0000
1000
0001
0000
0010
0200
0000
0000
0302
0000
0000
,
1003
0000
0100
0001
0000
1000
0001
0010
1000
0001
0000
0010
,
1000
0000
0100
0010
0000
1000
0001
0000
1000
0020
0000
0030
,
0110
0000
0000
1001
0000
0000
0001
0010
0100
1000
0000
0001
,
1000
0000
0100
0001
0000
2000
3002
0000
0003
0110
0000
0000
,
1001
0101
1010
0110
,
0101
0000
0000
0110
0000
0000
1001
0000
0001
1000
0000
0010
,
0100
0001
0010
0100
1000
0001
0100
0010
1000
0001
0010
0100
,
1000
0000
0000
0000
0000
0000
1000
0000
0001
1000
0000
0010
,
2002
0000
0000
0000
,
0000
0000
0000
0000
,
0000
0000
0000
0000
,
0000
0000
0000
0000
,
0000
0000
0000
0000
,
0000
0000
0000
0000
,
3003
0000
0000
0000
,
0000
0000
0000
0000
,
0010
0000
0001
0100
0000
0001
1000
0000
0100
0001
0000
0010
,
1000
0000
0100
0001
0000
1000
0001
0000
0000
0110
0000
0000
,
0001
0000
1000
0010
0000
0001
1000
0000
0001
1000
0000
0100
,
0001
0000
0010
0100
0000
1000
0001
0000
0010
1000
0000
0001
,
1000
0000
0100
0010
0000
0001
0100
0000
0001
1000
0000
0001
,
0100
0000
0010
0001
0000
0100
1000
0000
0001
1000
0000
0000
,
0220
0000
0000
0000
,
0330
0000
0000
0000
,
1001
0000
0001
0100
0000
1000
0010
0000
0100
1000
0000
0001
,
0100
0000
0010
1000
0000
0100
0010
0000
0100
1000
0000
0010
,
0001
0000
0010
0100
0000
1000
0010
0000
0001
1000
0000
0100
,
0001
0000
0010
0100
0000
1000
0100
0010
0001
2000
0000
0000
,
3001
0000
1000
0001
0000
0010
0100
0000
1000
0001
0000
0010
,
0100
0000
1000
0001
0000
0010
0100
0000
1000
0001
0000
0100
,
0010
1000
0001
0100
0010
0100
0001
1000
0001
0010
0100
1000
,
0110
0000
0000
0000
,
0110
0000
0000
1001
0000
0000
0101
0000
0000
0110
0000
0100
,
1000
0000
0001
0010
0000
1000
0100
0000
0010
2000
0000
0001
,
3010
0000
0000
0011
0000
0000
1100
0000
0000
0001
0000
0100
,
0010
0000
1000
0001
0000
0010
0100
0000
1000
0001
0000
0100
,
1001
0000
0000
0101
0000
0000
0110
0000
1000
0001
0000
0001
,
0010
0000
1000
0001
0000
0010
0100
0000
1000
0001
0000
0100
,
0010
0000
0010
0100
0000
1000
0001
0000
0100
0001
0000
0010
,
1000
0000
0001
0100
0000
1000
0011
0000
0000
2002
0000
3003
,
0110
0000
0000
0101
0000
0000
1010
0000
0001
1000
0000
0100
,
0001
0000
0010
0100
0000
0100
0010
0000
0001
2000
0000
0001
,
3010
0000
0001
1000
0000
0001
0010
0000
0000
0110
0000
0100
,
1000
0000
0001
0010
0100
0001
1000
0000
0010
0100
0000
0000
,
0110
0000
0000
1001
0000
0000
1010
0000
0000
0110
0000
0010
,
0001
0000
1000
0100
0000
0001
0010
0000
0100
0002
0000
1000
,
0103
0000
0000
1100
0000
0000
0011
0000
0100
1000
0000
0010
,
0100
0000
0000
0000
0000
0000
0010
0100
0001
1000
0100
0010
,
1010
0000
0000
1001
0000
0000
0101
0000
0000
0110
0000
0100
,
1000
0000
0001
0010
0000
1000
0100
0000
0010
1000
0000
0001
,
0010
0000
0000
0011
0000
0000
1100
0000
0100
0001
0000
0100
,
0010
0000
1000
0001
0000
0010
0100
0000
1000
0002
0000
0100
,
1003
0000
0100
0001
0000
0010
0100
0000
1000
0001
0000
0001
,
0010
0000
1000
0001
0000
0010
0100
0000
1000
0001
0000
0100
,
0010
0000
0010
0100
0000
1000
0001
0000
0100
0001
0000
0010
,
1000
0000
0001
0100
0000
1000
0011
0000
0000
2002
0000
3003
,
0110
0000
0000
0101
0000
0000
1010
0000
0001
1000
0010
0100
,
0001
0000
0010
0100
0000
0100
0010
0000
0001
2000
0000
0001
,
3010
0000
0001
1000
0000
0001
0010
0000
1000
0100
0000
0010
,
1000
0000
0001
0010
0100
0001
1000
0000
0010
0100
0000
0000
,
1000
0001
1000
0001
0000
0000
0110
0000
0000
1000
0001
0100
,
0010
0000
1000
0001
0000
0001
1000
0000
0000
0010
1000
0001
,
0100
0000
0000
0101
0000
0000
1000
0001
0100
0010
1000
0001
,
0200
0000
0310
0110
,
1001
0000
0001
0100
0000
1000
0001
0010
1000
0001
0000
0100
,
1000
0000
0001
1000
0000
0100
0010
0000
1000
0102
0000
0010
,
1003
0000
0100
0010
0000
1000
0001
0100
1000
0001
0100
1000
,
0001
0000
0100
0010
0000
1000
0001
1000
0001
2000
0000
3000
,
1001
0000
0001
0100
0000
1000
0001
0000
0100
0010
0000
1000
,
0001
0000
1000
0001
0000
0010
0100
0000
0010
0100
0000
1000
,
0001
0100
0010
1000
0001
0100
0010
0100
1000
0001
0100
0010
,
1000
0000
0000
0000
,
1001
0000
0000
0000
;
