
//----- song ID: oper -----//
#TITLE:オペレート・ミー;
#ARTIST:黒魔;
#TITLETRANSLIT:Operate Me;
#ARTISTTRANSLIT:Kokuma;
#GENRE:ナムコオリジナル;
#MUSIC:Operate Me.ogg;
#BANNER:Operate Me.png;
#BACKGROUND:Operate Me-bg.png;
#CDTITLE:./CDTitles/NSD WORLD.png;
#SAMPLESTART:64.946;
#SAMPLELENGTH:15.000;
#SELECTABLE:YES;
#OFFSET:0.000;
#BPMS:0.000=49.000
,7.000=24.500
,8.000=49.000
,9.000=255.000
,23.000=127.500
,24.000=255.000
,64.000=510.000
,66.000=255.000
,67.000=127.500
,95.000=63.750
,97.000=127.500
,113.000=255.000
,127.000=510.000
,130.000=127.500
,136.000=255.000
,163.000=510.000
,166.000=255.000
,169.000=510.000
,171.000=127.500
,202.000=255.000
,216.000=127.500
,217.000=85.000
,219.000=42.500
,221.000=127.500
,222.000=63.750
,239.000=255.000
,241.000=127.500
,243.000=255.000
,274.000=510.000
,275.000=255.000
,311.000=510.000
,312.000=255.000
,313.000=102.000
,314.000=127.500
,345.000=510.000
,349.000=255.000
,372.000=1020.000
,437.000=63.750
;
#STOPS:64.000=0.235
,65.000=0.235
,66.000=0.941
,127.000=0.118
,136.000=0.235
,163.000=0.588
,212.000=0.078
,212.333=0.078
,212.667=0.078
,213.000=0.078
,213.333=0.078
,213.667=0.078
,214.000=0.078
,214.333=0.078
,214.667=0.078
,215.000=0.078
,215.333=0.078
,215.667=0.078
,221.000=0.471
,239.000=0.235
,240.000=0.235
,274.000=0.118
,291.000=0.078
,291.333=0.078
,291.667=0.078
,292.000=0.078
,292.333=0.078
,292.667=0.078
,293.000=0.078
,293.333=0.078
,293.667=0.078
,294.000=0.078
,294.333=0.078
,294.667=0.078
,372.000=0.176
;
#BGCHANGES:;
#FGCHANGES:;

//--------------- dance-single - ----------------
#NOTES:
     dance-single:
     :
     Beginner:
     7:
     0,0,0,0,0:
0000
0000
0000
0000
,
0000
0000
0000
0000
,
0000
1001
0000
0000
,
0000
0000
0000
0000
,
0000
0100
0000
0000
,
0000
0000
0000
1000
,
0001
0000
0000
0000
,
0000
0000
0000
0000
,
0100
0000
0000
0000
,
0000
0000
0010
0000
,
0100
0000
1000
0000
,
0001
0000
0100
0000
,
0010
0000
1000
0000
,
0001
0000
0100
0000
,
0010
0000
0000
0100
0000
0000
0010
0000
,
0000
0100
0000
0000
0010
0000
0100
0000
,
0010
0000
0000
1001
,
0000
0010
0000
0100
,
0000
1000
0000
0001
,
0000
0010
0000
0001
,
0000
0000
0000
1000
,
0000
0000
0000
0001
,
0000
0010
0000
2000
,
0000
0000
0000
3001
,
0000
0110
0000
0001
,
1000
0100
0000
0001
,
0010
0100
0000
1000
,
0000
0001
0000
0000
,
0000
1000
0000
0001
,
0000
0100
0000
0000
,
0000
0010
0000
0001
,
0000
0010
0000
0000
,
0000
0000
0010
0000
,
0100
0000
1000
0000
,
1001
0000
0000
0010
,
0000
0000
0000
0000
,
0000
0000
0010
0100
,
0000
0000
0000
0000
,
0000
0000
1000
0001
,
0000
0000
0000
0000
,
0000
0000
0000
1000
,
0000
0000
0001
0000
,
0000
0000
0000
0110
,
0000
1000
0000
0001
,
0000
0010
0000
0100
,
0000
1000
0000
1001
,
0000
0100
0000
1010
,
0000
1000
0000
1000
,
0000
0010
0001
0001
,
0000
1100
0000
0100
,
0000
0110
0000
0000
,
0001
0000
1000
0000
,
0100
0000
0010
0000
,
0001
0000
1000
0000
,
0000
0220
0000
0000
,
0000
0330
1000
0000
,
0001
0000
0010
0000
,
1000
0001
0010
1000
,
0001
1000
0001
1000
,
0010
0100
0000
1001
,
0000
0000
0000
0110
,
0000
0000
0000
0000
,
1000
0000
0001
0100
,
0000
1000
0000
0001
,
0000
0100
0000
0110
,
1000
0001
0000
0100
,
0000
0010
0000
0001
,
0010
0100
0000
1001
,
0000
0000
0000
0100
,
0000
0010
0000
1000
,
0000
0001
0000
0100
,
0000
0010
0000
0100
,
0000
1000
0000
0001
,
1000
0001
0100
1001
,
0000
0110
0000
0000
0010
0000
0001
0000
,
0000
0000
0000
1000
,
0000
0001
0000
1000
,
0000
0100
0000
1001
,
0000
0000
2002
0000
,
0000
0000
3003
0000
,
0000
0000
1000
0000
,
0001
0000
0100
0000
,
0010
0000
0100
0000
,
1000
0000
0001
0000
,
0010
0000
0100
0000
,
1000
0100
0001
0000
,
1000
0000
0000
0000
,
0000
1001
0000
0000
,
0000
0010
0000
0000
,
0000
0110
0000
0000
,
0000
0001
0000
0000
,
0000
1000
0000
0001
,
0000
0100
0000
1001
,
0000
0220
0000
0000
,
0000
0000
0000
0000
,
0000
0000
0000
0000
,
0000
0000
0000
0000
,
0000
0000
0000
0000
,
0000
0000
0000
0000
,
0000
0000
0000
0000
,
0000
0000
0000
0000
,
0000
0000
0000
0000
,
0000
0000
0000
0000
,
0000
0000
0000
0000
,
0000
0000
0000
0000
,
0000
0000
0000
0000
,
0000
0000
0000
0000
,
0000
0000
0000
0000
,
0000
0000
0000
0000
,
0000
0330
0000
0000
;

//--------------- dance-single - ----------------
#NOTES:
     dance-single:
     :
     Easy:
     9:
     0,0,0,0,0:
0000
0000
0000
0000
,
0000
0000
0000
0000
,
0000
1002
0000
0000
,
0000
0000
0000
0000
,
0000
0203
0000
0000
,
0000
0000
0000
0000
0000
0000
0310
1000
,
1002
0000
0000
0000
,
0000
0000
0000
0000
,
2003
0000
0000
0000
,
0000
0000
3200
0320
,
0130
0010
0100
0010
,
0001
0100
0010
1000
,
0010
1000
0100
1000
,
0010
0100
0001
1000
,
0100
0000
0000
0101
0000
0000
1001
0000
,
0000
0110
0000
0000
1000
0000
0001
0000
,
0200
0300
0200
0000
0302
0000
0203
0000
,
0310
0000
1000
0000
0001
0000
0100
2000
0000
0000
0000
0000
3002
0000
0000
0000
,
0103
0000
1000
0000
0010
0000
1000
0100
0010
0000
0001
0000
0020
0000
0000
0000
,
2030
0000
0000
0000
3002
0000
0000
0000
0203
0000
0000
0000
0310
0000
0001
0020
,
0000
0000
0000
0000
0000
0030
0000
0000
1000
0000
0001
0000
2000
0000
0000
3200
,
0000
0000
0302
0000
2003
0000
0000
0000
3002
0000
0000
0000
0023
0000
0000
2030
,
0000
3002
0203
0000
0302
0000
1003
0100
,
0010
1000
0001
0100
0010
0100
2002
0000
,
3003
0000
0001
0100
0010
0100
0010
0100
,
0001
0010
0100
1000
0001
0010
0100
1000
,
0100
1000
0010
1000
0010
0100
0010
0100
,
0001
0010
0001
0100
0001
0010
0100
1000
,
0001
0100
0101
0000
0100
0000
0010
0000
,
0100
0001
0010
0001
,
0010
0101
1000
0010
,
0100
0001
0100
1001
,
0000
0000
0020
0100
,
1000
0001
0230
0000
,
0310
0020
0000
0130
,
0001
0100
0000
0010
0000
1000
0000
0001
,
0000
0100
0000
1000
0010
0000
1001
0000
,
1000
0010
0000
0100
0000
0001
0000
1000
,
0000
0010
0000
0001
0100
0000
1001
0000
,
0001
0100
0000
0010
0000
1000
0000
0001
,
0000
0100
0000
1000
0010
0000
1001
0000
,
0020
0000
2030
0000
,
0000
0000
0000
0000
3002
0000
0000
0000
0000
0000
0000
0000
0103
0000
0000
0100
,
0000
0000
1000
0000
0001
0000
0000
0000
0100
0000
0010
0001
0100
0000
0000
1000
,
0000
0000
0001
0000
0100
0000
0000
0000
0000
0000
0100
0001
1000
0000
0000
0100
,
0000
0000
0010
0000
0001
0000
0000
0000
0000
0000
0001
0010
0100
0000
0000
1000
,
0000
0000
0001
0000
0200
0000
0000
0000
2300
0000
0000
0000
3001
0000
0000
1000
,
0000
0000
0010
0000
0100
0000
0000
0000
0000
0000
0100
1000
0010
0000
0000
0001
,
0000
0000
0010
0000
0100
0000
0000
0000
0000
0000
0001
0010
0100
0000
0000
0001
,
0000
0000
0010
0100
1000
0000
0000
0000
0000
0000
1000
0010
0100
0000
0000
0010
,
0000
0000
0100
0000
1000
0000
0000
0001
0200
0000
0000
0000
0320
0000
0030
0000
,
0010
1000
0001
0100
,
0001
0010
0100
1000
,
0010
0010
0100
0100
,
1001
0220
0000
0000
,
0000
0000
0330
0000
1000
0100
0000
0000
,
0001
1000
0000
0000
0010
1000
0000
0001
,
0010
0001
0010
0000
1000
0001
0100
0001
,
1000
0001
0100
0010
1000
0001
1000
0001
,
0010
0100
2000
0000
0000
0000
3001
0000
,
0000
2000
3020
0130
,
0000
1000
0001
0000
0000
0000
0000
0000
,
0010
0100
1000
0001
,
0000
0001
1000
0000
0000
0000
0001
0000
,
0100
1000
0000
1001
,
0100
0010
0100
0010
,
0100
1000
0001
0110
,
0000
1001
0000
0000
0110
0000
0101
0000
,
0000
1001
0000
0000
0110
0000
0100
0000
,
1000
0001
0010
0100
,
1000
0001
0100
0010
,
0001
0100
1000
0001
,
1000
0010
0100
0010
,
0010
0100
0100
0020
,
0000
2030
0000
0000
3002
0000
0203
0000
,
0000
0301
0000
1000
,
0000
0001
0000
0220
,
0000
0000
0000
0330
,
0000
0000
2002
0000
,
0000
0000
3003
0000
,
0010
0000
1000
0000
,
0001
0010
0100
0000
,
0020
0000
0130
0000
,
1000
0000
0001
0000
,
0010
0100
1000
0000
,
0001
1000
0001
0000
,
1001
0000
0000
0000
,
0000
2000
0000
0000
,
0000
3020
0000
0000
,
0000
0032
0000
0000
,
0000
2003
0000
0000
,
0000
3010
0001
0100
,
0010
1000
0001
0100
,
1000
2002
0000
0000
,
0000
0000
0000
0000
,
0000
0000
0000
0000
,
0000
0000
0000
0000
,
0000
0000
0000
0000
,
0000
0000
0000
0000
,
0000
0000
0000
0000
,
0000
0000
0000
0000
,
0000
0000
0000
0000
,
0000
0000
0000
0000
,
0000
0000
0000
0000
,
0000
0000
0000
0000
,
0000
0000
0000
0000
,
0000
0000
0000
0000
,
0000
0000
0000
0000
,
0000
0000
0000
0000
,
0000
3003
0000
0000
;

//--------------- dance-single - ----------------
#NOTES:
     dance-single:
     :
     Medium:
     13:
     0,0,0,0,0:
0000
0000
0000
0000
,
0000
0000
0000
0000
,
0000
0220
0000
0000
,
0000
0000
0000
0000
,
0300
2000
0000
0000
,
0000
0000
0000
0000
0030
0000
3200
0310
,
2002
0000
0000
0000
,
0000
0000
0000
0003
,
0020
0000
0000
0000
,
0000
0000
0000
3000
0230
0000
2300
0000
,
3001
0100
0010
0001
1000
0010
1000
0010
,
1000
0001
0010
0100
1000
0010
0100
0010
,
0100
0010
1000
0001
0010
0001
0100
0001
,
1000
0100
0010
0100
0010
0100
1000
0000
,
0011
0000
0010
0110
0000
1000
1100
0000
,
0001
0000
0101
0000
0000
0000
0010
0000
1000
0001
1000
0001
1000
0001
1000
0001
,
1000
0000
0000
0000
1010
0000
0000
0000
2002
3003
0000
0000
0210
0000
0000
0000
,
0310
0000
1000
0000
0001
0000
0100
2000
0000
0000
0000
0000
3002
0000
0000
0000
,
0103
0000
1000
0000
0010
0000
1000
0100
0010
0000
0001
0000
0020
0000
0000
0000
,
2030
0000
0000
0000
3002
0000
0000
0000
0203
0000
0000
0000
0310
0000
0001
0020
,
0000
0000
0000
0000
0000
0030
0000
0000
1000
0000
0001
0000
0200
0000
0000
0320
,
0000
0000
0032
0000
2003
0000
0000
0000
3002
0000
0000
0000
0023
0000
0000
2030
,
0000
3002
0203
0000
0302
0000
1003
0100
,
0010
1000
0001
0100
0010
0100
2002
0000
,
3003
0000
0001
0100
0010
0100
0010
0100
,
0001
0010
0100
1000
0001
0010
0100
1000
,
0100
1000
0010
1000
0010
0100
0010
0100
,
0001
0010
0001
0100
0001
0010
0100
1000
,
0001
0100
0010
1000
0001
0000
0001
1000
,
0001
0010
0100
0000
0100
0000
0010
0000
,
0001
0000
0001
0010
0100
0000
0010
1000
,
0100
0001
0010
1001
,
0020
0000
2030
3200
,
0320
0032
0023
0000
,
0130
0020
0000
1030
,
0001
0100
0000
0010
0000
1000
0000
0001
,
0000
0100
0000
1000
0010
0000
1001
0000
,
1000
0010
0000
0100
0000
0001
0000
1000
,
0000
0010
0000
0001
0100
0000
1001
0000
,
0001
0100
0000
0010
0000
1000
0000
0001
,
0000
0100
0000
1000
0010
0000
1001
0000
,
0020
0000
2030
0000
,
0000
0000
0000
0000
3002
0000
0000
0000
0000
0000
0000
0000
0103
0000
0000
0100
,
0000
0000
1000
0000
0001
0000
0010
0000
0100
0000
0010
0001
0100
0000
0000
1000
,
0000
0000
0001
0000
0100
0000
0000
0000
0010
0000
0100
0001
1000
0000
0000
0100
,
0000
0000
0010
0000
0001
0000
0000
1000
0000
0000
0001
0010
0100
0000
0000
1000
,
0000
0000
0001
0000
0200
0000
0000
0000
2300
0000
0010
0100
3001
0000
0000
1000
,
0000
0000
0010
0000
0100
0000
0000
0000
0001
0000
0100
1000
0010
0000
0000
0001
,
0000
0000
0010
0000
0100
0000
0000
1000
0000
0000
0001
0010
0100
0000
0000
0001
,
0000
0000
0010
0100
1000
0000
1000
0000
0000
0001
1000
0010
0100
0000
0000
0010
,
0000
0000
0100
0000
1000
0000
0000
0001
0200
0000
0000
0000
0320
0000
0000
0000
,
0130
1000
0001
0000
0001
1000
0001
0000
,
0010
1000
0001
0010
0100
0010
0001
1000
,
0010
0010
0010
0010
0010
0010
0100
0100
0100
0100
0100
0100
,
0100
0000
2002
0003
3200
0000
0020
0000
,
0000
0000
0300
0000
0130
0000
0000
0000
1000
0000
0001
0000
0010
0100
1000
0000
,
0001
0000
0100
0000
0010
0100
0001
1000
0001
0000
0010
0000
0001
0100
1000
0001
,
0010
0000
0000
0100
0000
0000
0001
0000
2000
0000
0000
0000
0000
0000
0000
0000
3001
0000
0010
0000
0100
0000
1000
0000
0001
0000
0000
0000
0100
0000
0000
0000
,
0100
1000
0001
0100
0010
0000
0100
0000
2000
0000
3200
0000
0320
0000
0032
0000
,
0023
0000
0000
2030
0000
0000
3002
0000
2000
0000
0000
0000
0000
0000
0000
0000
0000
0000
0000
0000
0000
0000
0000
0000
3003
0000
0000
0000
0000
0000
0000
0000
,
0000
0100
0100
0001
,
0000
0100
0001
0000
0000
0000
0010
0000
,
0100
1000
0010
0100
,
0000
0000
0000
0001
0000
0000
1000
0000
0000
0100
0000
0000
0010
0000
0000
1000
0000
0000
0001
0000
1000
0000
0001
0000
,
1000
0001
1000
0002
0000
0000
1003
0000
0000
1001
0000
0000
,
0100
0010
0100
0010
,
0100
1000
0001
0110
,
0000
1001
0000
0000
0110
0000
0101
0000
,
0000
1001
0000
0000
0110
0000
0100
0000
,
1000
0001
0100
0000
0010
0000
0100
0001
,
1000
0000
0001
1000
0010
0000
0001
0000
,
0010
0000
0001
0000
1000
0000
0010
0100
,
1000
0000
0000
0000
0000
0000
0001
0000
0000
0010
0000
0000
1000
0000
0000
0000
0000
0000
0010
0000
0010
0000
0010
0000
,
0010
0010
0010
0100
0100
0100
0100
0100
0100
0020
0000
0000
,
0000
0032
0000
0000
2003
0000
3002
0000
,
0000
0000
0103
0001
0100
0010
1000
0010
,
1000
0001
1000
0010
0100
0010
0100
0010
,
1000
0001
0010
0001
0100
0010
2000
0000
,
0002
3003
0120
0000
,
0001
0000
1030
0100
,
0001
0010
0100
0001
,
1000
0100
0010
1000
,
0200
0000
1300
0001
,
0010
0100
1000
0001
,
1000
0001
0100
0010
,
0001
0010
0100
1000
,
0001
1001
0000
0000
,
0000
0000
0001
0100
0001
1000
0010
1000
,
0100
1000
0010
0100
0010
1000
0010
1000
,
0001
0100
0001
1000
0001
1000
0100
0010
,
0001
1000
0100
1000
0001
0010
0100
0010
,
0001
1000
0010
1000
0001
1000
0001
0100
,
0010
0100
0010
0100
0001
1000
0001
0010
,
1000
2002
0000
0000
,
0000
0000
0000
0000
,
0000
0000
0000
0000
,
0000
0000
0000
0000
,
0000
0000
0000
0000
,
0000
0000
0000
0000
,
0000
0000
0000
0000
,
0000
0000
0000
0000
,
0000
0000
0000
0000
,
0000
0000
0000
0000
,
0000
0000
0000
0000
,
0000
0000
0000
0000
,
0000
0000
0000
0000
,
0000
0000
0000
0000
,
0000
0000
0000
0000
,
0000
0000
0000
0000
,
0000
3003
0000
0000
;

//--------------- dance-single - ----------------
#NOTES:
     dance-single:
     :
     Hard:
     17:
     0,0,0,0,0:
0000
0000
0000
0000
,
0000
0000
0000
0000
,
0000
1002
0000
0000
,
0000
0000
0000
0000
,
0000
0203
0000
0000
,
0000
0000
0000
0000
0000
0000
0320
2030
,
3200
0000
0000
0000
,
0000
0000
0000
0000
,
0302
0000
0000
0000
,
0000
0000
2003
3200
,
0310
1000
0010
0100
0010
0100
0001
0010
,
0001
0010
0001
1000
0010
0100
0001
1000
,
0001
0100
0001
1000
0100
1000
0010
1000
,
0001
0010
0001
0010
0100
1000
0010
0000
,
1100
0000
0100
0110
0000
0001
0011
0000
,
1000
0000
1010
0000
0000
0000
0100
0000
0001
1000
0001
1000
0001
1000
0001
1000
,
0001
0000
0000
0000
0101
0000
0000
0000
2002
3003
0000
0000
0120
0000
0000
0000
,
0030
1000
0001
0100
0010
0000
1000
0002
0000
0000
0000
0000
0203
0000
0000
0000
,
0000
0310
0001
0010
1000
0000
0001
0000
0100
0000
0010
0000
0200
0000
0000
0000
,
2300
0000
0000
0000
3002
0000
0000
0000
0203
0000
0000
0000
0301
0000
1000
0001
,
2000
0000
0000
0000
3000
0000
0000
0000
0001
0000
0010
0000
0200
0000
0000
2300
,
0000
0000
3001
0000
0020
0000
0000
0000
0230
0000
0000
0000
0320
0000
0000
2030
,
0000
3002
0203
0000
0302
0000
1003
0100
,
0010
1000
0001
0100
0010
0100
2002
0000
,
3003
0000
0000
0000
0001
0000
0100
0000
0010
1000
0100
0001
0010
0000
0100
1000
,
0001
0000
0010
0000
0100
0000
1000
0000
0001
0100
0010
1000
0100
0000
1000
0000
,
0100
1000
0010
1000
0010
0100
0010
0100
,
0001
0000
0010
0000
0001
0000
0100
0010
0001
0000
0010
0000
0100
0000
1000
0000
,
0001
0100
0010
1000
0001
0100
0001
1000
,
0001
0010
0100
0000
0100
0000
0010
0000
,
0001
0000
0001
0010
0100
1000
0010
1000
,
0100
0010
0001
0000
0010
0000
1001
0000
,
0020
0000
2030
3200
,
0320
0000
0000
0000
0000
0000
0032
0000
0000
0000
0000
0000
0013
1000
0100
0010
0001
1000
0010
0100
0001
1000
0001
0100
,
0010
0020
0000
1030
,
0001
0100
0000
0010
0000
1000
0000
0001
,
0000
0100
0000
1000
0010
0000
1001
0000
,
1000
0010
0000
0100
0000
0001
0000
1000
,
0000
0010
0000
0001
0100
0000
1001
0000
,
0001
0100
0000
0010
0000
1000
0000
0001
,
0000
0100
0000
1000
0010
0000
0101
0000
,
0020
0000
2030
0000
,
0000
0000
0000
0000
3002
0000
0000
0000
0000
0000
0000
0000
0103
0000
0000
0100
,
0000
0000
1000
0000
0001
0000
0010
0000
0100
0000
0010
0001
0100
0000
0000
1000
,
0000
0000
0001
0000
0100
0000
0000
0000
0010
0000
0100
0001
1000
0000
0000
0100
,
0000
0000
0010
0000
0001
0000
0000
1000
0000
0000
0001
0010
0100
0000
0000
1000
,
0000
0000
0001
0000
0200
0000
0000
0000
2300
0000
0010
0100
3001
0000
0000
1000
,
0000
0000
0010
0000
0100
0000
0000
0000
0001
0000
0100
1000
0010
0000
0000
0001
,
0000
0000
0010
0000
0100
0000
0000
1000
0000
0000
0001
0010
0100
0000
0000
0001
,
0000
0000
0010
0100
1000
0000
1000
0000
0000
0001
1000
0010
0100
0000
0000
0010
,
0000
0000
0100
0000
1000
0000
0000
0001
0200
0000
0000
0000
0320
0000
0000
0000
,
0130
1000
0001
0100
0001
1000
0001
0100
,
0010
1000
0001
0010
0100
0010
0001
1000
,
0010
0100
0001
1000
0001
0010
0001
0010
0100
1000
0001
0100
,
0001
0000
2002
0003
3200
0000
0020
0000
,
0000
0000
0300
0000
0130
0000
0000
0000
2000
0000
0001
0000
0100
0001
0010
0100
,
0010
0000
0001
0000
0010
0100
0010
0001
0010
0000
0100
0000
0001
0100
0010
0100
,
0010
0001
0010
0100
3002
0010
1000
0100
,
0010
1000
0100
0010
0100
1000
0100
0010
,
2000
0000
0000
3003
,
0200
0320
0032
1003
,
0000
0100
0001
0000
0000
0000
0010
0000
,
0100
1000
0010
0100
,
0000
0000
0000
0001
0000
0000
1000
0000
0000
0100
0000
0000
0010
0000
0000
1000
0000
0000
0001
0000
1000
0000
0001
0000
,
1000
0001
1000
0002
0000
0000
1003
0000
0000
1001
0000
0000
,
0100
0001
0010
0001
0010
0100
1000
0010
,
1000
0100
1000
0001
0100
0010
0110
0000
,
0010
0110
0000
0001
1001
0000
1000
0001
,
1000
0010
0100
0001
0010
0000
0010
0100
,
0010
0100
1000
0010
0100
0010
1000
0001
,
0010
0100
0010
0100
1000
0001
0010
0001
,
1000
0100
0010
0001
0010
0100
0010
0100
,
1000
0000
0000
0100
0000
0000
1000
0000
0000
0010
0000
0000
1000
0000
0000
0010
0000
0000
0100
0000
0010
0000
0001
0000
,
0100
0010
0100
0010
1000
0010
0100
0001
1000
0020
0000
0000
,
0031
1000
0010
0000
0000
0000
1000
0100
0001
0000
0000
0000
0120
0000
0000
0000
,
0000
0000
1030
0001
0100
1000
0001
0010
,
0100
0000
0001
0000
1000
0000
0100
0000
0100
0000
0010
0000
0001
0100
0010
1000
,
0001
0100
0010
0001
0100
0010
1000
0010
0100
0001
0010
1000
0002
0000
0000
0000
,
2000
3003
0120
0000
,
1000
0000
2030
0100
,
3002
0010
0203
1000
,
0320
2030
3002
0010
,
0200
0003
0320
1000
,
0230
0001
0302
0010
,
2003
0001
3200
0001
,
0320
0000
0032
0000
1003
0100
0010
1000
,
0001
0100
0002
0000
0203
0000
0320
0000
,
2030
0000
3010
0100
1000
0001
0010
0100
,
1000
0100
1000
0010
0100
0010
0100
0010
,
1000
0001
0010
0001
1000
0100
0010
0100
,
1000
0100
0010
0001
0010
0100
1000
0010
,
0100
0000
0010
0000
1000
0100
0010
0000
0100
0000
0001
0010
0100
0000
0010
0000
,
1000
0100
0010
0000
1000
0001
0100
0000
1000
0100
0010
0000
0100
0010
0001
0000
,
1000
0000
0000
0000
0000
0000
0000
0000
0000
0000
0000
0000
0000
0000
0000
0000
4004
0000
0000
0000
0000
0000
0000
0000
0000
0000
0000
0000
0000
0000
0000
0000
0000
0000
0000
0000
0000
0000
0000
0000
0000
0000
0000
0000
0000
0000
0000
3003
4004
0000
0000
0000
0000
0000
0000
0000
0000
0000
0000
0000
0000
0000
0000
0000
,
0000
0000
0000
0000
0000
0000
0000
0000
0000
0000
0000
0000
0000
0000
0000
3003
4004
0000
0000
0000
0000
0000
0000
0000
0000
0000
0000
0000
0000
0000
0000
0000
0000
0000
0000
0000
0000
0000
0000
0000
0000
0000
0000
0000
0000
0000
0000
3003
4004
0000
0000
0000
0000
0000
0000
0000
0000
0000
0000
0000
0000
0000
0000
0000
,
0000
0000
0000
0000
0000
0000
0000
0000
0000
0000
0000
0000
0000
0000
0000
3003
4004
0000
0000
0000
0000
0000
0000
0000
0000
0000
0000
0000
0000
0000
0000
0000
0000
0000
0000
0000
0000
0000
0000
0000
0000
0000
0000
0000
0000
0000
0000
3003
4004
0000
0000
0000
0000
0000
0000
0000
0000
0000
0000
0000
0000
0000
0000
0000
,
0000
0000
0000
0000
0000
0000
0000
0000
0000
0000
0000
0000
0000
0000
0000
3003
4004
0000
0000
0000
0000
0000
0000
0000
0000
0000
0000
0000
0000
0000
0000
0000
0000
0000
0000
0000
0000
0000
0000
0000
0000
0000
0000
0000
0000
0000
0000
3003
4004
0000
0000
0000
0000
0000
0000
0000
0000
0000
0000
0000
0000
0000
0000
0000
,
0000
0000
0000
0000
0000
0000
0000
0000
0000
0000
0000
0000
0000
0000
0000
3003
4004
0000
0000
0000
0000
0000
0000
0000
0000
0000
0000
0000
0000
0000
0000
0000
0000
0000
0000
0000
0000
0000
0000
0000
0000
0000
0000
0000
0000
0000
0000
3003
4004
0000
0000
0000
0000
0000
0000
0000
0000
0000
0000
0000
0000
0000
0000
0000
,
0000
0000
0000
0000
0000
0000
0000
0000
0000
0000
0000
0000
0000
0000
0000
3003
4004
0000
0000
0000
0000
0000
0000
0000
0000
0000
0000
0000
0000
0000
0000
0000
0000
0000
0000
0000
0000
0000
0000
0000
0000
0000
0000
0000
0000
0000
0000
3003
4004
0000
0000
0000
0000
0000
0000
0000
0000
0000
0000
0000
0000
0000
0000
0000
,
0000
0000
0000
0000
0000
0000
0000
0000
0000
0000
0000
0000
0000
0000
0000
3003
4004
0000
0000
0000
0000
0000
0000
0000
0000
0000
0000
0000
0000
0000
0000
0000
0000
0000
0000
0000
0000
0000
0000
0000
0000
0000
0000
0000
0000
0000
0000
3003
4004
0000
0000
0000
0000
0000
0000
0000
0000
0000
0000
0000
0000
0000
0000
0000
,
0000
0000
0000
0000
0000
0000
0000
0000
0000
0000
0000
0000
0000
0000
0000
3003
4004
0000
0000
0000
0000
0000
0000
0000
0000
0000
0000
0000
0000
0000
0000
0000
0000
0000
0000
0000
0000
0000
0000
0000
0000
0000
0000
0000
0000
0000
0000
3003
4004
0000
0000
0000
0000
0000
0000
0000
0000
0000
0000
0000
0000
0000
0000
0000
,
0000
0000
0000
0000
0000
0000
0000
0000
0000
0000
0000
0000
0000
0000
0000
3003
4004
0000
0000
0000
0000
0000
0000
0000
0000
0000
0000
0000
0000
0000
0000
0000
0000
0000
0000
0000
0000
0000
0000
0000
0000
0000
0000
0000
0000
0000
0000
3003
4004
0000
0000
0000
0000
0000
0000
0000
0000
0000
0000
0000
0000
0000
0000
0000
,
0000
0000
0000
0000
0000
0000
0000
0000
0000
0000
0000
0000
0000
0000
0000
3003
4004
0000
0000
0000
0000
0000
0000
0000
0000
0000
0000
0000
0000
0000
0000
0000
0000
0000
0000
0000
0000
0000
0000
0000
0000
0000
0000
0000
0000
0000
0000
3003
4004
0000
0000
0000
0000
0000
0000
0000
0000
0000
0000
0000
0000
0000
0000
0000
,
0000
0000
0000
0000
0000
0000
0000
0000
0000
0000
0000
0000
0000
0000
0000
3003
4004
0000
0000
0000
0000
0000
0000
0000
0000
0000
0000
0000
0000
0000
0000
0000
0000
0000
0000
0000
0000
0000
0000
0000
0000
0000
0000
0000
0000
0000
0000
3003
4004
0000
0000
0000
0000
0000
0000
0000
0000
0000
0000
0000
0000
0000
0000
0000
,
0000
0000
0000
0000
0000
0000
0000
0000
0000
0000
0000
0000
0000
0000
0000
3003
4004
0000
0000
0000
0000
0000
0000
0000
0000
0000
0000
0000
0000
0000
0000
0000
0000
0000
0000
0000
0000
0000
0000
0000
0000
0000
0000
0000
0000
0000
0000
3003
4004
0000
0000
0000
0000
0000
0000
0000
0000
0000
0000
0000
0000
0000
0000
0000
,
0000
0000
0000
0000
0000
0000
0000
0000
0000
0000
0000
0000
0000
0000
0000
3003
4004
0000
0000
0000
0000
0000
0000
0000
0000
0000
0000
0000
0000
0000
0000
0000
0000
0000
0000
0000
0000
0000
0000
0000
0000
0000
0000
0000
0000
0000
0000
3003
4004
0000
0000
0000
0000
0000
0000
0000
0000
0000
0000
0000
0000
0000
0000
0000
,
0000
0000
0000
0000
0000
0000
0000
0000
0000
0000
0000
0000
0000
0000
0000
3003
4004
0000
0000
0000
0000
0000
0000
0000
0000
0000
0000
0000
0000
0000
0000
0000
0000
0000
0000
0000
0000
0000
0000
0000
0000
0000
0000
0000
0000
0000
0000
3003
4004
0000
0000
0000
0000
0000
0000
0000
0000
0000
0000
0000
0000
0000
0000
0000
,
0000
0000
0000
0000
0000
0000
0000
0000
0000
0000
0000
0000
0000
0000
0000
3003
4004
0000
0000
0000
0000
0000
0000
0000
0000
0000
0000
0000
0000
0000
0000
0000
0000
0000
0000
0000
0000
0000
0000
0000
0000
0000
0000
0000
0000
0000
0000
3003
4004
0000
0000
0000
0000
0000
0000
0000
0000
0000
0000
0000
0000
0000
0000
0000
,
0000
0000
0000
0000
0000
0000
0000
0000
0000
0000
0000
0000
0000
0000
0000
3003
4004
0000
0000
0000
0000
0000
0000
0000
0000
0000
0000
0000
0000
0000
0000
0000
0000
0000
0000
0000
0000
0000
0000
0000
0000
0000
0000
0000
0000
0000
0000
3003
4004
0000
0000
0000
0000
0000
0000
0000
0000
0000
0000
0000
0000
0000
0000
0000
,
0000
3003
0000
0000
;
