#TITLE:METAL SONIC ~宇宙に消えたメカハリネズミ~;
#ARTIST:みすみゆり;
#TITLETRANSLIT:METAL SONIC ~Uchuu ni Kieta Mecha Harinezumi~;
#ARTISTTRANSLIT:YURI MIZUMI;
#GENRE:ナムコオリジナル;
#MUSIC:METAL SONIC ~Uchuu ni Kieta Mecha Harinezumi~.ogg;
#BANNER:METAL SONIC ~Uchuu ni Kieta Mecha Harinezumi~.png;
#BACKGROUND:METAL SONIC ~Uchuu ni Kieta Mecha Harinezumi~-bg.png;
#CDTITLE:./CDTitles/NSD WORLD.png;
#SAMPLESTART:67.108;
#SAMPLELENGTH:15.000;
#SELECTABLE:YES;
#OFFSET:0.000;
#BPMS:0.000=118.000;
#STOPS:;
#BGCHANGES:;
#FGCHANGES:;

//--------------- dance-single - ----------------
#NOTES:
     dance-single:
     :
     Beginner:
     2:
     0,0,0,0,0:
0000
0000
0000
0000
,
0000
0000
0000
0000
,
0000
0000
0000
0000
,
0000
0000
0000
0000
,
1000
0000
0000
0000
,
0001
0000
0000
0000
,
0100
0000
0000
0000
,
0010
0000
0000
0000
,
1000
0000
0000
0000
,
0001
0000
0000
0000
,
0100
0000
0000
0000
,
0010
0000
0000
0000
,
1000
0000
0000
0000
,
0001
0000
0000
0000
,
0010
0000
0000
0000
,
0100
0000
0000
0000
,
1000
0000
0000
0000
,
0001
0000
0000
0000
,
0100
0000
0000
0000
,
1000
0000
0000
0000
,
0001
0000
0000
0000
,
0010
0000
0000
0000
,
0100
0000
0000
0000
,
1000
0000
0000
0000
,
0002
0000
0000
0000
,
0003
0000
0000
0000
,
2000
0000
0000
0000
,
3000
0000
0000
0000
,
0020
0000
0000
0000
,
0030
0000
0000
0000
,
0100
0000
1000
0000
,
0001
0000
0100
0000
,
1001
0000
0000
0000
,
0010
0000
0010
0000
,
0100
0000
0100
0000
,
1000
0000
0001
0000
,
1000
0000
0001
0000
,
0000
0100
0000
1000
,
0000
0001
0000
0010
,
0100
0000
0000
0000
,
1000
0000
0000
0000
,
0001
0000
0000
0000
,
0000
0010
0000
0000
,
0000
0100
0000
0000
,
0010
0000
0000
0000
;

//--------------- dance-single - ----------------
#NOTES:
     dance-single:
     :
     Easy:
     5:
     0,0,0,0,0:
0000
0000
0000
0000
,
0000
0000
0000
0000
,
0000
0000
0000
0000
,
0000
0000
0000
0000
,
0010
0000
0000
1000
,
0001
0000
0100
0010
,
1000
0000
0001
0000
,
0100
0000
1000
0000
,
0001
0000
0010
0000
,
2000
0000
3001
0000
,
0010
0000
0100
0000
,
1000
0000
0001
0000
,
0010
1000
0001
0000
,
0100
1000
0001
0000
,
0100
0000
0010
0000
,
2000
0000
0000
3000
,
0010
0000
0100
0000
,
1000
0000
0001
0000
,
0100
1000
0001
0000
,
0010
0001
1000
0000
,
0100
0000
0010
0000
,
1000
0001
1000
0000
,
0010
0100
1000
0000
,
0001
1000
0001
0000
,
0020
0000
0000
1030
,
0100
0001
0010
0000
,
0200
0000
1300
0000
,
0100
0010
0001
0000
,
0010
1000
0001
0000
,
0100
1000
0001
0000
,
0010
0001
1000
0001
,
0100
0010
0100
0000
,
1001
0000
0100
0000
,
0101
0000
1010
0000
,
0100
0010
0001
1000
,
0001
0000
1000
0000
0000
0101
0000
0100
,
0000
0000
1000
0001
0000
1000
0000
0001
,
1000
0010
0100
1000
,
0001
0100
0010
0001
,
2000
0000
0000
3001
0000
0000
0010
0100
,
2000
0000
0000
3001
0000
0000
1000
0001
,
1000
0100
0010
0001
,
0010
1000
0001
1000
,
0001
0100
0010
0001
,
1000
0000
0001
0000
1000
0000
0001
1000
;

//--------------- dance-single - ----------------
#NOTES:
     dance-single:
     :
     Medium:
     9:
     0,0,0,0,0:
0000
0000
0000
0000
,
0000
0000
0000
0000
,
0000
0000
0000
0000
,
0000
0000
0000
0000
,
1000
0000
0001
0100
0000
0010
1000
0001
,
0100
0000
0010
0100
0000
1000
0001
0000
,
0100
0010
0001
1000
,
0001
0000
0100
0010
0100
0000
1000
0000
,
0002
0000
0000
1003
0100
0000
1000
0001
,
0200
0000
0000
0000
0310
0000
0000
0001
,
0010
0000
0100
1000
0001
0000
0010
0100
,
0010
0000
0100
1000
0001
0000
0000
0000
,
1000
0001
0100
0010
,
1000
0000
0000
0001
0000
0000
0100
0000
0010
0000
0000
0000
0101
0000
0000
0000
,
1000
0000
0000
0000
0001
0000
0000
0000
0100
0000
0000
0010
0000
0000
1000
0000
,
0001
0000
0100
0000
1000
0001
1000
0000
,
0100
0010
0001
0010
,
0100
1000
0001
0100
,
0010
1000
0001
0000
0100
1000
0001
0000
,
0100
0000
0010
0001
0010
0000
0100
0000
,
1000
0001
0100
0010
,
1000
0000
0000
0001
0000
0000
0100
0000
0010
0000
0000
0000
1001
0000
0000
0000
,
0100
0000
0000
0010
0000
0000
1000
0000
0001
0000
0000
0100
0000
0000
0010
0000
,
0200
0000
0010
0001
,
0320
0000
1000
0000
0000
0000
0130
1000
,
0001
0100
0010
0100
,
2000
0000
0000
0001
3100
0000
0010
0000
,
2000
0000
0000
0020
0000
0000
3030
0000
,
0100
0000
0001
0000
1000
0000
0100
0010
,
0001
0000
1000
0000
0001
0100
0010
0000
,
1000
0001
0100
0000
0010
0000
0100
1000
,
0001
0100
1000
0001
,
1000
0001
1000
0000
0100
0100
0001
0000
,
1001
0100
0101
1000
,
1010
0100
0001
0100
,
0010
1000
0000
0001
0000
0010
0100
1000
,
0000
0001
1000
0000
0001
0100
0000
0010
,
0100
0000
1000
0001
0000
0100
0010
1000
,
0001
0100
0000
0010
1000
0001
0100
0000
,
0010
0000
1000
1001
0000
0000
0100
0100
,
0002
0000
0000
0000
0000
0000
1003
0000
0000
0000
0000
0000
1000
0100
0010
0001
,
1000
0000
0010
0100
1000
0001
0000
0000
,
0100
0000
0010
0100
1000
0000
0001
0000
,
0100
0000
0000
0000
0010
0000
1000
0000
0001
0000
0000
0000
0100
0100
0001
0000
,
0010
0000
0000
0000
1000
0000
0000
0100
0000
0000
0010
0000
0100
0000
0001
1000
;

//--------------- dance-single - ----------------
#NOTES:
     dance-single:
     :
     Hard:
     12:
     0,0,0,0,0:
0000
0000
0000
0000
,
0000
0000
0000
0000
,
0000
0000
0000
0000
,
0000
0000
0000
0000
,
0001
0000
0000
1000
0001
0000
0100
0000
0000
0000
0010
0000
0100
0000
1000
0000
,
0010
0000
0001
0010
0000
1000
0000
0010
0100
0000
1000
0000
0001
0000
0010
0000
,
0200
2300
3200
0320
,
0032
0000
1003
0100
0010
0001
1000
0001
,
0200
0000
0000
0000
0301
0000
0010
0000
2000
0000
0000
3001
0000
0000
0010
0000
,
0200
0000
0000
0000
0000
0000
0000
0000
1300
0000
0000
0000
0001
0000
0100
1000
,
0200
0000
0000
0001
0000
0000
0010
0000
2300
0000
0000
0000
0001
0000
0010
0000
,
3002
0000
0000
0000
0000
0000
0103
1000
0010
0000
0000
0001
0000
0000
0100
0000
,
1000
0000
0000
0001
0000
0000
0100
0000
0010
0000
0000
0100
0000
0000
1000
0000
,
0001
0000
0000
0100
0000
0000
0010
0000
1010
0000
0000
0000
1001
0000
0000
0000
,
0010
0000
0000
1000
0000
0000
0001
0000
0100
0000
0000
0010
0000
0000
0100
0000
,
1000
0000
0001
0000
0100
0000
0010
1000
0000
0001
0000
0000
0100
0000
0010
0001
,
0020
0000
0100
0000
0000
0000
1000
0000
0230
0000
0000
2300
0000
0000
3002
0000
,
0000
0000
0100
0000
0000
1000
0000
0000
0203
0000
0000
0000
0310
0000
0001
0010
,
0100
0000
0000
1000
0000
0001
0010
1000
0100
0000
0000
0101
0000
0000
0010
0100
,
1000
0000
0001
0000
0010
0000
1000
0100
1000
0000
0010
0000
0000
0010
0000
0100
,
2000
0000
0000
0000
3001
0000
0100
0010
1000
0000
0000
0010
0000
0000
0100
0000
,
1000
0000
0000
0001
0000
0000
0110
0000
0110
0000
0000
0000
1001
0000
0000
0000
,
0100
0000
0000
0010
0000
0000
1000
0000
0001
0000
0000
0100
0000
0000
1000
0000
,
0001
0000
0100
0000
0010
0000
0100
1000
0000
0001
0000
0000
0010
0000
0100
1000
,
0020
0000
0000
0000
2030
0000
0000
0000
0000
0000
0000
0000
3001
0000
0010
1000
,
0002
0000
1000
0203
0000
0000
0320
0000
,
2030
0000
0000
0001
0000
0000
3001
0010
0100
0000
0000
1000
0000
0000
0001
0000
,
0200
0000
0000
0320
0000
0000
0001
0000
,
1030
0000
0000
0000
0020
0000
0000
0000
0100
0000
0000
0000
1030
0100
0010
0001
,
2000
0000
3001
0100
0010
1000
0001
0100
,
0020
0000
0000
0000
0000
0000
2030
0000
0000
0000
0000
0000
3010
0000
0100
0010
,
0001
1000
0001
0100
0010
0100
1000
0001
,
0100
0000
0001
1000
0000
0000
0100
0000
0010
0000
0100
0000
1000
0000
0001
0000
,
0100
0000
0001
0000
0010
0000
0100
1000
0000
0000
0001
0000
0100
0000
0010
0100
,
0000
0000
1000
0000
0001
0000
0100
0010
0000
0001
0100
0000
1000
0000
0100
0000
,
0001
0000
1000
0000
0001
0000
0010
0100
0000
0000
0100
0000
0100
0000
0001
0100
,
0000
0000
1000
0000
0001
0000
0100
0000
0010
0000
0100
0000
1000
0000
0001
0010
,
1000
0000
0000
0000
0100
0000
1000
0001
0000
0000
0010
0000
0100
0000
1000
0001
,
0000
0000
0010
0000
0100
0000
0001
0010
0000
0100
0000
1000
0002
0000
0000
0000
,
1003
0000
1000
0110
0000
1000
0100
0100
,
0001
0000
0000
0000
1000
0000
0001
0000
0000
0000
0100
0000
1000
0001
0010
0100
,
1000
0000
0001
0010
0100
1000
0001
0100
,
0010
0000
0000
0000
1000
0000
0001
0010
0000
0000
1000
0000
0001
0010
0000
0000
,
0100
0000
0000
0000
1000
0000
0001
0010
1000
0000
0000
0000
0100
0100
0001
0000
,
0010
0000
0000
0100
0000
0000
1000
0000
0100
0001
0000
0010
0000
0100
1000
0001
;
