#TITLE:Lightning Lightnixium;
#ARTIST:NAMCO Sound Team "Awoo Overlord";
#GENRE:ナムコオリジナル;
#MUSIC:Lightning Lightnixium.ogg;
#BANNER:Lightning Lightnixium.png;
#BACKGROUND:Lightning Lightnixium-bg.png;
#CDTITLE:./CDTitles/NSD WORLD.png;
#SAMPLESTART:56.383;
#SAMPLELENGTH:15.000;
#SELECTABLE:YES;
#OFFSET:0.000;
#BPMS:0.000=225.000
,276.000=112.500
,290.000=225.000
,326.000=450.000
,450.000=900.000
,458.000=450.000
,474.000=56.250
,476.000=900.000
,490.000=56.250
;
#STOPS:458.000=0.267
,459.000=0.267
,460.000=0.267
,461.000=0.267
,466.000=0.267
,467.000=0.267
,468.000=0.267
,469.000=0.267
;
#BGCHANGES:;
#FGCHANGES:;

//--------------- dance-single - ----------------
#NOTES:
     dance-single:
     :
     Beginner:
     7:
     0,0,0,0,0:
0000
0000
0000
0000
,
0000
0000
0000
0000
,
0000
0000
0000
0000
,
0000
0000
0000
0000
,
0000
0000
0000
0000
,
0001
0000
0100
0000
,
0010
0000
0100
0000
,
1000
0000
0000
0001
0000
0000
1000
0000
,
0000
0001
0000
0000
1000
0000
2002
0000
,
0000
0000
0000
0000
,
0000
0000
0000
0000
,
0000
0000
0000
3003
,
0100
0000
0000
0010
0000
0000
0100
0000
,
0000
0000
0001
0000
0000
1000
0000
0000
,
0001
0000
0000
0100
0000
0000
2002
0000
,
0000
0000
0000
0000
,
3003
0000
0000
0000
,
1000
0010
0100
1000
,
0001
0100
0010
0000
,
1000
0010
0100
1000
,
0001
0100
0010
0000
,
1000
0001
0100
0010
,
0100
1000
0001
0000
,
0000
0000
0100
0000
0000
0100
0000
0000
,
0010
0000
0000
0010
0000
0000
0100
0000
,
0010
1000
0100
0010
,
0100
1000
0001
0000
,
1000
0001
0010
0100
,
1000
0001
0100
0000
,
1000
0000
0000
0001
0000
0000
0100
0000
,
0000
1000
0000
0000
0001
0000
0000
0000
,
2002
0000
0000
0000
,
3003
0000
0000
0000
0000
0000
0000
0110
,
0000
0000
0001
0000
1000
0000
0000
0010
,
0000
0000
0100
0000
1000
0000
0000
0001
,
0000
0000
1000
0000
0001
0000
0000
0100
,
0000
0010
0000
1000
0000
0001
0000
1000
,
0000
0000
0001
0000
0100
0000
0000
0010
,
0000
0000
0100
0000
0010
0000
0000
0100
,
0000
0000
0001
0000
1000
0000
0000
0001
,
0000
1000
0000
0001
0000
0100
0000
0010
,
0000
0000
1000
0000
0001
0000
0000
0100
,
0000
0000
0010
0000
0100
0000
0000
1000
,
0000
0000
0001
0000
0100
0000
0000
0010
,
0000
0100
0000
0010
0000
1000
0000
0001
,
0000
0000
0100
0000
0010
0000
0000
1000
,
0000
0001
0000
1000
0000
0100
0000
0020
,
0000
0000
0000
0000
,
0000
0000
0000
0000
0030
0000
0000
0110
,
0000
0000
0000
0000
0000
0000
0000
0100
,
0000
0010
0000
0100
0000
0010
0000
0220
,
0000
0000
0000
0000
,
0000
0000
0000
0000
0330
0000
0000
1001
,
0000
0100
0010
1000
,
0001
0000
0100
0000
0010
0000
0000
0100
,
0000
1000
0001
0100
,
0010
0000
0100
0000
1000
0000
0000
1000
,
0000
0001
1000
0001
,
0100
0000
0010
0000
0100
0000
0000
0001
,
0000
0000
0101
0000
0000
1000
0000
0000
,
1001
0000
0000
0100
0000
0000
0000
0010
,
0000
1000
0001
0000
,
0010
0000
0100
0000
1000
0000
0000
0001
,
0000
0100
0010
0000
,
0100
0000
0001
0000
0000
0100
0000
0000
0010
0000
0000
0100
,
0000
0000
0000
0000
0000
1000
0000
0000
0001
0000
0000
1000
,
0000
0000
0001
0000
0000
1000
0000
0000
0000
0220
0000
0000
,
0000
0000
0000
0000
,
0000
0000
0000
0330
,
1001
0000
0000
0000
0000
0000
0000
0100
0000
0000
0000
0000
0000
0000
0000
0000
,
0001
0000
0000
0000
1000
0000
0000
0001
0000
0000
0000
0000
0000
0000
0000
0000
,
0100
0000
0000
0000
0010
0000
0000
1000
0000
0000
0000
0000
0000
0000
0000
0000
,
1000
0001
0100
0000
,
0010
0000
1000
0001
,
0100
0000
0010
0100
,
1000
0000
0001
1000
,
0001
0100
0010
0100
,
1000
0000
0000
0001
0000
0000
1000
0000
,
0001
0000
0000
1000
0000
0000
0001
0000
,
1000
0000
0000
0010
0000
0000
0100
0000
,
0000
0001
0000
0000
1000
0000
0000
0001
,
0000
1000
0000
1001
0000
0000
0010
0000
,
0100
0000
1000
0000
,
0000
0001
0000
1000
,
0000
0010
0000
0100
,
0000
1000
0000
0001
,
1000
0000
0010
0000
,
0000
0100
0000
0010
,
0000
1000
0000
0001
,
0000
1000
0000
0010
,
0100
0000
0010
0000
,
1000
0001
0000
0100
,
0010
0000
1000
0000
,
0000
0000
0001
0000
,
0000
0010
0000
0000
,
0010
0000
0000
0010
,
0000
0000
0010
0000
,
1000
0001
0000
0100
,
0010
0000
1000
0000
,
0000
0001
0000
0100
,
0000
0010
0000
0100
,
0000
1000
0000
0001
,
0100
0000
0010
0000
,
0000
1000
0000
0001
,
0000
0100
0000
0010
,
0000
0100
0000
0000
,
0100
0000
0000
0010
,
0000
0000
0100
0000
,
0000
1000
0000
0001
,
0100
0000
0220
0000
,
0000
0000
0000
0000
,
0000
0000
0000
0330
,
0000
0000
0010
0000
,
0000
0000
0000
0000
,
0000
0000
0100
0100
,
0100
0010
0010
0000
,
0010
0000
0010
0100
,
1000
0001
1000
0000
,
0001
0000
2002
0000
,
0000
0000
0000
0000
,
0000
0000
0000
0000
,
3003
0000
0000
0000
,
0000
0000
1001
0000
;

//--------------- dance-single - ----------------
#NOTES:
     dance-single:
     :
     Easy:
     9:
     0,0,0,0,0:
0000
0000
0000
0000
,
0000
0000
0000
0000
,
0000
0000
0000
0000
,
0000
0000
0000
0000
,
0000
0000
0000
0000
,
0001
0000
0000
1000
0000
0000
0001
0000
,
0000
0100
0000
0000
0001
0000
0100
0000
,
0010
0000
0000
0010
0000
0000
0010
0000
,
0000
0110
0000
0000
1000
0000
2002
0000
,
0000
0000
0000
0000
,
0000
0000
0000
0000
,
3003
0000
0000
0000
,
0100
0000
0000
0010
0000
0000
0100
0000
,
0000
0000
0001
0000
0000
1000
0000
0000
,
0001
0000
0000
1000
0000
0000
2002
0000
,
0000
0000
0000
3003
,
0010
0100
0010
0100
0010
0000
0100
0000
,
0010
0100
1000
0000
0001
0000
1000
0000
,
0001
0100
0010
0000
,
1000
0010
0001
0000
0100
0000
1000
0010
,
0001
0010
1000
0000
,
0100
0010
0001
0000
1000
0000
0001
0000
,
0100
0001
1000
0000
,
0001
0000
0010
0000
0000
0100
0000
0000
,
0010
0000
0000
0100
0000
0000
0010
0000
,
1000
0001
0100
0000
0010
0000
1000
0000
,
0001
0100
0020
0030
,
1000
0001
0100
0000
0010
0000
1000
0001
,
0100
0010
1000
0000
,
0001
0010
0100
1000
0000
0000
0010
0100
,
1000
0010
0000
1000
0100
0010
0001
2000
,
0000
0000
0000
0000
,
3000
0000
0000
0000
0000
0000
0000
0100
,
0000
0000
0010
0000
1000
0000
0001
0010
,
0000
0000
0100
0000
0001
0000
1000
0010
,
0000
0000
0100
0000
0001
1000
0000
0001
,
0000
1000
0000
0001
0000
0100
0000
0002
,
0000
0000
0103
0000
1000
0000
0001
1000
,
0000
0000
0010
0000
1000
0000
0001
0100
,
0000
0000
0010
0000
1000
0100
0001
1000
,
0000
0001
0000
1000
0000
0001
0000
2000
,
0000
0000
3010
0000
0100
0000
0010
0001
,
0000
0000
1000
0000
0010
0000
0100
1000
,
0000
0000
0010
0000
0100
0000
0001
0100
,
0000
0010
0000
1000
0000
0001
0000
1000
,
0000
0000
0001
0000
1000
0010
1000
0010
,
0000
0100
0000
0010
0000
0001
0000
2002
,
0000
0000
0000
0000
,
0000
0000
0000
0000
3003
0000
0000
0110
,
0000
0000
0000
1000
0000
0001
0100
0010
,
0000
1000
0000
0001
0000
0100
0000
0220
,
0000
0000
0000
0000
,
0000
0000
0000
0000
0330
0000
0000
1000
,
0000
0001
0010
0000
1000
0000
0001
0000
,
0010
0000
1000
0000
0001
0010
0000
1000
,
0000
0010
0100
0000
0010
0000
0100
0000
,
1000
0000
0001
0000
1000
0010
0100
0001
,
0000
0100
0010
0000
0101
0000
0100
0000
,
1000
0000
0001
0000
0100
0010
0000
0010
,
0000
0000
0100
0000
0000
0010
0000
0000
,
0100
0000
0000
0010
0000
0000
1000
0000
,
0000
0010
1000
0001
,
0100
0000
0010
0000
1000
0000
0000
0100
,
0000
0010
0001
1000
,
0001
0000
0100
0000
0000
1000
0000
0000
0001
0000
0000
1000
,
0000
0000
0000
0000
0000
0001
0000
0000
1000
0000
0000
0001
,
0000
0000
1000
0000
0000
0001
0000
0000
0000
0220
0000
0000
,
0000
0000
0000
0000
,
0000
0000
0000
0330
,
0100
0000
0000
0000
0000
0000
0000
0010
0000
0000
0000
0000
0000
0000
0000
0000
,
1000
0000
0000
0000
0001
0000
0000
1000
0000
0000
0000
0000
0000
0000
0000
0000
,
0010
0000
0000
0000
0100
0000
0000
0001
0000
0000
0000
0000
0000
0000
0000
0000
,
0100
0010
1000
0000
,
0001
0000
1000
0100
,
0010
0001
1000
0001
,
1000
0001
0100
0010
,
0100
1000
0001
0100
,
0010
0000
0100
0001
0000
0000
0010
0000
,
1000
0000
0001
0100
0000
0000
1000
0000
,
0010
0000
0001
0100
0000
0000
0101
0000
,
0000
1001
0000
0000
0110
0000
0000
0100
,
0000
1000
0000
0001
0000
0000
1000
0000
,
0010
0000
0001
0100
,
0010
1000
0000
0001
,
0100
1000
0000
0010
,
0100
0010
0000
1000
,
0100
0000
0001
0010
,
1000
0100
0000
0010
,
1000
0010
0000
0100
,
0000
0101
0000
1000
,
0001
0000
0110
0000
,
0001
0100
0000
1000
,
0100
0000
0001
0000
,
0000
0000
0010
0000
,
0000
0100
0000
0000
,
1000
0000
0000
0010
,
0000
0000
0100
0000
,
0010
0100
0000
0010
,
0100
0000
1000
0100
,
0010
0001
0000
1000
,
0001
0100
0000
0010
,
0100
1000
0000
0100
,
0010
0000
0001
0100
,
0010
1000
0000
0001
,
1000
0100
0000
0010
,
0100
0010
0000
0000
,
0101
0000
0000
0100
,
0000
0000
1010
0000
,
0000
0100
0000
0100
,
0010
0000
0001
0000
,
2002
0000
0000
0000
,
0000
0000
3003
0000
,
0000
0000
0200
0000
,
0000
0000
0000
0000
,
0000
0000
0310
0010
,
0010
0010
0010
0000
,
0010
0000
0100
0100
,
0100
0100
0100
0000
,
0100
0000
2002
0000
,
0000
0000
0000
0000
,
0000
0000
0000
0000
,
0000
0000
0000
0000
,
3003
0000
1001
0000
;

//--------------- dance-single - ----------------
#NOTES:
     dance-single:
     :
     Medium:
     14:
     0,0,0,0,0:
0000
0000
0000
0000
,
0000
0000
0000
0000
,
0000
0000
0000
0000
,
0000
0000
0000
0000
,
0000
0000
0000
0000
,
0001
1000
0010
1000
0000
0000
0000
0000
,
0000
0000
0100
0010
,
1001
0000
0100
0101
0000
0010
1010
0000
,
0100
0101
0000
0010
1010
0000
0001
0100
,
0001
0000
1000
0000
0001
0010
0000
0001
,
0010
0000
1000
0001
0000
0010
0100
1000
,
0000
0100
0001
0000
1000
0010
0000
0100
,
0110
0000
0001
1001
0000
0100
0101
0000
,
1000
0001
0100
0000
1000
0001
0000
0100
,
1000
0000
0100
0001
0000
0000
2002
0000
,
0000
0000
0000
3003
,
0001
0000
1000
0000
0100
0000
0010
0000
1000
0000
0001
0010
0100
0000
0010
0000
,
1000
0100
0001
0000
0101
0000
1000
0100
,
0010
0000
0000
0000
0101
0000
0000
0000
1000
0000
0001
0010
0100
0000
0000
0000
,
1000
0001
0100
0000
0110
0000
0001
0010
,
1000
0000
0100
0000
1000
0000
0000
0000
0001
0000
0010
0100
1000
0000
0000
0000
,
0100
0001
1000
0000
0110
0000
0001
0100
,
1000
0000
0000
0000
0101
0000
0000
0000
1000
0000
0100
0010
0001
0000
0000
0000
,
1000
0000
0010
0000
0100
0000
0000
0000
0010
0100
1000
0000
0000
0000
0001
0010
,
1000
0100
0010
0001
0000
1000
0001
0100
,
0001
1000
0001
0000
0101
0000
1000
0010
,
0100
0000
0000
0000
0101
0000
0000
0000
1000
0000
0010
0100
1000
0000
0000
0000
,
0001
0100
1000
0000
0100
0000
1000
0001
,
0010
0000
0000
0000
1010
0000
0000
0000
0001
0000
0010
0100
1000
0000
0000
0000
,
0001
0100
0010
1000
0000
0100
1000
0010
,
0100
0001
0000
1000
0100
0001
0010
0100
,
2000
0000
0000
0000
,
3000
0000
0000
0000
0000
0000
0000
1001
,
0000
0000
0100
0000
0101
0000
0000
0000
1000
0100
0001
0000
1000
0000
0010
0000
,
0000
0000
1000
0000
0001
0000
0000
0000
0100
0010
0001
0000
0100
0000
1000
0000
,
0000
0000
0100
0000
0110
0000
0000
0000
0001
0010
0100
0000
1000
0000
0001
0000
,
0000
0101
0000
1001
0000
0110
0000
0101
,
0000
0000
1000
0000
0001
0000
0000
0000
1000
0001
0100
0000
0010
0000
0001
0000
,
0000
0000
1000
0000
0001
0000
0000
0000
1000
0001
0100
0000
0010
0000
0001
0000
,
1000
0000
0010
0000
0001
0000
0000
0000
0001
0010
0100
0000
0001
0000
1000
0000
,
0000
0101
0000
1001
0000
0101
0000
1001
,
0000
0000
0100
0000
0101
0000
0000
0000
0100
0010
0001
0000
1000
0000
0001
0000
,
0000
0000
0100
0000
0010
0000
0000
0000
0001
0010
0100
0000
1000
0000
0002
0000
,
0000
0000
1000
0000
0103
0000
0000
0000
1000
0001
0100
0000
0010
0000
0001
0000
,
0000
1010
0000
1001
0000
0101
0000
1001
,
0000
0000
0001
0000
0010
0000
0000
0000
1000
0010
0100
0000
0001
0000
2000
0000
,
0000
3100
0000
0010
0001
1000
0010
0000
,
2002
0000
0000
0000
,
0000
0000
0000
0000
3003
0000
0000
2000
,
0000
0000
0000
3001
0000
1000
0100
0010
,
0000
0001
0000
0001
0000
0100
0000
0220
,
0000
0000
0000
0000
,
0000
0000
0000
0000
0330
0000
0000
1001
,
0000
0000
0001
0010
0100
0000
0000
0000
1000
0000
0010
0000
0100
0000
0000
0000
,
0001
0100
0010
0100
1000
0100
0010
0001
,
0000
0000
1000
0001
0100
0000
0000
0000
0010
0000
0100
0000
0010
0000
0000
0000
,
1000
0001
0100
0010
1000
0001
0010
0100
,
0000
0000
1000
0100
0010
0000
0000
0000
0001
0000
0010
0000
0100
0000
0000
0000
,
1000
0001
0100
0010
0001
1000
0001
0100
,
0000
0000
0101
0000
0000
1010
0000
0000
,
0110
0000
0000
1001
0000
0100
0010
0001
,
0000
0000
0000
1000
0000
0001
1000
0000
0000
0010
0000
0100
,
0010
0000
0000
0000
0000
0000
1000
0000
0000
0000
0001
0000
0100
0000
0000
0000
0000
0000
1000
0000
0000
0001
0000
0000
,
0000
0000
0000
0100
0000
0010
0100
0000
0000
1000
0000
0001
,
0100
0000
0000
0000
0200
0000
0000
0300
0000
0000
0200
0000
0000
0000
0300
0000
0002
0000
0000
0000
0003
0000
1001
0000
,
0000
0000
0000
0010
0000
0100
1000
0000
0001
0100
0000
1000
,
0000
0000
0001
0000
0000
1000
0000
0000
0001
0220
0000
0000
,
0000
0000
0000
0000
,
0000
0000
0000
0330
,
1001
0000
0000
0000
0000
0000
0000
0100
0000
0000
0000
0000
1000
0000
0000
0000
,
0001
0000
0000
0000
0100
0000
0000
0010
0000
0000
0000
0000
0000
0000
0000
0000
,
1000
0000
0000
0000
0001
0000
0000
0100
0000
0000
0001
0000
0100
0000
0010
0000
,
1000
0001
1000
0000
,
0001
0000
0100
0001
,
1000
0010
1000
0010
1000
0010
1000
0000
0000
0010
0000
0000
,
0001
0100
0001
0100
0001
0100
0001
0000
0000
1000
0000
0000
,
0100
0010
0100
0010
0100
0010
0100
0000
0000
1000
0000
0000
,
0001
0010
1000
0010
0000
1000
0010
0000
,
1000
0010
0100
0000
0010
0000
1000
0000
0000
0000
0001
0000
0100
0000
0000
0000
,
1000
0001
0100
0000
0010
0000
1000
0000
0000
0000
0001
0000
1000
0001
1000
0000
,
0100
0001
0100
0000
0000
0000
0010
1000
0001
0000
0000
0000
0000
0000
1001
0000
,
0000
0101
0000
0101
0000
0000
1000
0000
,
0001
0000
0001
0100
,
1000
0000
0001
1000
0001
0000
0100
0000
,
0010
0000
1000
0000
0001
0000
0100
1000
,
0010
0100
0000
0010
,
0100
0000
1000
0001
,
0100
0000
1000
0001
0100
0000
0010
0000
,
1000
0100
0000
0200
,
0000
0300
0200
0000
0000
0300
0001
1000
,
0001
0000
0000
0000
0100
0000
0010
0100
,
1000
0001
0000
0001
,
1000
0000
0000
0000
0100
0000
0010
1000
,
0001
0100
1000
0100
,
0010
0100
1000
0100
,
0010
0100
1000
0001
,
0100
0010
0100
0010
,
1000
0100
0000
0001
,
1000
0000
0100
0010
,
0100
0000
1000
0001
0100
0000
0010
0000
,
0100
0000
1000
0000
0001
0000
0100
1000
,
0010
0100
0000
0001
,
1000
0010
0100
0010
,
1000
0000
0100
0010
1000
0000
0010
0000
,
1000
0000
0010
0000
0100
0000
0001
0010
,
0100
1000
0001
1000
,
0010
0000
0001
0100
,
0000
1000
0010
0000
,
1000
0000
0010
0000
0000
0000
0001
0010
,
0100
0000
0000
0000
1000
0001
0100
1000
,
0010
0000
0100
0000
1000
0000
0001
0100
,
0010
0000
1000
0001
0100
0000
0000
0000
,
0000
0000
0200
0000
,
0000
0000
0000
0000
,
0000
0000
0320
0032
,
0203
2300
3002
0000
,
0203
0000
2300
3200
,
0320
0032
0013
0000
,
0110
0000
2002
0000
,
0000
0000
0000
0000
,
0000
0000
0000
0000
,
3003
0000
0000
0000
,
0000
0000
1001
0000
;

//--------------- dance-single - ----------------
#NOTES:
     dance-single:
     :
     Hard:
     18:
     0,0,0,0,0:
0000
0000
0000
0000
,
0000
0000
0000
0000
,
0000
0000
0000
0000
,
0000
0000
0000
0000
,
0000
0000
0000
0000
,
0001
0000
1000
0100
0010
0000
0001
0000
0010
0100
1000
0000
0001
0000
1000
0100
,
0010
0000
0001
0000
0010
0100
1000
0000
0001
0000
0100
0010
0001
0100
0001
0100
,
0010
0000
0100
0110
0000
0001
1001
0000
,
0010
0000
0101
0000
0000
0000
1000
0000
1000
0000
0100
1000
0100
0000
0001
0010
,
0001
0010
0100
1000
0001
0100
0010
1000
,
0100
0010
0100
0010
0001
1000
0001
0010
,
0100
1000
0001
0010
0001
0100
0010
1000
,
0100
0010
0001
0010
0200
0000
0000
0000
,
0300
0000
0101
0000
1001
1001
0000
0110
,
0110
0000
1010
1010
0000
0110
0220
0000
,
0000
0000
0030
0000
,
0002
0000
0000
0303
,
0001
0000
0100
0001
0010
0000
1000
0000
0010
0000
0100
0000
0001
0000
0010
1000
,
0001
0000
0010
0001
0100
0000
1000
0000
0010
0000
0100
1000
0001
0000
1000
0000
,
0010
0000
0100
0001
0010
0000
0100
0000
0010
0000
1000
0001
0100
0000
1000
0000
,
0010
0001
1000
0010
0100
0000
0010
0000
0100
0000
0010
0000
0100
0000
0000
0000
,
0010
0000
1000
0100
0010
0000
1000
0000
0001
0000
0010
1000
0001
0000
0100
0001
,
0010
1000
0100
0010
0001
0010
0100
1000
0010
0001
1000
0100
0010
0001
0100
1000
,
0010
0000
1000
0001
0100
0000
1000
0001
0100
0000
1000
0000
0010
0001
0100
0000
,
0010
0000
1000
0000
0001
0010
0100
0000
0010
0000
0001
0010
0100
0000
1000
0000
,
0010
0000
0100
0001
0010
0000
1000
0010
0100
0000
1000
0001
0010
0000
1000
0100
,
0010
0000
0100
0010
0001
0000
0010
0000
0001
0100
1000
0001
0010
0000
1000
0010
,
0001
0000
0100
0000
0001
0010
0100
0000
0001
0000
1000
0010
0100
0000
1000
0000
,
0100
0000
0010
0000
0100
1000
0010
0100
0001
0010
0100
0010
0001
0000
0010
0000
,
0100
1000
0001
1000
0010
1000
0100
0010
,
0100
0010
0100
1000
0010
0100
0010
0100
,
1000
0000
0000
0000
0000
0000
0000
0000
0001
0000
0000
0000
0000
0000
0000
0000
0000
0000
1000
0000
0000
0000
0000
0000
0000
0000
0000
0020
0000
0000
0000
0000
0000
0000
0000
0000
0000
0000
0000
0000
0000
0000
0000
0000
0000
0000
0000
0000
,
0130
0010
0100
1000
0010
0100
0001
0100
0001
0100
0010
1000
0001
0000
0010
0000
,
0100
0000
0010
0000
0001
0000
1000
0000
0001
1000
0010
0000
0100
0000
1000
0000
,
0100
0000
0010
0000
0100
0000
1000
0000
0001
0010
0100
0000
0010
0000
1000
0000
,
0001
0000
1000
0000
0010
0000
0100
0000
0001
0010
0100
0000
0010
0000
0100
0000
,
0010
1000
0001
1000
0001
0010
0100
0010
,
0100
0000
1000
0000
0100
0000
0010
0000
0001
0010
0100
0000
0010
0000
1000
0000
,
0100
0000
0010
0000
0001
0000
0010
0000
0100
1000
0010
0000
0001
0000
1000
0000
,
0010
1000
0001
1000
0010
0100
0010
1010
,
0000
0101
0000
0110
0000
1010
0000
0110
,
0000
0000
0100
0000
0101
0000
0000
0000
0010
0100
1000
0000
0001
0000
0100
0000
,
0001
0000
0010
0000
0001
0000
0010
0000
0100
1000
0010
0000
0001
0000
0100
0000
,
0001
0000
1000
0000
0100
0000
1000
0000
0100
0001
0010
0000
0100
0000
0110
0000
,
0000
0011
0000
1010
0000
0110
0000
0110
,
0000
0000
0100
0000
1000
0000
0010
0000
1000
0100
0010
0000
0100
0000
0001
0000
,
0100
0010
1000
0100
1000
0001
0100
0001
,
1000
0010
0100
0010
0100
0010
1000
0100
,
1000
0001
0100
0001
1000
0100
0010
0200
,
0000
0000
0000
0302
0000
1003
0100
0010
,
0100
1000
0000
0101
0000
0101
0000
2002
,
0000
0000
0000
0000
,
0000
0000
0000
0000
3003
0000
0000
1001
,
0000
0000
0010
1000
0001
0000
0100
0000
0010
0100
1000
0000
0100
0000
1000
0010
,
0100
0000
1000
0100
0001
0000
0100
0000
0010
0000
0100
0000
0001
0000
0100
0000
,
0000
0000
1000
0000
0100
0001
1000
0000
0010
0000
0100
1000
0010
0000
0100
0001
,
0010
0000
1000
0010
0100
0000
2000
0000
3002
0000
0203
0000
0320
0000
1030
0000
,
0100
1000
0010
0100
0010
1000
0010
1000
,
0100
0000
0010
0000
0100
0000
0010
0000
0001
0000
0100
0000
0010
0001
0010
0001
,
0010
0000
0000
0000
0010
1000
0010
1000
0000
0000
0010
0100
0010
0100
0000
0000
,
0010
0100
0010
0100
0100
1000
0001
1000
0010
0100
0001
1000
0100
1000
0010
0000
,
0010
0100
0010
0100
0010
1000
0001
1000
0010
1000
0001
0100
,
0010
0100
0010
1000
0001
0010
0100
1000
0100
1000
0100
0010
,
0001
0100
0010
0100
0001
1000
0010
1000
0100
0010
0001
0010
,
0100
0000
1000
0000
0000
0101
0000
0000
0101
0000
0000
1001
,
0000
0000
0000
0010
1000
0010
1000
0100
1000
0001
0010
0001
,
0010
0001
0100
0010
0100
0010
0100
1000
0001
0100
0010
1000
,
0100
0000
0010
0000
0100
0000
1000
0000
0100
0000
0010
0000
0001
0000
0100
0000
0001
0000
0100
0000
0010
0000
1000
0000
0010
0001
0100
1000
0010
0001
1000
0010
,
0100
1000
0010
0001
0100
1000
0010
0001
0100
0010
1000
0100
0010
1000
0100
0001
0100
0010
0100
1000
0100
0010
0001
0010
0001
0010
0100
1000
0010
1000
0001
1000
,
0002
0000
0000
0000
0000
0000
0000
2003
0000
0000
0000
0000
0000
0000
0000
0000
,
3020
0000
0000
0000
0230
0000
0000
0320
0000
0000
0000
0000
0031
0000
1000
0001
,
0100
0000
0010
0000
0100
0000
0000
0001
0100
0000
1000
0000
0010
0000
0100
0000
,
0010
0100
0010
0100
0001
0100
0001
1000
0010
0100
0001
0100
0010
0100
0001
0010
,
0100
1000
0001
1000
0100
0010
0100
1000
0010
0000
0100
0000
0010
1000
0100
0000
,
0000
0010
0100
0000
0010
0000
1000
0010
0100
0001
1000
0000
0010
0000
0100
1000
,
0010
0000
0100
0010
0001
0000
0100
0001
0010
0000
1000
0000
0010
0000
0100
1000
,
0010
0000
0100
0010
0001
0000
0010
0000
0001
0000
0100
0010
0001
0000
0010
0000
,
0100
0000
0010
0000
0001
0100
0010
0100
0001
0000
1000
0000
0001
0010
0100
1000
,
0010
0100
0010
1000
0010
0100
0001
0100
,
0001
0000
0100
0000
0010
0000
1000
0000
0010
0100
0001
0010
0100
0010
0100
0010
,
0001
0100
0001
1000
0001
0010
0100
1000
0010
1000
0100
0010
0001
0010
0001
1000
,
0010
1000
0001
0100
0010
0100
0010
0100
0001
0000
0000
0000
1000
0000
0010
0000
,
0100
0000
1000
0100
0010
0000
0100
0001
,
0010
0000
0100
0000
0001
0010
1000
0000
,
0100
0000
1000
0100
0010
0000
1000
0000
,
0100
0001
0010
0000
0100
0001
0010
0000
,
0100
0010
1000
0100
0010
0001
1000
0100
,
0010
0000
0100
1000
0010
0001
0100
0000
,
0001
1000
0000
0101
,
0000
0000
1000
0000
0000
0000
0010
1000
,
0001
0100
0010
1000
,
0010
0000
0100
1000
0010
0000
0100
0000
,
0001
1000
0001
1000
,
0001
0010
0100
0000
0010
1000
0100
0001
,
0010
0100
1000
0010
0001
0100
1000
0010
,
0001
0100
0001
0010
0001
0010
0100
0010
,
0100
1000
0100
0010
0001
0010
0100
1000
,
0100
0000
1000
0000
0001
0010
0100
0000
,
0010
0100
1000
0000
0001
0000
0100
0001
,
0010
0000
1000
0000
0001
0000
0010
0001
,
0100
0010
1000
0000
0100
0000
0010
0000
,
0001
0100
1000
0010
0001
0000
0100
0000
,
0010
1000
0100
1000
,
0100
0000
1000
0010
0001
0010
0100
1000
,
0001
0010
0001
0010
,
0100
1000
1010
0000
,
0100
0110
0000
0010
,
0011
0000
0100
1100
,
0000
0011
0000
0100
,
0001
0000
1000
0100
0001
0000
0010
1000
,
0001
0100
0001
0010
0100
0010
0001
0100
,
0010
0100
0010
0100
0010
0000
0000
0000
,
0000
0000
0220
0000
,
0000
0000
0000
0000
,
0330
0000
1001
0101
,
1010
0110
0110
0000
,
0101
0000
1001
0101
,
1010
0110
1010
0000
,
0110
0000
2002
0000
,
0000
0000
0000
0000
,
0000
0000
0000
0000
,
0000
0000
0000
0000
,
3003
0000
1001
0000
;
