
//----- song ID: eeer -----//
#TITLE:ラッキー☆ラ!!;
#SUBTITLE:TVアニメ「EVERY EXTEND EXTRA ~ピコラの世界~」より;
#ARTIST:TOWA feat. ピコラ・ヒストリッカ (CV:楠野儀ミミ);
#TITLETRANSLIT:LUCKY☆LA!!;
#SUBTITLETRANSLIT:TV Anime「EVERY EXTEND EXTRA ~Picora's World~」;
#ARTISTTRANSLIT:TOWA feat. Picora-Historikka (CV:Kusunogi Mimi);
#GENRE:アニメ;
#MUSIC:LUCKY LA!!.ogg;
#BANNER:LUCKY LA!!.png;
#BACKGROUND:LUCKY LA!!-bg.png;
#CDTITLE:./CDTitles/NSD WORLD.png;
#SAMPLESTART:44.993;
#SAMPLELENGTH:15.000;
#SELECTABLE:YES;
#OFFSET:0.000;
#BPMS:0.000=180.000;
#STOPS:;
#BGCHANGES:;
#FGCHANGES:;

//--------------- dance-single - ----------------
#NOTES:
     dance-single:
     :
     Beginner:
     2:
     0,0,0,0,0:
0000
0000
0000
0000
,
0000
0000
0000
0000
,
0000
0000
0000
0000
,
0000
0000
0000
0000
,
0000
0000
0000
0000
,
0000
0000
0000
0000
,
1000
0000
0000
0000
,
1000
0000
0000
0000
,
0001
0000
0000
0000
,
0001
0000
0000
0000
,
0100
0000
0000
0000
,
0000
0000
0000
0000
,
0010
0000
0000
0000
,
0000
0000
0000
0000
,
0100
0000
0000
0000
,
0000
0000
0000
0000
,
0010
0000
0000
0000
,
1000
0000
0000
0000
,
0001
0000
0000
0000
,
0000
0000
0000
0000
,
0010
0000
0000
0000
,
0100
0000
0000
0000
,
1000
0000
0000
0000
,
0000
0000
0000
0000
,
1000
0000
0000
0000
,
0001
0000
0000
0000
,
0110
0000
0000
0000
,
0000
0000
0000
0000
,
2000
0000
0000
0000
,
3000
0000
0000
0000
,
0002
0000
0000
0000
,
0003
0000
0000
0000
,
0010
0000
0000
0000
,
0000
0000
0000
0000
,
0100
0000
0000
0000
,
0000
0000
0000
0000
,
0010
0000
0000
0000
,
0001
0000
0000
0000
,
1000
0000
0000
0000
,
0000
0000
0000
0000
,
0100
0000
0000
0000
,
0010
0000
0000
0000
,
0100
0000
0000
0000
,
0000
0000
0000
0000
,
0010
0000
0000
0000
,
0000
0000
0000
0000
,
0001
0000
0000
0000
,
0000
0000
0000
0000
,
1000
0000
0000
0000
,
0010
0000
0000
0000
,
0002
0000
0000
0000
,
0003
0000
0000
0000
,
2000
0000
0000
0000
,
3000
0000
0000
0000
,
0100
0000
0000
0000
,
0100
0000
0000
0000
,
0002
0000
0000
0000
,
0003
0000
0000
0000
,
0110
0000
0000
0000
,
0000
0000
0000
0000
,
1000
0000
0000
0000
,
0100
0000
0000
0000
,
0001
0000
0000
0000
,
0000
0000
0000
0000
,
0001
0000
0000
0000
,
0010
0000
0000
0000
,
1000
0000
0000
0000
,
0100
0000
0000
0000
,
0000
0010
0000
0000
,
0000
0000
0000
0000
,
0001
0000
0000
0000
,
0010
0000
0000
0000
,
0100
0000
0000
0000
,
0010
0000
0000
0000
,
0110
0000
0000
0000
,
0000
0000
0000
0000
,
1000
0000
0000
0000
,
0000
0000
0000
0000
,
0000
0001
0000
0000
,
0000
0000
0000
0000
,
1000
0000
0000
0000
,
0001
0000
0000
0000
,
0010
0000
0000
0000
,
0000
0000
0000
0000
,
0100
0000
0000
0000
,
0000
0000
0000
0000
,
0010
0000
0000
0000
,
0000
0000
0000
0000
,
0001
0000
0000
0000
,
1000
0000
0000
0000
,
0110
0000
0000
0000
,
0000
0000
0000
0000
,
1000
0000
0000
0000
,
0000
0000
0000
0000
,
0001
0000
0000
0000
,
0000
0000
0000
0000
,
1000
0000
0000
0000
,
0000
0000
0000
0000
,
1001
0000
0000
0000
;

//--------------- dance-single - ----------------
#NOTES:
     dance-single:
     :
     Easy:
     4:
     0,0,0,0,0:
0000
0000
0000
0000
,
0000
0000
0000
0000
,
0000
0000
0000
0000
,
0000
0000
0000
0000
,
0000
0000
0000
0000
,
0000
0000
0000
0000
,
1000
0001
1000
0000
,
0010
0100
1000
0000
,
0001
0000
0000
0000
,
1000
0000
0000
0000
,
0100
0000
0000
0000
,
0010
0000
0000
0000
,
0001
0000
1000
0000
,
0001
0000
0000
0000
,
1000
0000
0100
0000
,
0010
0000
0000
0000
,
0001
0000
0010
0000
,
0100
0000
1000
0000
,
0001
0000
1000
0000
,
0001
0000
0000
0000
,
0100
0000
0010
0000
,
1000
0000
0000
0000
,
0001
0000
1000
0000
,
0001
0000
0000
0000
,
0010
0000
0100
0000
,
0010
0000
0000
0000
,
0002
0000
1000
0000
,
0003
0000
0000
0000
,
2000
0000
0001
0000
,
3010
0000
0000
0000
,
0001
0000
1000
0000
,
0001
0000
0100
0000
,
1000
0001
1000
0000
,
0110
0000
1001
0000
,
0110
0000
1000
0000
,
0001
0000
0010
0000
,
0100
0000
1000
0000
,
0001
0000
0010
0000
,
0100
1000
0001
0000
,
0100
0000
0000
0000
,
0010
0000
0000
0000
,
0001
0000
1000
0000
,
0001
0000
1000
0000
,
0100
0000
0010
0000
,
0001
0000
1000
0000
,
0002
0000
0003
0000
,
1000
0000
0100
0000
,
0010
0000
0000
0000
,
0001
0000
0100
0000
,
0010
0000
1000
0000
,
1001
0000
0000
0000
,
0100
0000
0000
0000
,
0010
0000
0000
0000
,
0001
0000
0000
0000
,
0100
0000
0000
0000
,
1000
0000
0000
0000
,
0001
0000
1000
0000
,
1001
0000
0000
0000
,
0110
0000
1000
0000
,
0001
0000
0000
0000
,
0100
0000
0100
0000
,
0010
0000
0000
0000
,
1000
0000
0001
0000
,
0010
0000
0001
0000
,
0100
0000
1000
0000
,
0001
0000
1000
0000
,
0001
0000
0100
0000
,
0010
0000
1000
0001
,
0100
0000
0010
0000
,
0100
1000
0001
0000
,
0100
0000
0010
0000
,
1000
0000
0000
0000
,
0001
0000
0010
0000
,
0220
0000
0330
0000
,
1001
0000
0000
0000
,
0001
0000
0000
0000
,
1000
0000
0000
0000
,
0001
0000
0100
0000
,
0000
0110
1000
0001
,
0100
0000
0000
0001
,
1000
0000
0000
0001
,
0100
0000
0000
0000
,
0010
0100
1000
0000
,
0001
1000
0001
0000
,
0010
0100
0010
0000
,
0001
0000
1000
0000
,
0001
0010
0100
0000
,
1000
0001
1000
0000
,
0100
0000
0000
0000
,
0020
0000
0130
0000
,
0110
0000
1000
0000
,
0001
0000
0000
0000
,
0100
0000
0010
0000
,
1000
0000
0000
0000
,
0001
0000
1000
0000
,
0001
0000
0000
0000
,
0100
0000
0000
0000
,
0010
0000
0000
0000
,
0110
0000
0000
0000
;

//--------------- dance-single - ----------------
#NOTES:
     dance-single:
     :
     Medium:
     9:
     0,0,0,0,0:
0000
0000
0000
0000
,
0000
0000
0000
0000
,
0000
0000
0000
0000
,
0000
0000
0000
0000
,
0000
0000
0000
0000
,
0000
0000
0000
0000
,
0001
1000
0001
0100
,
0010
0000
0100
0000
1000
0000
0001
1000
,
0001
0000
0100
0000
0010
0000
1000
0001
,
0010
0000
0100
0000
0010
0100
0010
0000
,
0110
0000
1000
0000
0001
0000
0010
0100
,
0000
1000
0000
0001
0000
0000
0000
0000
,
0010
0000
0100
0000
1000
0001
0000
0100
,
0010
0100
1000
0001
,
0100
0000
0010
0000
1000
0000
0001
0100
,
0000
0010
0000
0100
0000
0000
0010
0000
,
0001
0000
1000
0001
0000
0100
0000
0010
,
0100
1000
0000
0010
0000
1000
0100
0001
,
0010
0000
1000
0000
0001
0000
0100
0010
,
0000
0100
1000
0001
0000
0100
1000
0000
,
0010
0100
1000
0000
0001
0100
0010
0000
,
0100
0000
1000
0000
0001
0100
0010
0000
,
0100
1000
0001
0000
0100
0000
0010
0000
,
0100
1000
0001
0000
0100
0000
0010
0000
,
0001
0000
0010
0100
0000
1000
0001
0000
,
0100
0010
0000
0100
1000
0000
0001
0100
,
1000
1000
0001
0100
,
0010
0100
1000
0000
,
0001
0100
0010
0100
,
1000
0000
0000
0000
,
0001
1000
0001
0100
,
0010
0001
0010
0000
,
0100
1000
0100
0000
0001
0000
0100
0000
,
0010
0100
0010
0000
,
0110
1000
0001
0100
,
0010
0000
0001
0010
0100
0000
1000
0000
,
0001
0000
0100
0000
0010
0001
1000
0000
,
0002
0000
0203
0300
,
1000
0000
0001
0000
0010
0100
1000
0000
,
0001
0100
0010
0000
,
0100
1000
0001
0000
0100
0000
0010
0100
,
1000
0010
0000
1000
0000
0001
1000
0000
,
0001
0000
0100
0000
0010
0100
1000
0001
,
0000
0010
0000
0100
0000
0000
0000
0000
,
0010
0000
0100
0010
0000
0100
0001
1000
,
0200
0000
0302
0003
,
1000
0000
0001
0000
0100
0000
0010
1000
,
0100
0000
0000
0001
1000
0000
0010
0000
,
0100
0000
0000
1000
,
0001
0100
0000
0010
0000
0100
1000
0001
,
0200
0000
0000
0000
,
0320
0000
0000
0000
,
2030
0000
0000
0000
,
3001
0000
0100
0000
,
0010
0000
0100
0000
,
1000
0000
0001
0000
,
1000
0000
0001
0000
,
0100
0100
0001
0000
,
1000
0001
0100
0000
,
0010
0000
0100
0000
,
0001
0010
0100
0000
,
1000
0000
0010
0100
,
0010
1000
0001
0000
,
0100
0000
0010
0100
,
1000
0001
1000
0000
,
0100
0000
0000
0000
,
0110
1000
0001
0000
,
0100
0010
0100
0000
,
1000
0001
0010
0000
,
0100
1000
0001
0000
,
0010
0100
1000
0000
,
0001
1000
0001
0000
,
0100
0000
0010
0000
,
0220
0000
0330
0000
,
1001
0000
0000
0000
0001
1000
0001
1000
,
0000
0001
0000
1000
0000
0000
0000
0000
,
0110
0000
0001
0010
0000
0000
1000
0002
,
0000
0000
2003
3000
,
0020
0130
1000
0001
,
0100
0010
0100
1000
,
0001
0000
0000
1000
,
0001
0100
0000
0100
0010
0000
0000
0000
,
1000
0001
0100
0000
,
0010
0100
1000
0000
,
0001
0000
1000
0000
,
0001
0100
0010
0000
,
1000
0000
0001
0000
,
0010
0000
0100
0000
,
1000
0001
0100
0000
,
0010
0100
1000
0000
,
1001
0000
0000
0000
,
0010
0000
0000
0000
,
0100
0000
0000
0000
,
1000
0000
0000
0000
,
0001
0000
0000
0000
,
0010
0000
0000
0000
,
1000
0000
0001
0000
,
0100
0000
0010
0000
0001
1000
0001
0000
,
1001
0000
0000
0000
;

//--------------- dance-single - ----------------
#NOTES:
     dance-single:
     :
     Hard:
     12:
     0,0,0,0,0:
0000
0000
0000
0000
,
0000
0000
0000
0000
,
0000
0000
0000
0000
,
0000
0000
0000
0000
,
0000
0000
0000
0000
,
0000
0000
0000
0000
,
1001
0000
0001
0010
0100
1000
0010
0100
,
0000
0001
1000
0001
0010
0000
1000
0002
,
1003
0000
0010
0000
0000
0000
0010
0100
,
1000
0000
0001
0000
1000
0001
0100
0000
,
0110
0000
1000
0100
0001
0000
0100
0010
,
0000
0100
0000
1000
0000
0000
0000
1000
,
0001
0010
0100
1000
0100
0010
0001
1000
,
0002
0000
0103
0000
2000
0000
3010
0001
,
0100
0000
1000
0001
0100
0000
0001
1000
,
0000
0010
0000
0100
0000
0000
1000
0000
,
0001
0000
0100
0020
0000
0000
0130
0000
,
2000
0001
3010
0100
,
1001
0000
0100
0001
0010
0000
1000
0010
,
0000
1000
0000
0001
0000
0000
0000
0010
,
0100
0010
1000
0001
1000
0001
0010
0100
,
1000
0000
0001
0000
0100
0010
0100
1000
,
0010
0000
0100
1000
0001
0000
0100
0010
,
0000
0100
0000
1000
0000
0000
0001
0100
,
0010
0000
0100
0000
1000
0001
0000
0200
,
0000
0000
0000
0310
,
1000
0001
1000
0100
0010
0000
0001
0000
,
2000
3002
0203
1300
,
0001
0000
1000
0001
0000
0100
0000
0010
,
0000
1000
0000
0001
,
1000
0000
0000
0110
0000
0000
0001
0000
,
0010
0000
0000
0110
0000
0000
1000
0000
,
0001
0100
0010
0100
,
2002
0000
0000
0000
3003
0000
0001
0010
,
1001
0000
0000
0100
0001
0100
0010
0100
,
0000
0010
0000
1000
0000
0000
0001
0010
,
0100
0000
1000
0002
0000
0000
0013
2000
,
0000
0000
3002
0000
,
0103
0000
1000
0100
0001
0000
1000
0001
,
0000
0100
0000
0010
0000
0000
1000
0100
,
0010
0000
0000
0000
0000
0000
0001
0010
,
0100
0001
0000
1000
0001
0000
0100
0010
,
0110
0000
1000
0000
0001
0010
0100
1000
,
0000
0001
0000
0100
0000
0000
0010
0100
,
1000
0000
0001
2000
0000
0000
3001
0200
,
0000
0000
0320
0030
,
1000
0000
0001
0000
0100
0010
0100
1000
,
0000
0001
0000
0100
0000
0000
0001
0010
,
0100
0000
0000
0000
0000
0000
1000
0001
,
0020
0000
0000
0000
,
0130
0000
0001
0000
,
0100
0100
0001
0000
,
0100
0000
0001
0000
,
0100
0100
0001
0000
,
2002
0000
3003
0000
,
2200
0000
3300
0000
,
0020
0000
0030
0000
,
0200
0000
0000
0000
0000
0000
0000
0300
0200
0000
0000
0000
0000
0000
0000
0000
0301
0000
0000
0000
0000
0000
0000
0000
0000
0000
0000
0000
0000
0000
0000
0000
,
1001
0001
0010
0100
,
1000
0001
0100
0000
,
0010
0100
1000
0001
,
0100
0010
1000
0000
,
0100
0010
0000
0010
,
0100
0010
0000
1000
,
0001
0100
0000
0010
,
0002
0000
2003
0000
,
3010
0100
0000
0010
,
1000
0001
0000
0100
,
0010
1000
0000
0001
,
1000
0001
0000
0100
,
0010
1000
0000
0001
,
1000
0001
0000
0100
,
0010
0001
0000
1000
,
2002
0000
0000
0000
3003
0000
1000
0100
,
0010
0000
0100
1000
0001
0010
1000
0001
,
0000
0101
0000
0110
0000
0000
1000
0001
,
1000
0000
1000
0001
0000
0000
0100
0020
,
0000
0000
0230
0000
,
0310
0000
1000
0100
0001
0010
1000
0010
,
0000
1000
0000
0001
0000
0000
0010
0100
,
1000
0000
0000
0000
0000
0000
0001
1000
,
0001
0100
0000
0010
1000
0000
0001
1000
,
0001
0000
0100
0000
0010
0100
1000
0001
,
0000
0100
0000
0010
0000
0000
0100
1000
,
0001
0000
0100
1000
0000
0000
0010
0200
,
0000
0000
0302
0000
,
1003
0000
0001
0010
0100
0000
1000
0001
,
0000
0100
0000
0010
0000
0000
1000
0001
,
0010
0000
0000
0000
0000
0000
0010
0100
,
2000
0000
3001
0000
,
1001
0000
0100
0000
0010
1000
0001
0100
,
0000
0010
0000
0000
0000
0000
0000
0000
,
1000
0000
0001
0100
0010
0100
1000
0001
,
0000
0010
0100
1000
,
0001
0000
0100
0010
0100
1000
0010
0100
,
0000
0010
1000
0001
0010
0000
0100
1000
,
0001
0000
0010
0000
0100
0000
1000
0001
,
0010
0000
0100
0000
1000
0001
0100
0000
,
0110
0000
0000
0000
;

//--------------- dance-single - ----------------
#NOTES:
     dance-single:
     :
     Challenge:
     15:
     0,0,0,0,0:
0000
0000
0000
0000
,
0000
0000
0000
0000
,
0000
0000
0000
0000
,
0000
0000
0000
0000
,
0000
0000
0000
0000
,
0000
0000
0000
0000
,
0100
1000
0001
0010
0001
1000
0010
0100
,
0010
1000
0001
1000
0010
1000
0001
0100
,
0010
0100
0001
1000
0010
1000
0001
0100
,
0001
0000
0010
0000
0001
0000
0100
0000
0010
0000
1000
0000
0010
0100
0010
0100
,
0010
0000
1000
0100
0002
0000
0013
0200
,
0000
0301
1000
0010
0100
0000
1000
0100
,
0010
0100
1000
0100
0010
0001
0100
0010
,
2000
3002
2003
3002
2003
3002
2003
3002
,
0013
0100
1000
0001
0200
0000
0310
0002
,
0000
1003
0010
0100
0020
0000
2030
0000
,
3002
0000
0013
0200
0000
0000
0310
0000
,
0001
0000
0010
0000
1000
0000
0010
0000
0001
1000
0001
1000
0001
0000
0010
0000
,
0100
0000
0100
0010
1000
0100
0010
0002
,
0000
2003
0000
3200
0000
0310
0001
0010
,
1000
0100
0001
0010
0001
0100
0001
1000
,
0010
0000
0100
0000
1000
0001
0010
0000
0100
0000
0010
0000
1000
0010
0001
0000
,
0100
0010
1000
0001
0020
0000
0130
1000
,
0100
0002
0000
0203
0000
1300
0001
0010
,
0001
0100
0001
0010
0001
0100
0010
1000
,
0010
0000
0100
0000
0001
0000
0100
0000
0010
0000
1000
0000
0100
0000
1000
0100
,
0010
0100
0010
0100
1000
0000
0101
0000
,
2000
0000
3100
0001
0010
0100
1000
0001
,
0100
0000
0010
1000
0001
0000
0110
0000
,
1010
0000
0100
0010
0100
0010
1000
0010
,
0001
0100
0001
1000
0010
0100
0001
1000
,
0001
0100
0001
0010
0100
0010
0100
0010
,
0001
1000
0001
0000
0100
0010
0100
0000
1000
0001
1000
0001
1000
0001
1000
0001
,
0200
0310
0200
1300
0002
1003
0110
0000
,
1001
0000
0100
0010
0001
1000
0010
1000
,
0001
0010
0100
0010
0001
0100
0010
1000
,
0001
1000
0100
1000
0100
0010
0001
1000
,
0001
0100
0001
1000
0010
1000
0001
0100
,
0010
0100
0010
0100
0001
0010
0100
1000
,
0100
1000
0100
0010
0001
0010
0100
0010
,
0100
1000
0010
1000
0001
0100
0001
0010
,
1000
0000
0001
0000
0000
0000
0100
0000
0010
0000
1000
0000
0001
0010
0100
0000
,
1100
0000
0100
1000
0001
1000
0100
1000
,
0010
0100
0001
0100
0010
1000
0010
1000
,
0001
0100
0010
0100
0010
1000
0100
0010
,
0100
1000
0100
1000
0001
1000
0001
0100
,
0010
1000
0100
0010
0100
0010
0001
0100
,
0001
0100
0010
1000
0001
0010
0001
0100
,
0001
0100
0010
1000
0001
1000
0100
0010
,
0100
0000
1000
0000
0001
0000
0010
0000
0100
0001
1000
0000
0010
0001
0100
0000
,
1002
0000
0100
0000
0000
1003
0200
0000
,
0320
0000
2030
0000
0000
3010
1000
0010
,
0100
0000
0020
0000
0000
0031
1000
0000
,
0100
0000
0010
0000
0200
0000
0000
0000
0000
0000
1300
0000
0001
0000
0100
1000
,
0001
1000
0010
0100
0010
1000
0010
1000
,
0001
1000
0010
0100
0001
0100
0001
1000
,
0010
0001
0100
0000
0010
1000
0100
0000
0001
1000
0001
1000
0001
1000
0001
1000
,
0001
0101
1010
0110
,
0001
0010
0100
0010
0001
0010
0100
0000
,
0010
0100
0001
0010
0100
1000
0100
0000
,
0001
0100
0001
0010
0001
0010
0100
0000
,
0001
0100
0010
1000
0010
0100
0010
0000
,
0100
0010
0100
1000
0010
1000
0100
0000
,
0100
1000
0001
1000
0001
0100
0001
0000
,
0010
1000
0010
1000
0100
0010
0001
1000
,
0010
0000
0000
0000
1000
0000
0001
0000
0000
0000
0010
0000
0100
0000
0000
0100
0000
0000
0001
0000
0000
0000
0000
0000
,
1000
0001
0100
0000
0001
1000
0100
0000
,
0010
1000
0010
0000
0010
0001
0010
0000
,
0100
0010
0001
0000
0001
0010
0100
0000
,
1000
0010
1000
0000
0001
0010
0001
0000
,
1000
0001
1000
0000
0001
0100
0001
0000
,
0010
1000
0010
0000
0100
0010
0100
0000
,
0001
1000
0010
0000
1000
0001
0010
0000
,
0100
0000
0000
0000
0000
0000
0000
0000
0001
0000
0000
0000
1000
0000
0000
0000
0000
0000
0000
0000
0001
0000
0000
0000
1000
0000
0000
0001
0000
0000
1000
0000
0000
0001
0000
0000
1000
0000
0000
0001
0000
0000
1000
0000
0000
0001
0000
0000
,
1000
0000
0100
0010
0001
1000
0010
0100
,
0000
0101
0000
1010
0000
0100
0010
1000
,
0010
0000
1000
1001
0000
0010
1010
0001
,
0100
1000
0001
0100
0010
1000
0001
0000
,
0000
0000
1001
0000
0010
0100
0010
1000
,
0100
0010
0001
1000
0010
1000
0010
0100
,
0010
1000
0100
1000
0001
0010
0001
1000
,
0010
0000
0100
0000
0000
0000
1000
0000
0100
0000
0010
0000
0100
0001
1000
0000
,
0100
0010
0001
1000
0001
0010
0001
1000
,
0100
1000
0001
0100
0010
1000
0010
0100
,
0001
0100
0001
0010
0100
0010
0100
1000
,
0100
0010
0001
0100
0001
0100
0010
1000
,
0010
1000
0100
1000
0100
0010
0001
1000
,
0001
0010
0001
1000
0010
1000
0100
0010
,
0100
1000
0001
1000
0010
1000
0001
0100
,
0010
0000
1000
0000
0010
0000
1000
0000
0010
0001
0100
0000
0001
1000
0100
0000
,
0001
1000
0100
1000
0100
0010
0100
0010
,
0001
1000
0001
0010
0001
1000
0010
1000
,
0100
1000
0100
0010
0100
1000
0001
1000
,
0001
0100
0001
0010
0100
1000
0010
0100
,
0010
0001
1000
0100
1000
0001
0100
0010
,
0100
0001
1000
0001
0100
0001
1000
0010
,
0100
0010
1000
0001
0100
0001
1000
0010
,
1000
0000
0100
0000
1000
0000
0010
0000
0100
0000
0001
0000
0100
0010
0100
0010
,
0100
0000
0000
0000
;
