
//----- song ID: kaks -----//
#TITLE:案山子姫 -Princess Scarecrow-;
#ARTIST:NAMCO Sound Team "はるなば" feat. 石黒千尋;
#TITLETRANSLIT:Kakashi-hime -Princess Scarecrow-;
#ARTISTTRANSLIT:NAMCO Sound Team "Harunaba" feat. Chihiro Ishiguro;
#GENRE:ナムコオリジナル;
#MUSIC:Kakashi-hime -Princess Scarecrow-.ogg;
#BANNER:Kakashi-hime -Princess Scarecrow-.png;
#BACKGROUND:Kakashi-hime -Princess Scarecrow--bg.png;
#CDTITLE:./CDTitles/NSD WORLD.png;
#SAMPLESTART:55.639;
#SAMPLELENGTH:15.000;
#SELECTABLE:YES;
#OFFSET:0.000;
#BPMS:0.000=125.000
,16.000=130.000
,18.000=187.500
,52.000=149.000
,53.000=250.000
,194.000=187.500
,200.000=250.000
,312.000=187.500
,360.000=250.000
,448.000=125.000
;
#STOPS:;
#BGCHANGES:;
#FGCHANGES:;

//--------------- dance-single - ----------------
#NOTES:
     dance-single:
     :
     Beginner:
     7:
     0,0,0,0,0:
0000
0000
0000
0000
,
0000
0000
0000
0000
,
0000
0000
0000
0000
,
0000
0000
0000
0000
,
0000
0000
0110
1001
,
1000
0001
1000
0000
,
0000
0000
0000
0110
0000
0000
0001
0000
,
1000
0000
0001
1000
0000
0000
0010
0000
,
0000
0110
0101
1000
,
0001
1000
0001
1000
,
0000
0100
0000
0000
0010
0000
1000
0000
,
0001
0000
1000
0000
0001
0000
0000
1000
,
0000
0001
0000
0000
0000
0000
0000
0000
,
0000
0020
0000
0000
,
0000
0030
0110
0000
,
1000
0000
0001
0000
,
1000
0000
0100
0000
,
0010
0000
0001
0000
,
1000
0000
0001
0000
,
1000
0000
0001
0000
,
0100
0000
0010
0000
,
0100
0000
0010
0001
,
1000
0000
0001
0000
,
0100
0000
1000
0000
,
0001
0000
1000
0000
,
0001
0000
0100
0000
,
0010
0000
0001
0000
,
1000
0000
0001
0000
,
0100
0000
0010
0000
,
0001
0000
1000
0001
0000
0001
0000
0000
,
0000
0000
0000
1001
0000
0000
0000
0000
,
0010
0000
0100
0000
,
1000
0000
0100
0000
,
0010
0000
0001
0000
,
1000
0000
0002
0000
,
0000
0000
0000
0000
0000
0000
0000
1003
,
0000
1000
0000
0000
0010
0000
0000
0000
,
1000
0000
0000
0000
0001
0000
0000
1000
,
0000
0001
0000
0000
1000
0000
0000
0000
,
0100
0000
0010
0000
,
0001
0100
1000
0000
,
0001
0000
1000
0010
,
0100
0000
0001
0000
,
1000
0000
0001
0000
,
0100
0000
0010
1000
,
0100
0000
0001
1000
,
0001
0010
0100
0000
,
1000
0000
0001
0000
,
1000
0000
2002
0000
,
0000
0000
3003
0000
,
1001
0000
0100
0000
,
1000
0000
0001
0000
,
1000
0000
0001
0000
,
0100
0000
0010
0000
,
0001
0000
1000
0000
,
0001
0000
0100
0000
,
0010
0000
0001
0000
,
1000
0000
0001
0000
,
0100
0000
0010
0000
,
0001
0000
0010
0000
,
0100
0000
1000
0000
,
0001
0000
0100
0000
,
0010
0000
0001
0000
,
0010
1000
0100
0001
,
1000
0000
0000
0000
0001
1000
0000
1001
,
0000
0000
0000
0000
,
0100
0000
0010
0000
,
1000
0000
0001
0000
,
0100
0000
0010
0000
,
0001
0000
1000
0000
,
0001
0000
0100
0000
,
0010
0000
0100
0000
,
1000
0000
0001
0000
,
0100
0000
0010
0000
,
0001
0000
0010
0000
,
0100
0000
1000
0001
,
1000
0000
0100
0010
,
0100
0000
1000
0000
,
2002
0000
0000
3003
,
0000
0000
1000
0001
,
0100
0000
0010
0001
,
0010
0000
1000
0001
,
0100
0000
1000
0001
,
0100
0010
0100
1000
,
0001
0000
1000
0001
,
0100
0010
0001
1000
,
0001
0000
1000
0001
,
0100
0010
1000
0001
,
0100
0010
0001
0010
,
1000
0001
1000
0001
,
1001
0000
0100
0000
,
0010
0000
0001
0000
,
1000
0001
1000
0000
,
0100
0000
0010
0000
,
0001
0000
0000
1000
0000
0001
0000
1000
,
0000
0000
0100
0000
,
0001
1000
0001
1000
,
0001
0100
0010
0000
,
1001
0000
0010
0000
,
0001
0000
1000
0000
,
0001
0000
0100
0000
,
0010
0000
0001
0000
,
0100
0000
0000
0010
0000
0100
0000
1001
,
0000
0000
0000
0000
,
0001
0010
1000
0100
,
0001
1000
0010
0000
,
0220
0000
0000
0000
,
0330
0000
0000
0000
,
0000
0000
0001
0000
0000
1000
0000
0001
,
0000
1000
0000
0000
0010
0000
0010
0000
,
1000
0001
0000
0000
1000
0000
0000
0001
,
0000
1000
0001
1000
,
0001
0000
0000
0000
0000
2002
0000
0000
,
0000
0000
3003
0000
;

//--------------- dance-single - ----------------
#NOTES:
     dance-single:
     :
     Easy:
     9:
     0,0,0,0,0:
0000
0000
0000
0000
,
0000
0000
0000
0000
,
0000
0000
0000
0000
,
0000
0000
0000
0000
,
0000
0000
0110
1010
,
0001
0000
1000
0000
0100
1000
0010
0000
,
0001
1000
0100
0000
0001
0000
0010
0000
,
0001
0000
0000
0000
0100
0000
0000
0000
0010
0000
0000
0000
1000
0000
0000
0001
,
0000
0010
0110
0000
1001
0000
1000
0000
,
0100
0000
0010
1000
0001
0000
0100
0001
,
0010
0100
0010
0100
,
0001
0000
0010
0000
1000
0000
0000
0101
,
0000
0100
0000
1000
0100
0000
0001
1000
,
0010
0020
0000
0000
,
0000
0030
0010
1000
,
0100
0000
0001
0100
,
1000
0100
0010
0001
,
0100
0000
0001
0010
,
1000
0100
0010
0001
,
0100
0000
0010
0001
,
1000
0100
0001
1000
,
0100
1000
0001
1000
,
0100
0000
0001
0100
,
0010
1000
0100
0001
,
1000
0000
0010
0001
,
1000
0100
0001
1000
,
0010
1000
0001
0100
,
1000
0000
0100
0001
,
1000
0001
0100
1000
,
0010
0000
0100
1000
0000
0001
0000
0000
,
0100
0000
0010
0001
,
0100
1000
0001
1000
,
0010
0001
0100
0000
,
0010
0000
0001
0100
,
1000
0001
0200
0000
,
0000
0000
0000
0000
0300
0000
0000
0110
,
0000
1001
0000
0000
0100
0000
0010
0000
,
0001
0000
0010
0000
0100
1000
0000
0001
,
0000
1001
0000
0000
0110
0000
0000
1000
,
0000
0000
0001
0000
0000
0100
0000
0000
,
0010
0100
1000
0001
,
0100
1000
0000
0000
0100
0001
0000
1000
,
0001
0000
0000
0000
0100
0000
1000
0001
,
0000
0100
0000
0001
1000
0000
0010
1000
,
0000
0100
0010
0001
,
1000
0100
0010
1000
,
0001
0100
0010
1000
,
0001
0000
0000
1000
0000
0000
0001
0000
0001
0000
0001
0000
,
1000
0000
1000
0000
1000
0000
0001
0000
0000
0010
0000
0000
,
0000
0100
0000
0000
0000
0010
0000
0000
0000
0000
0001
0000
0000
0000
0000
0000
,
1001
0000
0001
0010
0100
0000
0010
0100
,
1000
0100
0000
0001
1000
0000
0001
0000
,
0010
0000
0001
0010
0100
0000
0010
0000
,
1000
0100
0010
0001
,
0010
1000
0100
0001
0000
0010
0001
0010
,
0100
0010
0100
0010
,
1000
0001
0000
0100
0000
0010
0100
0000
,
1000
0000
0010
0000
1000
0001
0100
0000
,
0010
0000
0100
0000
0010
0100
0001
0000
,
1000
0000
0010
0000
1000
0100
0001
0000
,
0010
0100
1000
0010
,
0100
0001
0010
0100
,
0010
0000
0001
0000
0100
0001
0010
0000
,
1000
0001
0100
0000
0010
0000
0001
0100
,
1000
0001
0100
0010
,
1000
0100
0010
0001
,
0110
0000
1000
0001
0100
0000
0001
0010
,
0100
1000
0000
0000
0010
0000
0100
0000
,
0001
0000
0100
0001
0010
0000
1000
0000
,
0100
1000
0010
0100
,
0010
0001
0100
1000
0000
0010
1000
0100
,
0001
0010
0000
0000
0100
0000
0010
0000
,
0001
0000
0100
1000
0010
0000
1000
0000
,
0001
0000
0100
0000
0001
1000
0010
0000
,
0100
0000
1000
0000
0001
0010
0100
0000
,
0010
0000
1000
0001
0100
0000
0010
0000
,
0100
1000
0001
1000
,
0100
0010
0001
0100
,
2002
0000
3003
0000
,
0000
0000
0000
0000
0100
0000
0010
1000
,
0001
0000
0010
0001
0100
0000
1000
0000
,
0010
0000
1000
0000
0010
0100
1000
0000
,
0001
0000
0010
1000
0001
0000
0010
0100
,
0001
0000
1000
0001
0100
0000
1000
0010
,
0001
0010
0100
0010
,
0001
0000
0100
0000
0001
0000
0010
1000
,
0100
0000
0010
0001
0100
0000
1000
0001
,
0100
0000
0010
1000
0001
0000
0010
0001
,
0100
0010
0001
0100
,
0001
0000
0100
1000
0010
0000
1000
0000
,
0110
0000
0100
1000
0000
0100
0010
0000
,
1000
0000
0001
0000
1000
0001
0010
0000
,
1000
0000
0100
0000
0010
0100
1000
0000
,
0100
0000
0001
0000
0010
1000
0100
0000
,
0001
0000
0010
1000
0000
0010
0000
0100
,
0000
0010
0001
0000
1000
0000
0010
0000
,
1000
0100
0001
0010
,
1000
0000
0001
1000
0000
0110
0000
0000
,
1001
0000
0001
0010
0100
0000
0100
1000
,
0000
0001
0010
0000
0100
0000
1000
0000
,
0100
0000
0001
1000
0000
0001
0010
1000
,
0000
0000
0001
0000
0100
0001
1000
0000
,
0100
0000
0010
1000
0000
0001
0000
0110
,
0000
0000
0010
0000
0100
1000
0010
0000
,
1000
0001
0010
0100
,
1000
0000
0010
0000
0000
0110
0000
0000
,
1001
0001
1000
0010
,
0001
0100
1000
0010
,
0000
0000
0001
0000
0010
1000
0000
0010
,
0000
0110
0000
1000
0001
0000
1000
0000
,
0001
0010
0000
1000
0001
0000
1000
0001
,
0000
1000
0001
1000
0001
1000
0001
1000
,
0000
0000
0000
0000
0000
2002
0000
0000
,
0000
0000
3003
0000
;

//--------------- dance-single - ----------------
#NOTES:
     dance-single:
     :
     Medium:
     13:
     0,0,0,0,0:
0000
0000
0000
0000
,
0000
0000
0000
0000
,
0000
0000
0000
0000
,
0000
0000
0000
0000
,
0000
0000
1001
0101
,
1000
0001
0000
1000
0000
0001
1000
0100
,
0001
1000
0001
0100
0000
0000
0100
0010
,
1000
0000
0100
0000
0010
0000
1000
0000
0000
0000
0000
0000
0001
0000
0000
1000
,
0000
0001
0010
0000
1001
0000
0001
1000
,
0000
1001
0000
0100
0001
0100
0010
0100
,
0000
0101
0000
1000
0001
0000
0100
0000
,
0010
0100
0000
1000
0001
0000
0000
0101
,
0000
1001
0000
0001
1000
0001
0000
1000
,
0001
0000
0100
0100
,
0001
0000
1001
0100
,
0010
0100
1000
0000
0001
0000
0100
0000
,
0010
0001
0100
0000
1000
0000
0001
0000
,
0100
0001
0010
0000
1000
0000
0001
0000
,
0100
1000
0000
0100
0010
0000
0001
0000
,
1000
0000
0001
0000
0100
0001
0010
0000
,
1000
0001
0100
0010
,
0100
0001
0010
0000
0100
1000
0001
1000
,
0100
0010
1000
0001
,
1000
0000
0001
0010
0001
0000
1000
0001
,
1000
0000
0010
0000
0100
0010
0001
0000
,
1000
0000
0110
0000
0001
0000
0010
1000
,
0000
0100
0000
0001
0010
0000
1000
0000
,
0100
0010
1000
0000
0001
1000
0001
0010
,
0000
1000
0000
0000
0001
0000
1000
0000
,
0001
0010
0100
1000
0000
0001
0000
0100
,
1000
0000
0001
0100
0000
0000
1001
0000
,
0100
0010
0001
0000
1000
0001
0100
0000
,
0001
1000
0001
0000
0100
0000
0010
0000
,
0100
0000
1000
0000
0001
0100
0001
0000
,
0010
0100
0001
0000
0020
0000
0000
0000
,
0000
0000
0000
0000
0000
0000
0000
0100
,
0000
0130
0000
0000
1001
0000
0000
0100
,
0010
0001
1000
0000
0001
1000
0100
0010
,
0000
1000
0000
0000
0010
0100
0000
0001
,
0010
0100
1000
0100
0010
0001
0000
1000
,
0000
0000
0110
0000
0101
0000
0100
0010
,
1000
0001
0100
0000
0010
0100
1000
0000
,
0001
1000
0001
0000
0100
0000
0010
1000
,
0000
0001
0000
0100
0001
0000
0010
0000
,
1000
0000
0001
0000
0100
1000
0010
0000
,
0001
0010
0100
0000
1000
0001
1000
0000
,
0010
0000
0100
0000
1000
0010
0001
0010
,
0100
0000
0000
0000
0000
0000
0010
0000
0000
1000
0000
0000
0001
0000
0000
0000
0001
0000
0000
0000
0001
0000
0000
0000
,
1000
0000
1000
0000
1000
0000
0001
0000
0000
0010
0000
0000
,
0000
0100
0000
0000
0000
0010
0000
0000
0000
0000
0001
0000
0000
0000
0000
0000
,
1001
0000
0110
0000
1000
0000
0001
0010
,
0100
0001
0000
1000
0100
0010
0001
0000
,
1000
0000
0010
0001
0000
1010
0000
0001
,
0100
1000
0001
0100
,
0001
0100
1000
0100
0000
0010
0100
1000
,
0100
0001
0000
1000
0001
0100
0010
0000
,
0100
0001
0000
1000
0001
1000
0000
0001
,
0000
0100
1000
0000
0001
0010
0100
0000
,
0101
0000
1000
0100
0000
0010
0100
0000
,
1000
0100
0001
0000
0001
0010
0100
1000
,
0100
0000
0001
0100
1000
0000
0001
0010
,
0100
0000
1000
0000
0001
0010
0100
0000
,
1000
0000
0100
1000
0010
0000
0100
0000
,
0001
0010
0100
1000
0000
0001
0100
0010
,
0100
0000
0010
0000
1000
0001
0000
0001
,
0000
0000
0001
0010
0100
0000
1000
0000
,
1000
0010
0001
0010
0000
0100
0001
1000
,
0100
0010
0000
0001
1000
0001
0100
0000
,
0010
1000
0100
0001
0000
0001
0000
0110
,
0000
0001
1000
0100
,
0001
0010
0100
1000
0000
0001
0010
0100
,
1000
0010
0000
0000
0010
0000
0010
0000
,
0100
0000
0100
1000
0000
0001
0000
0010
,
0000
1000
0001
0000
0010
1000
0001
0100
,
0000
0010
1000
0001
0100
0000
0010
1000
,
0000
0001
0000
0100
0000
0010
0100
0001
,
1000
0000
0010
0100
1000
0000
0001
0000
,
0100
0001
1000
0001
,
1000
0001
0100
0010
,
0100
0000
1000
0000
0001
0010
0100
1000
,
0002
0000
0000
0013
1000
0100
0001
0000
,
1000
0000
0001
0000
0100
0000
0010
0100
,
1000
0000
0100
0001
1000
0000
0001
0010
,
0100
0000
0100
1000
0001
0000
0100
0001
,
1000
0000
0001
1000
0001
0000
0100
0010
,
0100
0001
1000
0001
0100
1000
0010
0000
,
0110
0000
0001
0010
0100
0000
0010
0100
,
1000
0000
0001
1000
0001
0000
0100
0010
,
0100
0000
1000
0001
0100
0000
0010
0100
,
1000
0000
0001
0010
0100
0000
1000
0001
,
1000
0000
0010
0000
0100
1000
0001
0000
,
0010
0000
0100
0000
1000
0001
0000
0010
,
0000
0100
0001
0010
0000
1000
0010
0001
,
0000
1000
0000
0001
0100
0010
1000
0100
,
0001
0000
0010
0100
0000
0100
0000
0110
,
0000
0100
0001
0100
1000
0000
0010
0000
,
0100
1000
0001
0010
,
1000
0100
0001
0010
0000
0010
0000
0000
,
1001
0000
0100
0001
0000
1000
0001
1000
,
0000
0100
0010
0001
0100
0000
1000
0000
,
0010
0100
1000
0000
0001
1000
0010
0100
,
0000
0001
1000
0000
0010
0100
1000
0001
,
0100
0000
1000
0001
0000
0010
0000
0101
,
0000
1000
0010
1000
0000
0001
0010
0000
,
0100
1000
0001
0100
,
0010
0000
0100
0000
0000
0001
0000
0000
,
1001
0010
0100
0001
,
1000
0010
1000
0001
,
0010
0000
0001
0000
0010
1000
0000
0100
,
0000
0001
0000
0010
0100
0000
0010
0000
,
0100
1000
0000
1000
0001
0000
1000
0001
,
0000
1000
0001
1000
0001
1000
0001
1000
,
0000
0000
0000
0000
0000
2002
0000
0000
,
0000
0000
3003
0000
;

//--------------- dance-single - ----------------
#NOTES:
     dance-single:
     :
     Hard:
     16:
     0,0,0,0,0:
0000
0000
0000
0000
,
0000
0000
0000
0000
,
0000
0000
0000
0000
,
0000
0000
0000
0000
,
0000
0000
1001
0100
,
0001
0000
0100
0000
0001
0000
0010
0000
0001
0000
0010
0001
0100
0000
1000
0000
,
0100
0000
0010
1000
0100
0000
0010
0000
0001
0000
0100
0000
0001
0000
0010
0000
,
0100
0000
0010
0000
0100
0000
1000
0000
0010
0000
0100
0000
0010
0001
1000
0000
,
0100
0001
0010
0000
0100
0000
1000
0000
0001
0000
0010
0000
0001
0000
1000
0000
,
0001
0000
1000
0000
0100
0000
1000
0010
0001
0000
0100
0010
0001
0000
1000
0000
,
0001
0000
1000
0000
0010
0000
1000
0000
0010
0000
0100
0000
0010
0001
0100
0000
,
0001
1000
0010
0000
0100
0000
1000
0000
0011
0000
0000
0110
0000
0000
1001
0000
,
0000
0101
0000
1000
0001
1000
0001
1000
,
0001
0000
0001
0010
0100
1000
0100
0010
,
0001
1000
0100
0000
1001
0000
0110
0000
,
0100
0010
0001
0010
0100
1000
0001
0010
,
0100
0010
0100
0000
0010
1000
0001
0010
,
0100
1000
0001
0010
0000
0010
0001
1000
,
0001
0010
0001
0100
0010
0000
0010
1000
,
0010
0100
0001
1000
0010
0100
0010
0100
,
0001
0010
0100
0000
0001
0100
0010
1000
,
0001
0010
0100
1000
0001
0010
0100
1000
,
0001
0010
0100
1000
0100
0000
0010
0100
,
0010
0100
0000
0010
0100
0010
0100
0000
,
0010
0100
0001
0100
0010
1000
0001
0010
,
0001
1000
0010
0100
0001
0100
0001
1000
,
0100
0010
0100
1000
0000
0010
0001
0100
,
0010
1000
0100
1000
0010
0100
0001
0000
,
0100
0010
0001
0010
0100
1000
0010
0000
,
0000
1000
0001
0100
0000
1000
0100
0001
,
0100
0010
0001
1000
0100
1000
0010
0100
,
0010
0000
0001
0100
0001
0100
0010
0000
,
0100
1000
0100
1000
0010
0100
0001
0010
,
0001
1000
0100
0010
0100
0010
0001
0100
,
0010
1000
0010
0100
0010
0000
0020
0000
,
0000
0000
0000
0000
0000
0000
0000
1030
,
0000
1010
0000
0000
0100
0000
0010
0001
,
0010
1000
0001
0010
0001
0100
0000
0101
,
0000
1001
0000
0000
0001
0100
0010
1000
,
0100
0001
1000
0100
0010
0001
0100
0010
,
1000
0001
1010
0001
,
0100
0010
0100
0000
0001
0010
0001
0000
,
0010
1000
0100
0000
0100
0010
0001
1000
,
0100
1000
0010
0100
0001
0000
0001
0100
,
0010
1000
0001
0100
0010
0100
0001
0010
,
0100
0000
0100
1000
0010
1000
0100
0000
,
0100
0010
0100
1000
0010
0100
0001
0010
,
0100
0000
0000
1000
0000
0000
0010
0000
0000
1000
0000
0000
0010
0000
0000
0000
0010
0000
0000
0000
0100
0000
0000
0000
,
0100
0000
0000
0000
0010
0000
0000
0000
0001
0000
0000
0000
0010
0000
0000
0001
0000
0000
0010
0000
0000
0100
0000
0000
,
0000
1001
0000
0000
0000
0101
0000
0000
0000
0000
1001
0000
0000
0000
0000
0000
,
0110
0000
0100
0000
0001
1000
0001
0100
,
0010
1000
0000
0010
0001
0100
0001
1000
,
0100
0010
0001
1000
0010
1000
0010
1000
,
0001
0010
0001
1000
0010
1000
0001
0000
,
0010
0100
0010
0100
0001
0000
0100
0010
,
0001
0100
0000
0100
0010
1000
0100
0010
,
0100
1000
0010
0100
0001
0010
0100
1000
,
0001
1000
0100
0000
0010
0100
0010
1000
,
0100
1000
0001
0100
0010
1000
0100
1000
,
0001
0000
0001
1000
0010
0100
0010
0100
,
0010
1000
0100
1000
0100
1000
0010
0100
,
0001
0100
0001
0010
0100
1000
0010
1000
,
0100
1000
0100
0000
0001
0010
0100
0000
,
0001
0010
0100
1000
0001
0000
0010
1000
,
0001
0100
0010
0100
0001
0000
0001
1000
,
0100
1000
0001
0010
0100
0010
0100
0000
,
0110
0000
1000
0000
0100
0000
0010
1000
,
0001
1000
0010
0000
0001
0010
0100
1000
,
0010
0000
0001
1000
0001
0010
0001
1000
,
0010
0100
0010
0000
0001
0100
0001
0010
,
0001
0000
0010
0100
0001
0000
0100
0010
,
0001
0100
0001
0000
0010
1000
0100
0010
,
0001
0100
0010
1000
0001
0100
0001
0100
,
0001
1000
0100
0000
0100
1000
0010
0100
,
0001
0010
0100
1000
0010
0100
0001
1000
,
0010
0100
0010
0100
0010
0000
0001
0000
,
1001
0101
1010
0110
,
0010
0010
0010
0100
0100
0100
0010
1000
,
0100
1000
0001
0100
0001
0010
0100
0010
,
0001
0000
0100
0000
0010
0000
0100
0000
0010
0000
1000
0001
0100
0000
1000
0000
,
0100
0000
1000
0000
0010
0000
0100
1000
0001
0000
0010
0000
0100
0000
0010
0000
,
0100
0000
1000
0000
0001
0000
0100
0000
0010
0001
1000
0010
0100
0000
0010
0000
,
0100
0000
1000
0000
0010
0000
0100
0010
0001
0000
1000
0000
0100
0000
1000
0001
,
0010
0000
0100
0000
0010
0000
1000
0010
0001
0000
0100
0000
0001
0000
1000
0010
,
0100
0000
0010
0000
0100
0000
0010
0000
0001
0000
0100
0000
0010
0000
1000
0100
,
0010
0000
1000
0000
0100
0000
0010
0001
0100
0000
0010
0000
0100
0000
1000
0100
,
0010
0000
1000
0000
0001
0000
1000
0100
0001
0000
0010
0000
0001
0000
1000
0010
,
0100
0000
1000
0000
0010
0000
1000
0100
0001
0000
0010
0000
0001
0000
0100
0001
,
0010
0000
1000
0000
0001
0000
0010
0000
0100
0001
1000
0000
0010
0001
0100
0000
,
0001
0010
1000
0000
0010
0001
0100
0000
0001
0010
0100
0000
0001
1000
0010
0000
,
0001
0000
0010
0100
0001
1000
0010
0000
,
0001
0100
0010
1000
0010
0000
0001
0010
,
0001
0000
0010
1000
0100
0000
0100
1000
,
0010
0100
0001
1000
0001
0100
0001
0000
,
0010
1000
0001
0100
0010
0100
0000
1010
,
0000
1000
0100
0010
0100
0000
0010
0100
,
0001
0010
0100
0000
0010
1000
0100
1000
,
0100
0010
0001
0100
0010
1000
0100
0010
,
0001
0000
0010
0100
0001
0000
0010
1000
,
0010
1000
0010
0000
0001
0010
0100
1000
,
0010
0000
0001
0100
0010
0100
0001
0010
,
0001
1000
0001
0000
0100
1000
0010
0100
,
0001
0000
0001
1000
0010
0100
0001
0010
,
0000
0010
0001
0100
0001
0100
0010
0000
,
0010
1000
0100
0010
0100
0000
0001
1000
,
0010
0100
0001
0010
0100
0010
0001
0010
,
0001
0000
0010
0100
0010
0100
0001
0010
,
0100
1000
0001
0010
0100
1000
0001
0010
,
0100
1000
0001
0000
1000
0001
0000
0110
,
0000
0010
0000
0010
0100
0000
1001
0000
,
0010
0100
0000
1000
0001
0000
1000
0001
,
0000
0001
0010
1000
0001
1000
0001
1000
,
0000
0000
0000
0000
0000
2002
0000
0000
,
0000
0000
3003
0000
;
