
//----- song ID: irrc -----//
#TITLE:Irregular Clock;
#ARTIST:siromaru as INNOCENT NOIZE;
#GENRE:ナムコオリジナル;
#MUSIC:Irregular Clock.ogg;
#BANNER:Irregular Clock.png;
#BACKGROUND:Irregular Clock-bg.png;
#CDTITLE:./CDTitles/NSD WORLD.png;
#SAMPLESTART:81.773;
#SAMPLELENGTH:15.000;
#SELECTABLE:YES;
#OFFSET:0.000;
#BPMS:0.000=135.000
,68.000=270.000
,132.000=135.000
,164.000=67.500
,180.000=33.750
,181.000=270.000
,341.000=67.500
,348.000=135.000
,350.000=270.000
,446.000=135.000
,447.000=67.500
;
#STOPS:;
#BGCHANGES:;
#FGCHANGES:;

//--------------- dance-single - ----------------
#NOTES:
     dance-single:
     :
     Beginner:
     7:
     0,0,0,0,0:
0000
0000
0000
0000
,
0000
0000
0000
0000
,
0000
0000
0000
0000
,
0000
0000
0000
0000
,
0000
0000
0000
0000
,
0100
1000
0001
0000
,
0100
0010
1000
0000
,
0001
1000
0001
0100
,
0010
1000
0001
0000
,
1001
0000
0100
0000
,
0010
0100
1000
0000
,
0001
0000
0100
0000
,
0010
0001
0010
0000
,
1000
0000
0001
0000
,
0100
0000
0010
0000
,
1000
0001
0100
0010
,
1000
0001
1001
0000
,
0110
0000
0000
1000
,
0001
0000
0000
0100
,
0010
0000
0100
0000
,
1000
0000
0000
0000
,
0001
0000
0000
1000
,
0001
0000
0000
0000
,
0100
0000
0010
0000
,
1001
0000
0000
0000
,
0101
0000
0000
1000
,
0001
0000
0000
0100
,
0010
0000
0100
0000
,
1000
0000
0000
0000
,
0100
0000
0010
0000
,
0001
0000
0000
0000
,
1000
0000
0001
0000
,
1000
0000
0000
0000
,
1001
0000
0000
0000
0100
0000
0000
0010
,
0000
0000
0010
0000
,
1000
0000
0000
0000
0100
0000
0000
0010
,
0000
0000
0000
0000
,
0001
0000
0000
0000
1000
0000
0000
0010
,
0000
0000
0100
1000
,
0001
0000
0100
0000
,
1000
0001
1000
0000
,
0210
0000
0302
0000
0203
2300
3002
2003
,
3020
2030
3002
0000
,
1003
0100
0010
0001
1000
0001
0100
0010
,
1000
0001
0100
0010
1000
0001
0100
1000
,
2002
3003
0100
0000
0000
0000
1000
0000
,
0000
0001
0100
0010
,
0000
0100
0000
1000
,
0000
0001
0000
0100
,
0000
0010
0000
0001
,
0000
0010
0000
0100
,
0000
1000
0001
1000
,
0000
0001
1000
0001
,
0000
1001
0000
0100
,
0000
0010
0000
0000
,
0100
1000
0000
0001
,
0000
0100
0000
0000
,
0000
1000
0000
0000
,
0000
1001
0000
0000
,
0000
0001
0000
0010
,
0000
0100
0000
1000
,
0000
0001
0000
1000
,
0000
0010
0000
0000
,
0000
0100
0000
1000
,
0000
0001
0000
0000
,
0000
0100
0000
0000
,
0000
0110
0000
0000
,
0000
0001
0000
0010
,
0000
0100
0000
1000
,
0000
0002
0000
0000
,
0000
2003
0000
0000
,
0000
3100
0000
0010
,
0000
0001
0000
0000
,
0000
1000
0000
0001
,
0000
0100
0000
0000
,
0000
0010
0000
0100
,
0000
1000
0000
0000
,
0000
0010
0000
0010
,
0000
0100
0000
0100
,
0000
1000
0000
1000
,
0000
0001
0000
0001
,
0000
1000
0000
0000
,
0000
0001
0000
0000
,
0000
0100
0000
1000
,
0000
0001
0000
0100
,
0000
0220
0000
0330
,
0000
0000
0000
0000
,
0000
0000
0001
0000
,
1000
0000
0001
0000
,
0100
0000
0010
0000
,
1000
0000
0001
0000
,
0100
0000
0010
0000
,
1000
0000
0001
0000
,
1000
0000
0001
0010
,
0100
0000
1000
0010
,
0100
1000
1001
0000
,
0000
0000
0100
0000
,
0000
0000
0001
0000
,
0010
0000
0100
0000
,
0000
0000
1001
0000
,
0000
0000
1000
0000
,
0000
0000
0100
0000
,
0010
0000
0001
0000
,
0000
0000
1001
0000
,
0000
0000
0100
0000
,
0000
0000
0010
0000
,
0001
0000
0010
0000
,
0000
0000
1000
0000
,
0001
0000
0100
0000
,
0000
0000
1000
0000
,
0001
0000
1000
0000
,
0000
0000
1001
0000
;

//--------------- dance-single - ----------------
#NOTES:
     dance-single:
     :
     Easy:
     9:
     0,0,0,0,0:
0000
0000
0000
0000
,
0000
0000
0000
0000
,
0000
0000
0000
0000
,
0000
0000
0000
0000
,
0000
0000
0000
0000
,
0100
0000
1000
0001
0100
0000
0010
0100
,
1000
0000
0001
1000
0001
0000
0100
0000
,
0010
0000
0100
1000
0001
0000
0100
0000
,
0010
1000
0001
0100
0010
0000
0100
0000
,
1001
0100
0110
0001
,
0010
0100
0000
1000
1001
0000
0000
0000
,
0100
0000
0010
0001
0010
0000
0010
0000
,
0100
1000
0001
0100
0110
0000
0000
0000
,
1001
0100
1000
0001
,
0100
0010
0001
0010
,
0010
1000
0010
0001
0010
1000
0010
0001
,
0100
1000
0100
0001
0100
1000
0100
0001
,
1001
0000
0001
0010
,
0100
0000
1000
0001
,
0100
0010
0100
1000
,
0001
0000
0100
0000
,
0110
0000
1000
0001
,
0100
0000
0010
0100
,
1000
0000
0101
0000
,
1002
0000
0000
0003
,
1001
0000
0100
1000
,
0001
0000
0100
0010
,
0100
0000
1000
0000
,
0001
0000
1001
0000
,
0100
0010
0100
0000
,
1000
0001
0100
0000
,
1000
0000
0001
0000
,
1000
0000
0000
0000
,
1001
0000
0001
0000
0100
1000
0010
0000
,
0001
0000
0100
0000
1000
0001
0100
0000
,
0010
0000
0100
0000
1000
0001
0100
0010
,
0000
0100
0010
0001
,
0010
0000
0100
0000
1000
0001
0100
0010
,
0000
0100
1000
0001
,
0100
0010
1000
0001
,
0100
0000
1000
0000
0001
1000
0001
0000
,
0200
0000
0320
0000
0032
0000
1003
0100
,
0020
0032
2003
0010
,
3001
0010
0100
1000
0001
0100
1000
0001
,
0100
1000
0010
1000
0010
0100
1000
0001
0100
1000
0010
0001
,
2002
3003
1000
0000
0100
0000
0010
0000
,
1000
0001
0100
0010
,
0100
1000
0001
0010
,
0100
1000
0001
0010
,
0100
0001
0010
0100
,
0100
1000
0001
0010
,
0100
0001
1000
0000
0001
0010
0100
0000
,
1000
0010
0001
0000
0100
0000
0010
0000
,
0100
1001
0100
0010
,
1000
0010
0001
0100
,
0001
1000
0010
0000
0001
0000
0100
0000
,
0001
0100
0010
0100
,
0010
0000
1000
0000
0000
0110
0000
0000
,
0001
0000
0100
0000
0000
0110
0000
0000
,
0010
1000
0100
0010
,
0100
0010
0100
1000
,
0001
1001
0100
0010
,
0001
0010
0001
0010
,
0100
1000
0001
1000
,
0010
0100
0001
0010
,
0001
0000
0010
0000
0000
0110
0000
0000
,
0010
0000
0100
0000
0000
0110
0000
0000
,
0010
1000
0100
1000
,
0100
0010
0100
1000
,
0010
0100
0010
0100
,
0001
1000
0100
0010
,
0001
0010
0100
0010
,
0100
1000
0100
0010
,
0001
0010
0001
0010
,
0100
1000
0001
1000
,
0001
0100
0010
0100
,
0001
0100
0010
1000
,
0001
0010
0001
0100
,
0010
0100
0010
1000
,
0001
0100
0001
0010
,
0100
0010
0100
0010
,
0001
0000
1000
0000
0010
0100
0000
0000
,
0100
0000
0010
0000
0100
1000
0000
0000
,
0001
0100
0010
0100
,
0001
0000
1000
0100
0010
0000
1000
0001
,
0010
2002
0000
3003
,
0000
0000
0000
0000
,
0000
0000
0000
0000
0001
0000
1000
0001
,
0100
0000
1000
0100
0010
0000
1000
0000
,
0010
0000
0100
0000
0001
0000
0100
1000
,
0010
0000
0100
0010
0001
0100
1000
0000
,
0001
0000
1000
0000
0100
0000
0010
0100
,
0000
0000
0010
0000
0001
0000
1000
0100
,
0000
0000
0010
0000
0001
1000
0010
0000
,
0001
0010
1000
0000
0010
0000
1000
0000
,
0001
1000
1001
0000
,
0001
0010
0100
0000
,
1000
0001
0100
0010
,
0100
1000
0001
0000
,
0100
0000
0110
0000
,
1000
0001
0100
0000
,
0010
0100
1000
0000
,
0101
0000
1002
0000
,
0000
0003
1001
0000
,
0100
1000
0001
0000
,
0100
0010
0100
0000
,
1000
0000
0001
0000
,
1001
0000
0100
0010
,
0100
0000
1000
0001
,
0100
0000
1000
0000
,
0001
0000
1000
0000
,
0000
0000
1001
0000
;

//--------------- dance-single - ----------------
#NOTES:
     dance-single:
     :
     Medium:
     13:
     0,0,0,0,0:
0000
0000
0000
0000
,
0000
0000
0000
0000
,
0000
0000
0000
0000
,
0000
0000
0000
0000
,
0000
0000
0000
0000
,
1000
0000
0000
0001
0000
1000
0100
0010
0001
0000
0000
1000
0000
0000
0001
0010
,
0100
0000
1000
0001
0000
0000
1000
0000
0010
0000
0000
0100
0000
1000
0100
0010
,
0001
0000
0000
1000
0000
0000
0001
0010
0100
0000
0000
0100
0000
0000
0010
0001
,
1000
0100
0001
1000
0010
0000
1000
0000
,
1002
0000
0103
1000
0010
0100
1000
0001
,
0200
0000
0310
1000
0001
0100
0010
0000
,
0020
0000
0031
1000
0001
0100
0010
0000
,
2000
0000
3001
0010
0100
0001
0010
0000
,
0001
1000
0001
0010
0001
0010
0100
1000
,
0100
1000
0001
0100
0001
0010
0100
0010
,
0001
0010
0100
1000
0100
1000
0100
0010
,
0001
0010
0100
0000
1000
0001
0010
0000
1000
0001
0100
0000
0010
1000
0001
0100
,
0010
0000
1000
0000
0001
0000
0010
0100
,
1000
0000
0010
0000
0100
0000
0001
0010
,
1000
0000
0010
0000
0100
0000
1000
0001
,
0010
0000
1000
0000
0100
0000
0010
0100
,
1000
0000
0010
0000
0100
0000
0001
1000
,
0010
0000
0001
0000
0100
0000
0010
0001
,
1000
0001
0010
0001
,
0200
0000
0000
0010
0000
0000
0010
0000
,
0301
0000
1000
0000
0010
0000
0100
0001
,
0010
0000
1000
0000
0010
0000
1000
0100
,
0001
0000
0100
0000
0001
0000
0100
1000
,
0001
0010
0100
1000
,
0001
1000
0010
0000
0100
0001
0010
0000
,
0100
1000
0010
0000
0001
0000
1000
0000
,
0001
0000
0010
1000
0000
0000
0010
0000
,
0120
0000
0230
0000
,
1300
0000
0010
1000
0100
1000
0001
0100
,
0000
0001
1000
0001
0010
0100
0010
0100
,
1000
0001
0010
0000
0100
1000
0001
0000
,
0100
0010
0100
0001
1010
0000
0110
0000
,
1010
0000
0010
0100
0001
1000
0010
0100
,
0000
1000
0001
0100
0010
0100
1000
0000
,
0001
0010
0100
1000
0001
0100
0010
0100
,
1000
0000
0000
0100
0000
0000
0010
0010
0010
0100
0100
0100
,
2000
0000
0000
0000
0000
0000
3002
0000
0000
0000
0023
0000
0230
0000
0000
2300
0000
0000
3200
0000
0000
0302
0000
0000
,
0023
0000
0000
2030
0000
3200
0320
0000
0000
0000
0000
0000
,
1030
0000
0001
0010
0000
0100
1000
0000
0001
0010
0000
0100
1000
0000
0001
0010
0000
0100
1000
0000
0001
0010
0000
0100
,
1000
0000
0100
0001
0010
0100
1000
0000
0010
0100
1000
0001
0010
1000
0001
0100
1000
0010
0001
0010
1000
0010
0001
0100
,
2000
3000
0001
0000
0010
0100
0001
0000
,
1000
0100
0001
0000
1000
0000
0010
0000
,
1000
0000
0010
0000
0100
1000
0001
0000
,
0010
1000
0100
0000
0010
0000
0100
0000
,
0010
0000
0001
1000
0100
0000
0010
1000
,
0100
0000
0001
0100
1000
0000
0010
0001
,
0100
0000
1001
0000
1000
0100
0010
0000
,
0100
0010
0001
1000
0100
0010
0001
1000
,
0100
0010
1001
0000
0100
1000
0010
0000
,
1000
0100
0002
0000
0100
0000
1003
0000
,
0100
1000
0100
0000
0010
0000
1000
0000
,
0100
0010
0200
0000
0010
0000
0301
0000
,
0010
0100
1000
0000
0100
0101
0000
0000
,
0110
0000
0100
0000
1000
1100
0000
0000
,
0110
0000
1000
0100
0010
0001
0100
1000
,
0001
0100
0010
1000
0001
0100
0010
1000
,
0100
0000
1001
0000
0100
0000
1000
0100
,
1000
0001
0020
0000
1000
0000
0130
0001
,
1000
0100
0010
0000
1000
0001
0100
1000
,
0001
0100
2000
0000
0001
0000
3010
0100
,
1000
0001
1000
0000
0100
0110
0000
0000
,
0101
0000
1001
0000
0100
0110
0000
0000
,
1001
0000
1000
0100
0010
0001
1000
0010
,
0100
0000
1000
0001
0100
0010
1000
0001
,
0100
0010
0001
0000
1000
0000
0100
0010
,
1000
0001
0100
0000
1000
0000
0001
0000
,
0100
0000
0010
1000
0100
0000
0010
1000
,
0100
0010
0001
0000
1000
0000
0001
0000
,
0010
0000
0001
0000
0100
1000
0010
0000
,
1000
0000
0001
0000
0010
1000
0001
0000
,
0100
0000
0010
0001
1000
0000
0100
0001
,
0010
0100
1000
0100
,
1000
0000
0001
0100
1000
0000
0100
0001
,
0010
0000
0100
0001
1000
0000
0100
0001
,
1000
0000
0010
0100
1000
0000
0001
0100
,
0010
0000
0001
1000
0100
0000
0001
1000
,
0010
0000
1000
0000
0100
0110
0000
0000
,
0101
0000
1001
0000
0100
0110
0000
0000
,
1001
0000
1000
0100
0010
0001
1000
0010
,
0100
0010
1000
0001
0100
0010
1000
0001
,
0100
0010
2000
0000
3002
0000
0203
0000
,
0320
0000
2030
0000
3002
0000
0203
1000
,
0320
0000
0100
0000
1030
0010
1000
0010
,
1000
0001
0010
0100
1000
0010
0100
0010
,
0100
0001
1000
0010
1000
0010
0100
0001
,
0010
0001
1000
0100
1000
0010
1000
0010
,
0100
0010
1000
0001
1000
0000
0100
0110
,
0000
0000
0101
0000
1001
0000
0100
0110
,
0000
0000
1001
0000
1000
0100
0010
0001
,
1000
0010
0100
0000
1000
0001
0100
0010
,
1000
0001
0100
0010
0001
0000
1000
0010
,
0001
0000
0010
0100
1000
0000
0010
0000
,
0100
0000
0001
0010
1000
0000
0010
0000
,
0100
0000
1000
0001
0010
0000
1000
0000
,
0100
0000
0010
0100
1000
0000
0010
0000
,
0100
0000
0001
1000
0010
0000
0001
0000
,
0100
0000
0010
0001
1000
0000
0001
0000
,
0010
0000
0001
0000
0200
0000
0000
0010
,
0000
0010
0301
1000
,
0010
0000
0100
0001
0010
0000
1000
0000
,
0010
0000
1000
0100
0001
0000
0100
0000
,
0001
0000
0100
1000
0001
0000
0010
0000
,
0100
0000
1000
0000
0001
1000
0010
0000
,
0100
0001
0010
0000
0100
1000
0010
0000
,
0001
0000
1000
0000
0001
0000
0010
1000
,
0000
0010
0120
0000
,
0030
0000
1001
0000
;

//--------------- dance-single - ----------------
#NOTES:
     dance-single:
     :
     Hard:
     17:
     0,0,0,0,0:
0000
0000
0000
0000
,
0000
0000
0000
0000
,
0000
0000
0000
0000
,
0000
0000
0000
0000
,
0000
0000
0000
0000
,
0100
0000
0000
0010
1000
0010
0100
0010
0100
0000
0000
0010
0001
0010
0100
0010
,
0100
0000
0010
0100
1000
0000
0100
0000
0010
0000
0000
0100
0000
0010
0100
1000
,
0001
0000
0000
0001
1000
0000
0000
0010
0100
0000
0000
0001
0100
0000
1000
0001
,
0100
0000
0010
0100
1000
0010
0001
0100
1000
0000
0010
0000
0001
0010
0100
0000
,
0101
0000
0000
0010
0100
1000
0010
0000
1001
0000
0000
0000
0010
1000
0100
0000
,
0100
0000
0000
0010
0000
0100
0000
0000
0101
0000
0000
0100
0000
0010
0100
0000
,
1001
0000
0000
0010
0100
0000
1000
0000
0110
0000
0000
1000
0000
0001
0010
0000
,
0101
0000
0000
0010
0100
1000
0010
0000
0101
0000
0000
0010
0100
1000
0001
0000
,
1000
0000
0010
0000
0001
0000
0010
0100
1000
0000
0100
0001
0010
0000
0000
0000
,
0100
0000
0010
0100
1000
0100
0010
0000
0001
0000
0010
0000
0100
0001
1000
0000
,
0010
1000
0001
0100
0010
0100
1000
0001
,
0010
0001
0010
0001
0010
0001
0010
0001
0010
0100
1000
0100
1000
0100
1000
0100
,
0001
0000
0010
1000
0010
0100
0001
1000
,
0010
0100
0001
0010
0100
1000
0010
1000
,
0001
0100
0010
0100
0010
1000
0010
1000
,
0001
0010
0001
0100
0001
0100
0010
1000
,
0010
1000
0010
0100
0001
1000
0001
0100
,
0001
0100
0010
0100
0010
1000
0010
1000
,
0100
1000
0010
0100
0010
1000
0010
0100
,
1002
0000
0000
0100
0000
0000
0103
0000
,
1001
0000
0001
0100
0010
1000
0001
0010
,
0100
1000
0100
1000
0001
0100
0001
1000
,
0010
0100
0001
1000
0010
0100
0001
0010
,
0001
0010
0001
1000
0010
0100
0010
0100
,
0001
0010
0001
0100
0010
1000
0001
0100
,
0001
0010
0100
1000
0010
1000
0001
1000
,
0011
0000
0100
0110
0000
0001
1001
0000
,
0120
0000
0200
0330
,
1001
0000
0000
0000
0001
0000
0100
1000
0001
0000
0010
0000
0100
0010
2000
0000
,
0001
0000
3000
0000
1010
0000
0000
0000
0001
0010
0100
1000
0001
0000
1000
0010
,
0100
0000
0000
0010
1000
0000
0001
0010
0100
0000
1000
0000
0001
0000
0102
0000
,
0000
0000
0000
0000
1003
0000
0000
0000
0100
1000
0001
0100
0010
1000
0001
0100
,
0010
0000
0100
0000
1000
0000
0100
0010
1000
0000
0001
0000
0010
0000
0200
0000
,
1000
0000
0300
0000
0101
0000
0010
0000
0001
0000
0010
0100
1000
0000
0010
0000
,
0100
0000
0000
0101
0000
0000
0110
0000
1001
0000
0110
0000
0101
0000
1020
0000
,
0000
0000
0000
0000
0000
0000
0030
0000
0000
0000
0000
0000
0101
0000
0000
0000
0000
0000
1000
0000
0000
0100
0000
0000
0010
0000
0000
0000
0001
0000
0000
0000
0010
0000
0000
0000
0100
0000
0000
0000
1000
0000
0000
0000
0100
0000
0000
0000
,
2000
0000
0000
0000
0000
0000
3002
0000
0000
0000
0023
0000
0230
0000
0000
2300
0000
0000
3200
0000
0000
0302
0000
0000
,
0023
0000
0000
2030
0000
3200
0320
0000
0000
0000
0000
0000
,
1030
0000
0001
0010
0000
0100
1000
0000
0001
0010
0000
0100
1000
0000
0001
0010
0000
0100
1000
0000
0001
0010
0000
0100
,
1000
0000
0100
0001
0010
0100
1000
0000
0010
0100
1000
0001
0010
1000
0001
0100
1000
0010
0001
0010
1000
0010
0001
0100
,
2000
3000
0010
1000
0010
0100
0001
0010
,
0100
0010
0001
0010
0001
0100
0001
0100
,
0010
1000
0001
0100
0010
1000
0001
0100
,
0001
0010
0100
1000
0100
0010
0100
1000
,
0010
0100
0001
0010
0100
0010
0100
0010
,
0001
0100
0001
0100
0001
0010
0100
0010
,
0001
0010
0001
0100
0010
0100
0010
0100
,
0001
0000
1000
0000
0001
1000
0010
0000
0001
0000
0010
1000
0100
0000
0010
0000
,
0100
0001
1000
0000
1001
0000
0000
0000
1000
0000
0010
0000
0100
0000
0001
0000
,
0100
0001
0010
0100
0010
0001
0010
0001
,
0100
0001
0100
0010
0100
0001
0010
0100
,
0010
0100
1000
0010
0100
0010
1000
0100
,
0010
0100
0101
0000
0000
1001
0000
0000
,
0110
0000
0101
0000
0000
1001
0000
0000
,
1010
0000
0010
0100
0001
0100
0010
0100
,
0010
1000
0001
1000
0001
0100
0001
0100
,
0010
1000
1001
0000
0100
0010
0100
1000
,
0100
1000
0010
0100
0010
0100
0010
1000
,
0001
0100
0001
0010
0100
0010
0100
1000
,
0010
0100
0001
0100
0010
0100
0001
0010
,
0001
1000
1100
0000
0000
0101
0000
0000
,
0110
0000
1001
0000
0000
0110
0000
0000
,
0101
0000
0010
1000
0100
0010
0100
0010
,
0100
1000
0001
0010
0100
1000
0001
1000
,
0010
0100
0001
0100
0001
0100
0010
1000
,
0010
0100
0001
1000
0010
1000
0010
0100
,
0010
0100
0001
0100
0001
0010
0100
1000
,
0010
0100
0010
0100
0010
1000
0100
1000
,
0100
0010
0001
1000
0001
0100
0001
0100
,
0010
1000
0010
0100
0001
0010
0100
0010
,
0100
1000
0100
0010
0001
0100
0010
0100
,
0001
0010
0100
0010
0001
1000
0010
0100
,
0010
0100
0010
1000
0001
1000
0100
1000
,
0100
0010
0100
1000
0010
0100
0001
0100
,
0010
0100
0001
1000
0010
1000
0010
0100
,
0010
1000
0100
0010
0100
1000
0010
0100
,
0001
0100
1010
0000
0100
0110
0000
0100
,
0101
0000
0101
0000
1000
1010
0000
0100
,
0110
0000
0010
0100
0010
1000
0001
1000
,
0100
0000
1000
0000
0100
1000
0010
0000
0100
0000
1000
0001
0010
0000
1000
0000
,
0001
0010
0100
0000
2000
0000
0000
0000
3002
0000
0000
0000
0203
0000
0000
0000
,
0320
0000
2030
0000
3002
0000
0203
1000
,
0320
0000
0000
0000
1030
0100
0010
1000
,
0100
0000
1000
0000
0100
0001
1000
0000
0001
0000
0100
0000
0001
0000
0010
0000
,
0001
0000
0010
0000
0100
0010
1000
0000
0001
0000
1000
0000
0100
0000
0010
0000
,
0100
0000
0010
0000
0100
0000
1000
0000
0001
0010
0100
0000
0001
0000
0010
0000
,
0001
0100
0010
0100
0101
0000
1000
0101
,
0000
0010
0110
0000
1001
0000
0100
0101
,
0000
0100
1100
0000
0100
1000
0010
1000
,
0001
0000
0100
0000
0001
0000
1000
0000
0100
0001
1000
0000
0100
0000
0010
1000
,
0001
0000
0010
0000
0100
0001
0010
0000
0001
0000
0100
0000
0010
0000
1000
0000
,
0100
1000
0001
0010
0001
0010
0100
1000
,
0001
0010
0001
1000
0010
1000
0010
0100
,
0010
0100
0001
1000
0010
1000
0001
1000
,
0100
0010
0100
0010
0100
1000
0010
0100
,
0010
0100
0001
1000
0001
0010
0001
1000
,
0100
1000
0010
0100
0010
0100
0001
0100
,
0010
1000
0010
1000
0200
0000
0010
0001
,
0000
1000
0310
0000
1001
0000
0001
0010
,
0100
0010
0100
1000
0001
0010
0100
1000
,
0001
0010
0001
0010
0100
1000
0100
1000
,
0010
0100
0010
0100
0010
1000
0001
0100
,
0010
0100
0010
0100
0001
0010
0100
0010
,
0100
1000
0010
1000
0100
1000
0010
0100
,
0010
0100
0010
1000
0110
0000
0000
0101
,
0000
0110
1001
0000
,
0210
0000
0020
0330
;
