#TITLE:INTERNET YAMERO;
#ARTIST:Aiobahn × KOTOKO × nyalra / Theme for NEEDY GIRL OVERDOSE;
#GENRE:ポップス;
#MUSIC:INTERNET YAMERO.ogg;
#BANNER:INTERNET YAMERO.png;
#BACKGROUND:INTERNET YAMERO-bg.png;
#CDTITLE:./CDTitles/NSD WORLD.png;
#SAMPLESTART:67.465;
#SAMPLELENGTH:15.000;
#SELECTABLE:YES;
#OFFSET:0.000;
#BPMS:0.000=184.983
,146.000=183.983
,150.000=184.983
;
#STOPS:72.000=0.243
,72.250=0.243
,72.500=0.162
,210.000=0.243
,210.250=0.243
,210.500=0.162
;
#DISPLAYBPM:184.983;
#BGCHANGES:;
#FGCHANGES:;

//--------------- dance-single - ----------------
#NOTES:
     dance-single:
     :
     Beginner:
     5:
     0,0,0,0,0:
0000
0000
0000
0000
,
0000
0000
0000
0000
,
0000
0000
0000
0000
,
0000
0000
0000
0000
,
0000
0000
0000
0000
,
0000
0000
0000
0000
,
0000
0000
0000
0000
,
0000
0000
0000
0000
,
0000
0000
0000
0000
,
0000
0000
0000
0000
,
0000
0000
0000
0000
,
0001
0000
1000
0000
,
0001
0000
0000
0000
,
0100
0000
0010
0000
,
0001
0000
0000
0000
,
1000
0000
0001
0000
,
1000
0000
0000
0000
,
0001
0000
1000
0000
,
0200
0300
0001
0000
,
1000
0000
0001
0000
,
0010
0000
0100
0000
,
1000
0000
0001
0000
,
1000
0000
0001
0000
,
0100
0000
0010
0000
,
0100
0000
1000
0000
,
0001
0000
1000
0000
,
0000
0000
0001
0000
,
0000
0000
0000
0000
,
0000
0000
1000
0000
,
0000
0000
0000
0000
,
0000
0000
0100
0000
,
0000
0000
0000
0000
,
0000
0000
0001
0000
,
0000
0000
1000
0000
,
0000
0000
0001
0000
,
0000
0000
1000
0000
,
0000
0000
0000
0000
,
0000
0000
1001
0000
,
0000
0000
0000
0000
,
0000
0000
0100
0000
,
0000
0000
0000
0000
,
0000
0000
0010
0000
,
0000
0000
0000
0000
,
0000
0000
0100
0000
,
0000
0000
0101
0000
,
0000
0000
0100
0000
,
1000
0000
0001
0000
,
0000
0000
1000
0000
,
0001
0000
0100
0000
,
0000
0000
0001
0000
,
1000
0000
0001
0000
,
0000
0000
0100
0000
,
1000
0000
0000
0000
0200
0300
0000
0000
,
1001
0100
0010
0000
,
0001
0010
1000
0000
,
0100
0010
0100
0000
,
0001
1000
0010
0000
,
1000
0001
1000
0000
,
0001
0010
0100
0000
,
1000
0001
0100
0000
,
0010
0001
0010
0000
,
1000
0100
0010
0000
,
0001
1000
0100
0000
,
0010
1000
0100
0000
,
0001
0010
0100
0000
,
0010
1000
0001
0000
,
1000
0001
0100
0000
,
0010
0100
1000
0000
,
0001
1000
0001
0000
,
0100
1000
0001
0000
,
0100
0010
1000
0000
,
0001
1000
0001
0000
,
0100
0010
0001
0000
,
1000
0001
0100
0000
,
0010
0001
0010
0000
,
1000
0001
0100
0000
,
0010
0100
1000
0000
,
0001
0010
0100
0000
,
1000
0001
0100
0000
,
0010
0001
0010
0000
,
1000
0100
1000
0000
,
0001
1000
0001
0000
,
0001
0010
0100
0000
,
1000
0001
0100
0000
,
0010
0100
0010
0000
,
0001
0001
0001
0001
,
1000
1000
1000
1000
,
0100
0100
0100
0100
,
0010
0010
0010
0010
,
0001
1000
0001
1000
,
0001
1000
0100
0010
,
0100
0100
0100
0100
,
0200
0000
0000
0000
,
0000
0000
0000
0000
,
0300
0000
0000
0000
;

//--------------- dance-single - ----------------
#NOTES:
     dance-single:
     :
     Easy:
     7:
     0,0,0,0,0:
0000
0000
0000
0000
,
0000
0000
0000
0000
,
0000
0000
0000
0000
,
0000
0000
0000
0000
,
0000
0000
0000
0000
,
0000
0000
0000
0000
,
0000
0000
0000
0000
,
0000
0000
0000
0000
,
0000
0000
0000
0000
,
0000
0000
0000
0000
,
0000
0000
0000
0000
,
0100
1000
0001
0100
,
0010
0000
1000
0000
0001
0000
0100
1000
,
0001
0100
0010
0100
,
1000
0000
0001
0000
0100
0000
1000
0001
,
1000
0100
0010
0001
,
0010
0100
1000
0001
,
1000
0001
1000
0001
1000
0001
1000
0000
,
0100
0100
0001
0000
0000
0000
0000
0000
1001
0000
0000
0000
0100
0000
1000
0000
,
0010
0000
1000
0000
0100
0010
0001
0000
,
1000
0001
0100
1000
0010
0000
0100
0000
,
0001
0010
1000
0000
0001
1000
0001
0100
,
0010
0100
1000
0100
0001
0000
1000
0000
,
0001
0100
0010
0000
0100
1000
0001
0100
,
0010
0000
0100
0001
1000
0000
0001
0000
,
1000
0100
0010
0000
0001
1000
0001
0000
,
0010
0100
0110
0000
,
1000
0000
0001
0100
,
0010
0000
0100
0000
,
0010
0000
1000
0100
,
0010
0000
0001
0000
,
1000
0000
0001
0100
,
0010
0000
2000
0000
,
3002
0000
0203
0000
,
0320
0000
0032
0000
,
2003
0000
3002
0000
,
0000
0000
2000
0000
,
3003
0000
1001
0000
,
0000
0000
0000
0000
,
0000
0000
0101
0000
,
0000
0000
0000
0000
,
0000
0000
1001
0000
,
0000
0000
0000
0000
,
0000
0000
0011
0000
,
0000
0000
1010
0000
,
0000
0000
0100
0010
,
1000
0000
0001
1000
,
0001
0000
0100
0010
,
0100
0000
1000
0001
,
1000
0000
0001
1000
,
0001
0100
0010
1000
,
0000
0000
0000
0000
1000
0001
1000
0000
,
0010
0000
0100
0000
0010
0000
0000
0000
0100
0100
0001
0000
0000
0000
0000
0000
,
1001
0000
0001
0000
0010
1000
0001
0000
,
0100
0001
0010
0000
1000
0000
0010
0001
,
0100
0010
0001
0000
1000
0000
0001
0010
,
1000
0000
0100
0000
0010
0001
0100
0001
,
0010
0100
1000
0010
,
0100
1000
0010
0000
0100
1000
0001
0000
,
0010
0000
0001
0000
1000
0100
0001
0000
,
1000
0010
0100
0001
0010
0000
0001
0000
,
0100
0000
0010
0100
1000
0000
0001
0000
,
0010
1000
0100
0001
0010
0000
0100
0000
,
0010
0100
0001
0000
1000
0100
0010
0000
,
0100
0000
0001
0000
0010
0000
0001
1000
,
0010
0000
0100
0001
0010
1000
0001
0010
,
0100
0000
0001
0000
1000
0010
0001
0100
,
1000
0100
0010
0001
,
0010
1000
0100
0001
0010
0000
0001
0000
,
0101
0000
0001
0000
0010
1000
0001
0000
,
0100
0000
0010
0001
1000
0000
0011
0000
,
1000
0100
0010
0000
0100
0010
0001
0000
,
0100
0000
0010
0000
0101
0000
0001
1000
,
0010
0000
0100
0000
0010
1000
0001
0000
,
0010
0001
0100
0000
1000
0001
0100
0000
,
0010
0000
0001
0000
0100
0010
0001
0010
,
0100
0000
0001
0000
0010
0001
0100
0000
,
1000
0000
0001
1000
0010
0000
0001
0000
,
1000
0010
0001
0010
0100
0000
0010
0000
,
0100
0000
0001
1000
0010
0000
0001
0000
,
0100
0001
0010
0001
1000
0001
0100
1000
,
0010
0000
0001
0010
0100
1000
0010
0000
,
1000
0001
0100
0000
1000
0000
0100
0001
,
1000
0000
0010
1000
0100
0000
0001
1000
,
0100
0100
0001
1001
,
1000
0001
1000
0000
0010
0100
0010
0000
,
1000
0001
1000
0000
0100
0010
0100
0000
,
0001
0010
0001
0000
1000
0100
1000
0000
,
0001
0100
0001
0000
1000
0010
1000
0000
,
0100
0010
0100
0010
0100
0010
0100
0010
,
0100
0010
0100
0010
0100
0010
0100
0010
,
0100
0100
0100
0100
0100
0100
0100
0100
,
0100
0100
0100
0100
0100
0100
0100
0100
,
0100
0100
0100
0100
0100
0100
0100
0100
,
0100
0000
0000
0000
;

//--------------- dance-single - ----------------
#NOTES:
     dance-single:
     :
     Medium:
     15:
     0,0,0,0,0:
0000
0000
0000
0000
,
0000
0000
0000
0000
,
0000
0000
0000
0000
,
0000
0000
0000
0000
,
0000
0000
0000
0000
,
0000
0000
0000
0000
,
0000
0000
0000
0000
,
0000
0000
0000
0000
,
0000
0000
0000
0000
,
0000
0000
0000
0000
,
0000
0000
0000
0000
,
0100
0010
0001
0100
0001
0010
0001
1000
,
0100
0010
0001
0100
0010
1000
0001
0000
,
1000
0001
0010
0100
1000
0010
1000
0000
,
0001
0100
0001
1000
0100
0010
0100
0000
,
0001
0010
0100
1000
0010
0100
0001
0000
,
0100
0010
0100
0010
1000
0100
0001
0000
,
1010
0011
1001
0110
,
0100
0100
0001
0000
0010
0001
0010
0000
0100
0000
1000
0000
0100
0000
0001
0000
,
0100
0000
0001
0010
1000
0000
0001
0000
0100
0000
0010
0000
1000
0000
0100
0000
,
0001
0000
1000
0001
0010
1000
0001
0100
,
0010
0000
1000
0100
0001
0000
1000
0000
0010
0000
0001
0000
0100
0000
1000
0000
,
0100
0001
0010
0100
0010
0001
1000
0010
,
0001
0000
0010
1000
0100
0000
0001
0000
1000
0000
0010
0000
0001
0000
0100
0000
,
1000
0000
0100
0000
0001
0000
0100
0000
1000
0000
0100
0001
0010
0000
0100
0000
,
0010
0000
0001
0010
0100
1000
0100
0010
0001
0000
0100
0000
1000
0000
0010
0000
,
0001
0000
0110
0000
1000
0100
0010
0001
,
0010
0100
1000
0100
0010
0001
1000
0100
,
0001
0100
0010
0001
0010
1000
0100
0001
,
0010
0001
0100
1000
0001
0010
1000
0010
,
0001
0000
1001
0000
0010
0100
0001
0010
,
1000
0100
0001
1000
0001
0100
0010
0001
,
0010
0100
0001
0100
1000
0100
1000
0010
,
0001
1000
0010
0001
1000
0001
0100
1000
,
0001
0010
1000
0100
0200
0300
0020
0030
,
2000
3000
0002
0003
0120
0000
0000
0100
,
1030
0001
0100
1000
0200
0000
0000
0000
,
0300
0000
1001
0000
,
0000
0000
0000
0000
,
0000
0000
0101
0000
,
0000
0000
0000
0000
,
0000
0000
1100
0000
,
0000
0000
0000
0000
,
0000
0000
0110
0000
,
0000
0000
1010
0000
,
0100
0000
0000
0010
0001
0000
1000
0000
0010
0000
1000
0000
0001
0000
0100
0001
,
0010
0000
1000
0000
0001
0000
0100
0010
0001
0000
1000
0000
0001
0000
0010
0000
,
0100
0000
0010
0000
0100
0000
0000
0000
1001
0000
0000
0000
0010
0001
1000
0000
,
0100
0000
0010
0001
1000
0000
0001
0100
0010
0000
1000
0000
0010
0000
1000
0001
,
0100
0000
0000
0010
0000
0000
1000
0000
0001
0000
1000
0000
0001
0000
0100
0000
,
0010
0000
1000
0100
0010
0000
0001
0000
1000
0001
0100
0000
0010
0000
1000
0000
,
0100
0000
0010
0000
1000
0000
0100
0000
0010
0001
0100
0000
1000
0010
0100
0000
,
0001
0100
0010
0000
1000
0100
0001
0000
0100
0100
0001
0000
0100
1000
0100
0000
,
0010
0001
0010
1000
0010
1000
0001
1000
,
0010
0000
0100
0010
0001
0000
0010
0000
1000
0000
0000
0000
0001
0000
1000
0000
,
0100
0000
0001
0010
1000
0000
0010
0000
0100
0000
0001
0000
1000
0000
0001
0000
,
0010
0000
1000
0000
0010
0000
0001
0000
0010
0000
1000
0000
0010
0100
0001
0100
,
0010
1000
0001
0100
1000
0100
0010
1000
,
0001
0100
1000
0010
0001
0010
0100
0010
,
0001
0000
0010
0000
0100
0000
0010
0000
0100
0000
1000
0100
0010
0001
0010
0100
,
1000
0010
0001
0100
1000
0000
0110
0000
,
1000
0000
0001
0000
0100
0000
1000
0000
0100
0000
1000
0010
0001
0000
1000
0000
,
0100
0010
0001
0100
1000
0000
0001
1000
,
0010
0000
0001
0100
1000
0000
0100
0000
0010
0000
0001
0000
1000
0000
0001
0000
,
0010
0000
1000
0000
0100
0000
0001
0000
0100
0000
1000
0000
0010
0000
0100
0001
,
0010
0000
0100
0010
0001
0000
0010
0000
1000
0000
0010
0000
0100
0000
1000
0000
,
0001
0010
1000
0100
0001
0100
0010
0100
,
0001
0000
0100
0000
0010
0000
0100
0000
0010
0000
1000
0010
0100
0001
0100
0010
,
1000
0100
0001
0010
1000
0000
0110
0000
,
0001
0000
1000
0000
0010
0000
0001
0000
0010
0000
0001
0100
1000
0000
0001
0000
,
0010
0000
0100
0010
1000
0000
0010
0000
0001
0000
0000
0000
1000
0000
0001
0010
,
0100
0000
1000
0010
0001
0000
0010
0000
0100
0000
1000
0010
0001
0000
1000
0000
,
0100
0001
0010
1000
0010
0001
0100
0010
,
0100
0000
0001
0010
1000
0000
0100
0000
0001
0000
0100
1000
0010
0000
0001
0000
,
1000
0100
0001
0010
1000
0010
0100
0010
,
1000
0000
0010
0001
0100
0000
0010
0000
0100
0000
0001
0100
0010
1000
0010
0000
,
0001
0101
1010
0110
,
1000
0010
0100
1000
0100
0001
0100
1000
,
0100
0000
0010
0001
0100
0000
1000
0000
0001
0000
0000
0000
1000
0000
0010
0000
,
0001
0000
1000
0000
0001
0000
0100
0000
0010
0000
1000
0100
1000
0000
0100
0000
,
0001
1000
0010
0001
0100
1000
0001
0010
,
0001
0000
0010
0000
0100
0000
0001
0000
0100
0000
1000
0010
0001
0000
0100
0000
,
1000
0010
0001
0100
0010
0100
1000
0001
,
0100
0000
0010
1000
0001
0000
0100
0000
0010
0000
0001
0100
0010
1000
0010
0100
,
0001
0100
0010
0100
0001
0000
0110
0000
,
0001
0010
1000
0100
0001
0010
1000
0100
,
0001
0010
1000
0100
0001
0010
1000
0100
,
0001
0010
1000
0100
0001
0010
1000
0100
,
0001
0010
1000
0100
0001
0010
1000
0100
,
0010
0100
0010
0100
0010
0100
0010
0100
,
0010
0100
0010
0100
0010
0100
0010
0100
,
0001
1000
0001
1000
0001
1000
0001
1000
0001
1000
0001
1000
0001
1000
0001
1000
,
0001
1000
0001
1000
0001
1000
0001
1000
0001
1000
0001
1000
0001
1000
0001
1000
,
0001
1000
0001
1000
0001
1000
0001
1000
0001
1000
0001
1000
0001
1000
0001
1000
,
0001
0000
0000
0000
;

//--------------- dance-single - ----------------
#NOTES:
     dance-single:
     :
     Hard:
     18:
     0,0,0,0,0:
0000
0000
0000
0000
,
0000
0000
0000
0000
,
0000
0000
0000
0000
,
0000
0000
0000
0000
,
0000
0000
0000
0000
,
0000
0000
0000
0000
,
0000
0000
0000
0000
,
0000
0000
0000
0000
,
0000
0000
0000
0000
,
0000
0000
0000
0000
,
0000
0000
0000
0000
,
0100
0000
0010
1000
0100
0000
0010
0001
0100
0000
1000
0100
0010
0000
0100
0001
,
0010
0000
0100
1000
0010
0000
1000
0000
0001
0000
1000
0000
0100
0000
0010
1000
,
0001
0000
1000
0000
0001
0000
0100
0000
0001
0000
0010
1000
0001
0000
0010
0000
,
0100
0000
1000
0100
0010
0000
1000
0001
0100
0000
0010
0001
0100
0000
0010
0000
,
0100
0000
1000
0100
0010
0000
1000
0001
0010
0000
0100
1000
0010
0000
0100
0010
,
0001
0000
0010
0001
0100
0000
1000
0100
0010
0000
0001
0010
0100
0000
0000
0000
,
1000
0100
0010
0000
0001
0010
0100
0000
1000
0100
0010
0000
0001
0010
1000
0001
,
0200
0300
0200
0300
0002
0000
0000
0000
0013
0000
0001
0000
0010
0000
0001
0000
0101
0000
0000
0000
1000
0000
0000
0000
0100
0000
0000
0000
0001
0000
0000
0000
,
0100
0000
0001
0010
1000
0000
0001
0000
0100
0000
0010
0100
1000
0000
0100
0000
,
0101
0000
0000
0000
1010
0000
0001
0000
0010
0000
1000
0100
0001
0000
0100
0000
,
1010
0000
1000
0100
0001
0000
1000
0000
0110
0000
0001
0000
0100
0000
1000
0000
,
0100
0000
0001
0000
0011
0000
0100
0000
0010
0000
0001
0100
1000
0000
0010
0000
,
0001
0000
0010
1000
0100
0000
0001
0000
1000
0000
0010
0000
0001
0000
0100
0000
,
1000
0000
0100
0000
0011
0000
0100
0000
1000
0000
0100
0001
0010
0000
0100
0000
,
0010
0000
0001
0010
0100
1000
0100
0010
0001
0000
0100
0000
1000
0000
0010
0000
,
1001
0000
0110
0000
1000
0100
0010
0001
,
0010
0000
0100
1000
0100
0000
0010
0000
0001
0000
0010
0000
1000
0000
0100
0000
,
0001
0000
0100
0000
0010
0000
0001
0000
0010
0000
1000
0010
0100
0000
0001
0000
,
0010
0000
0001
0010
0100
0000
1000
0000
0101
0000
0010
0000
1100
0000
0010
0000
,
0011
0000
1001
0000
0010
0100
0001
0010
,
1000
0000
0100
0010
0001
0000
1000
0000
0011
0000
0100
0000
0010
0000
0001
0000
,
0010
0100
1001
0100
1001
0100
1000
0010
,
0001
1000
0010
0001
1010
0001
0100
1000
,
0001
0010
1000
0100
0202
0303
0022
0033
,
2020
3030
2002
3003
0220
0000
0300
0100
,
1030
0001
0100
1000
0200
0000
0000
0000
,
0300
0000
2002
3003
,
0000
0000
0000
0000
,
0000
0000
0202
0303
,
0000
0000
0000
0000
,
0000
0000
2200
3300
,
0000
0000
0000
0000
,
0000
0000
0220
0330
,
0000
0000
2020
3030
,
0200
0000
0000
0000
0000
0000
0000
0000
0000
0000
0000
0000
0300
0000
0000
0000
0000
0000
0000
0000
0000
0000
0000
0000
0000
0000
0000
0000
0000
0000
0000
0000
0000
0000
0000
0000
0020
0000
0000
0000
0000
0000
0000
0000
0000
0000
0000
0030
0020
0000
0000
0000
0000
0000
0000
0000
0000
0000
0000
0000
0030
0000
0000
0000
0000
0000
0000
0000
0000
0000
0000
0000
2000
0000
0000
0000
0000
0000
0000
0000
0000
0000
0000
0000
3000
0000
0000
0000
0000
0000
0000
0000
0000
0000
0000
0000
0100
0000
0000
0000
0000
0000
0000
0000
0000
0000
0000
0000
0000
0000
0000
0000
0000
0000
0000
0000
0000
0000
0000
0000
0001
0000
0000
0000
0000
0000
0000
0000
0000
0000
0000
0000
0010
0000
0000
0000
0000
0000
0000
0000
0000
0000
0000
0000
0100
0000
0000
0000
0000
0000
0000
0000
0000
0000
0000
0000
0000
0000
0000
0000
0000
0000
0000
0000
0000
0000
0000
0000
0100
0000
0000
0000
0000
0000
0000
0000
0000
0000
0000
0000
0010
0000
0000
0000
0000
0000
0000
0000
0000
0000
0000
0000
,
1000
0000
0010
0001
1000
0000
0100
0010
1000
0000
0100
0001
0010
0000
0100
0001
,
1000
0000
0000
0001
0100
0010
1000
0001
0100
0000
1000
0001
0100
0000
1000
0100
,
0010
0000
0001
0000
0010
0100
0001
0000
0010
1000
0100
0000
0010
0001
0100
0000
,
0010
1000
0000
0000
0001
0010
1000
0000
0000
1000
0010
0100
0001
1000
0010
0100
,
0001
1000
0010
0100
0001
1000
0010
0100
0001
0000
0010
0000
1000
0000
0000
0000
,
1000
0100
0010
0000
0001
0010
1000
0000
0001
0010
0100
0000
1000
0001
0100
0000
,
1000
0100
0010
0000
0010
0001
0100
0000
0100
0100
0001
0000
0100
1000
0100
1000
,
0010
0000
0001
0100
0010
0000
1000
0000
0010
0000
1000
0100
0001
0000
1000
0000
,
0010
0000
0100
0010
0001
0000
0010
0000
1010
0000
0000
0000
0101
0000
1000
0000
,
0100
0000
0001
0010
1000
0000
0010
0000
0101
0000
0001
0010
1000
0000
0001
0000
,
0110
1000
0010
0001
0010
1000
1100
0010
,
0100
0000
1000
0010
0001
0000
0100
0000
1000
0000
0100
0001
0010
0000
1000
0000
,
0001
0100
1000
0010
0001
0010
1100
0010
,
0001
0000
0010
1000
0100
0000
0010
0000
0100
0000
1000
0100
0010
0001
0010
0100
,
1000
0010
0001
0100
1001
0000
0110
0000
,
1100
0000
0001
0000
0100
0000
1000
0000
0100
0000
1000
0010
0001
0000
1000
0000
,
0100
0000
0010
0100
0001
0000
0100
0000
1100
0000
0000
0000
0011
0000
1000
0000
,
0010
0000
0001
0100
1000
0000
0100
0000
0011
0000
0001
0100
1000
0000
0001
0000
,
0110
0000
1000
0000
0100
0000
0001
0000
0100
0000
0001
0000
1000
0010
0100
0001
,
0010
0000
1000
0100
0001
0000
0010
0000
1000
0000
0010
0001
0100
0000
1000
0000
,
0001
0010
1000
0100
0001
0100
1010
0100
,
0001
0000
0100
1000
0010
0000
0100
0000
0010
0000
1000
0010
0100
0001
0100
0010
,
1000
0100
0001
0010
1001
0000
0110
0000
,
0011
0000
1000
0000
0010
0000
0001
0000
0010
0000
0001
0100
1000
0000
0001
0000
,
0010
0000
0100
0010
1000
0000
0001
0000
0010
0000
0000
0000
1000
0000
0001
0010
,
0100
0000
1000
0010
0001
0000
0010
0000
0100
0000
1000
0010
0001
0000
1000
0000
,
0110
0000
0001
0000
0010
0000
1000
0000
0010
0000
0001
0000
0001
1000
0010
0000
,
0100
0000
0001
0010
1000
0000
0100
0000
0001
0000
0100
1000
0010
0000
0001
0000
,
1000
0100
0001
0010
1000
0010
0101
0010
,
1000
0000
0010
0001
0100
0000
0010
0000
0100
0000
0001
0100
0010
1000
0010
0000
,
1001
0101
1010
0110
,
1100
0000
0010
0000
0100
0000
1000
0000
0100
0000
0001
1000
0100
0000
1000
0000
,
0100
0000
0010
0001
0100
0000
1000
0000
0011
0000
0000
0000
1100
0000
0010
0000
,
0001
0000
1000
0010
0001
0000
0001
0000
0110
0000
1000
0100
1000
0000
0100
0000
,
0011
0000
1000
0000
0010
0000
0001
0000
0100
0000
1000
0000
0001
0000
1000
0010
,
0001
0000
0010
0100
0010
0000
0001
0000
0100
0000
1000
0010
0001
0000
0100
0000
,
1000
0010
0001
0100
0010
0100
1010
0001
,
0100
0000
0010
1000
0001
0000
0100
0000
0010
0000
0001
0100
0010
1000
0010
0100
,
0001
0100
0010
0100
1001
0000
0101
0000
,
1000
0000
0010
1000
0001
0000
0100
0001
1000
0000
0010
0100
0001
0000
0100
0010
,
1000
0000
0010
0100
0001
0000
0100
0010
1000
0000
0010
0100
0001
0000
0100
0010
,
1000
0000
0010
0100
0001
0000
0100
0010
1000
0000
0010
1000
0001
0000
0100
0010
,
1000
0000
0010
0100
0001
0000
0100
0010
0001
0000
0010
0001
1000
0000
0100
0000
,
1000
0001
1000
0001
1000
0001
1000
0001
,
1000
0001
1000
0001
1000
0001
1000
0001
,
0010
0100
0010
0100
0010
0100
0010
0100
0010
0100
0010
0100
0010
0100
0010
0100
,
1000
0001
1000
0001
1000
0001
1000
0001
1000
0001
1000
0001
1000
0001
1000
0001
1000
0001
1000
0001
1000
0001
1000
0001
1000
0001
1000
0001
1000
0001
1000
0001
,
1000
0001
1000
0001
1000
0001
1000
0001
1000
0001
1000
0001
1000
0001
1000
0001
1000
0001
1000
0001
1000
0001
1000
0001
1000
0001
1000
0001
1000
0001
1000
0001
,
1000
0000
0000
0000
;
