#TITLE:ハロー! ソニック-くん;
#ARTIST:みすみゆり;
#TITLETRANSLIT:Hello! Sonic-kun;
#ARTISTTRANSLIT:YURI MISUMI;
#GENRE:ナムコオリジナル;
#MUSIC:Hello! Sonic-kun.ogg;
#BANNER:Hello! Sonic-kun.png;
#BACKGROUND:Hello! Sonic-kun-bg.png;
#CDTITLE:./CDTitles/NSD WORLD.png;
#SAMPLESTART:53.134;
#SAMPLELENGTH:15.000;
#SELECTABLE:YES;
#OFFSET:0.000;
#BPMS:0.000=140.000;
#STOPS:;
#BGCHANGES:;
#FGCHANGES:;

//--------------- dance-single - ----------------
#NOTES:
     dance-single:
     :
     Beginner:
     1:
     0,0,0,0,0:
0000
0000
0000
0000
,
0000
0000
0000
0000
,
0000
0000
0000
0000
,
0000
0000
0000
0000
,
0000
0000
0000
0000
,
0000
0000
0000
0000
,
0000
0000
0000
0000
,
0000
0000
0000
0000
,
0000
0000
0000
0000
,
0000
0000
0000
0000
,
0000
0000
0000
0000
,
1000
0000
0000
0000
,
1000
0000
0000
0000
,
0001
0000
0000
0000
,
0001
0000
0000
0000
,
1000
0000
0000
0000
,
1000
0000
0000
0000
,
0001
0000
0000
0000
,
0001
0000
0000
0000
,
0010
0000
0000
0000
,
0000
0000
0000
0000
,
0100
0000
0000
0000
,
0000
0000
0000
0000
,
0010
0000
0000
0000
,
0000
0000
0000
0000
,
0100
0000
0000
0000
,
0000
0000
0000
0000
,
0002
0000
0000
0003
,
0000
0000
0000
0000
,
2000
0000
0000
3000
,
0000
0000
0000
0000
,
1001
0000
0000
0000
,
0010
0000
0000
0000
,
0100
0000
0000
0000
,
0000
0000
0000
0000
,
1001
0000
0000
0000
,
0100
0000
0000
0000
,
0010
0000
0000
0000
,
0000
0000
0000
0000
,
0000
0000
0000
0000
,
0001
0000
0000
0000
,
1000
0000
0000
0000
,
0001
0000
0000
0000
,
1000
0000
0000
0000
,
0010
0000
0000
0000
,
0000
0000
0000
0000
,
0100
0000
0000
0000
,
0000
0000
0000
0000
,
0001
0000
0000
0000
,
0000
0000
0000
0000
,
1000
0000
0000
0000
,
0000
0000
0000
0000
,
0110
0000
0000
0000
,
0010
0000
0000
0000
,
0100
0000
0000
0000
,
0000
0000
0000
0000
,
0110
0000
0000
0000
,
0100
0000
0000
0000
,
0010
0000
0000
0000
,
0001
0000
0000
0000
,
0000
0000
0000
0000
,
1000
0000
0000
0000
,
0000
0000
0000
0000
,
0001
0000
0000
0000
,
1000
0000
0000
0000
,
0010
0000
0000
0000
,
1000
0000
0000
0000
0000
0000
0000
0001
,
0000
0000
0000
1001
0000
0000
0000
0000
;

//--------------- dance-single - ----------------
#NOTES:
     dance-single:
     :
     Easy:
     4:
     0,0,0,0,0:
0000
0000
0000
0000
,
0000
0000
0000
0000
,
0000
0000
0000
0000
,
0000
0000
0000
0000
,
0000
0000
0000
0000
,
0000
0000
0000
0000
,
0000
0000
0000
0000
,
0000
0000
0000
0000
,
0000
0000
0000
0000
,
0000
0000
0000
0000
,
0000
0000
0000
0000
,
1000
0000
0001
0000
,
1000
0000
0000
0000
,
0010
0000
0100
0000
,
0010
0000
0000
0000
,
0001
0000
0010
0000
,
0001
0000
0000
0000
,
1000
0000
0100
0000
,
1000
0000
0000
0000
,
0020
0000
0000
0000
,
0030
0000
0000
0000
,
0200
0000
0000
0000
,
0300
0000
0000
0000
,
0001
0000
0000
0000
,
1000
0000
0000
0000
,
0001
0000
0000
0000
,
0000
0000
0000
0000
,
1001
0000
0000
0000
,
0000
0000
0000
0000
,
0110
0000
0000
0000
,
0000
0000
0000
0000
,
1000
0100
1000
0000
,
0010
0000
0000
0000
,
0001
0010
0001
0000
,
0100
0000
0000
0000
,
1000
0100
1000
0000
,
0001
0000
0000
0000
,
1001
0000
0000
0000
,
0020
0000
0000
0000
,
0030
0000
0000
0000
,
0100
0000
0000
0000
,
1000
0000
0000
0000
,
0001
0000
0000
0000
,
1000
0000
0000
0000
,
0001
0000
0000
0000
,
0000
0000
0000
0000
,
0010
0000
0000
0000
,
0100
0000
0000
0000
,
0010
0000
0000
0000
,
1000
0000
0000
0000
,
0001
0000
1000
0000
,
0100
0100
0001
0000
,
1001
0000
0100
0000
,
0001
0000
0100
0000
,
1000
0000
0010
0000
,
0001
0000
0100
0000
,
0010
0000
1000
0000
,
0100
0000
0001
0000
,
1001
0000
0000
0000
,
0220
0000
0000
0000
,
0330
0000
0000
0000
,
0001
0000
1000
0000
,
0001
0000
0000
0000
,
0100
0000
0010
0000
,
0001
0000
0000
0000
,
1000
0000
0001
0000
,
1000
0000
0000
0000
0000
0000
0000
0100
,
0000
0100
0000
1001
0000
0000
0000
0000
;

//--------------- dance-single - ----------------
#NOTES:
     dance-single:
     :
     Medium:
     7:
     0,0,0,0,0:
0000
0000
0000
0000
,
0000
0000
0000
0000
,
0000
0000
0000
0000
,
0000
0000
0000
0000
,
0000
0000
0000
0000
,
0000
0000
0000
0000
,
0000
0000
0000
0000
,
0000
0000
0000
0000
,
0000
0000
0000
0000
,
0000
0000
0000
0000
,
0000
0000
0000
0000
,
1000
0001
0100
0010
,
1000
0001
1000
0001
,
0200
0000
0300
0010
,
0100
1000
0001
1000
,
0001
0100
0010
0001
,
1000
0001
1000
0001
,
2000
0000
0000
3000
,
0001
0000
0100
0010
,
0001
0000
1000
0001
,
0100
0000
0010
0001
,
0010
0000
0100
0000
,
1000
0001
1000
0001
,
0100
0000
0000
0010
,
0001
0100
1000
0001
,
0200
0000
0000
0300
,
0001
1000
0001
0100
,
0010
0000
1000
0001
,
1000
0000
0100
0000
,
0010
0000
0001
0000
,
1000
0001
1000
0010
,
1001
0100
1000
0001
,
0100
0000
0010
1000
,
0001
1000
0001
0000
,
0100
0010
0101
0000
,
1000
0001
0100
0000
,
0010
0100
1000
0000
,
1001
0000
0000
0000
,
0100
0000
0001
0000
,
0100
1000
0001
0000
,
0001
0000
1000
0000
,
0001
0100
0010
0000
,
0100
0000
0010
0000
,
1000
0000
0001
1000
,
0002
0000
0000
0000
,
0103
0000
0010
0000
,
0001
0000
1000
0000
,
0001
0000
1000
0000
,
0010
0000
0100
0000
,
0010
0000
0001
0000
,
1000
0001
1000
0000
,
0100
0100
0001
0000
,
1001
0000
0100
0000
,
1000
0001
0100
0000
,
0010
0000
0001
0001
,
0010
0000
1000
0000
,
0100
0000
0100
0000
,
0010
0001
1000
0000
,
0010
0000
1000
0000
,
0001
0000
1000
0000
,
0001
0000
0100
0000
,
0010
0000
1000
0001
,
1000
0000
0100
0000
,
0010
1000
0001
0000
,
0100
0000
1000
0000
,
0001
1000
0001
0000
,
0100
0000
0010
0000
0000
0000
0000
0001
,
0000
1000
0000
1001
0000
0000
0000
0000
;

//--------------- dance-single - ----------------
#NOTES:
     dance-single:
     :
     Hard:
     10:
     0,0,0,0,0:
0000
0000
0000
0000
,
0000
0000
0000
0000
,
0000
0000
0000
0000
,
0000
0000
0000
0000
,
0000
0000
0000
0000
,
0000
0000
0000
0000
,
0000
0000
0000
0000
,
0000
0000
0000
0000
,
0000
0000
0000
0000
,
0000
0000
0000
0000
,
0000
0000
0000
0000
,
1000
0001
0010
0100
1000
0000
0001
0000
,
1000
0001
0000
0200
0000
0000
0310
1000
,
0001
0200
0000
0000
0000
0000
0310
0000
,
0001
1000
0000
0100
0000
0010
1000
0000
,
0000
0001
0100
0010
1000
0001
0100
0000
,
0010
0100
0000
1000
0000
0000
0002
0000
,
2003
0000
0000
3100
,
0010
0000
0001
1000
,
0002
0100
1003
0001
,
1100
0000
0001
1000
,
0200
0010
0001
0000
,
1300
0000
0000
0010
0000
0000
1000
0000
0001
0100
0000
0000
,
2000
0000
0001
0000
3010
0001
0100
1000
,
0000
0000
0001
0100
0010
0000
1000
0000
,
0002
0000
1000
1000
,
1003
0100
0001
1000
,
0002
0000
0000
0000
0103
1000
0100
0010
,
0000
0000
1000
0000
0001
0000
1000
0000
0100
0010
1000
0000
0001
0000
0100
0000
,
0010
0001
1000
0000
0001
0000
0100
0000
0010
0000
1000
0000
0001
0000
0100
0000
,
0010
0100
1000
0000
2002
0000
3003
0000
,
0110
1000
1000
0110
,
0001
0001
0001
0110
,
0110
1001
1001
1001
,
1001
1001
0110
0000
,
2001
0001
0100
0010
,
3001
0000
0020
0000
,
0000
0000
0030
0000
,
0110
1000
1000
1000
,
1000
1000
0110
0000
,
1000
0001
0100
0010
1000
0001
0100
0010
,
0100
1000
0001
0100
0010
0000
0100
0000
,
1000
0001
0100
0010
0001
1000
0100
1000
,
0000
0001
1000
0001
0100
0010
0100
1000
,
1001
0000
0100
0000
,
0001
0000
1000
0001
,
1000
0000
0100
0000
,
0010
0000
0001
0100
,
1000
0000
0001
0000
,
1000
0000
0001
0000
,
0100
0010
1000
0001
,
1000
0001
1000
0000
0010
0100
0001
0000
,
0010
0010
0100
0100
,
1000
0001
1000
0001
0110
0000
1001
0000
,
1000
0010
0001
1000
0100
0010
0000
1000
,
0000
0001
0100
1000
0010
0000
1000
0000
,
0001
0100
0010
0100
1000
0001
0000
0100
,
0000
0010
1000
0001
0010
0100
0010
0100
,
2000
0000
0002
3003
,
1001
0000
0010
1000
0100
0001
0000
1001
,
0000
0000
0010
0001
0100
0000
1000
0000
0010
0000
0000
0000
1001
0000
0000
0000
,
0100
1000
0001
0100
0010
0100
0000
0101
,
0000
0000
1000
0001
0100
0000
0001
0000
1000
0000
0000
0000
0100
0000
0000
0000
,
0001
1000
0001
0100
0010
0100
0000
1000
,
0000
0000
0001
0010
0100
0000
1000
0000
0001
0000
0000
0000
0100
0000
0010
0000
,
1000
0001
1000
0001
0100
0001
1000
0100
,
0001
1000
0001
0100
0010
0100
1000
0001
,
0000
0001
0000
1001
0000
0000
0000
0000
;
