
//----- song ID: srcw -----//
#TITLE:Cross the Worlds;
#ARTIST:James Bourne of Busted;
#GENRE:ソニック曲;
#MUSIC:Cross the Worlds.ogg;
#BANNER:Cross the Worlds.png;
#BACKGROUND:Cross the Worlds-bg.png;
#CDTITLE:./CDTitles/NSD WORLD.png;
#SAMPLESTART:60.281;
#SAMPLELENGTH:15.000;
#SELECTABLE:YES;
#OFFSET:0.000;
#BPMS:0.000=200.000;
#STOPS:;
#BGCHANGES:;
#FGCHANGES:;

//--------------- dance-single - ----------------
#NOTES:
     dance-single:
     :
     Beginner:
     3:
     0,0,0,0,0:
0000
0000
0000
0000
,
0000
0000
0000
0000
,
0000
0000
0000
0000
,
0000
0000
0000
0000
,
0000
0000
0000
0000
,
0000
1000
0000
0100
,
0000
1000
0000
0001
,
0000
1000
0000
0100
,
0000
1000
0000
0001
,
0000
1000
0000
0000
,
2002
0000
0000
0000
,
3003
0000
0000
0000
,
0000
0001
0000
0010
,
0000
0001
0000
1000
,
0000
0001
0000
0010
,
0000
0001
0000
1000
,
0000
0001
0000
0000
,
2002
0000
0000
3003
,
0100
0000
0000
0000
,
0000
1000
0000
0000
,
0000
0000
0001
0000
,
0000
0000
0000
0000
,
0100
0000
0000
0000
,
0000
0000
0010
0000
,
0100
0000
0000
0000
,
0000
0000
0000
0000
,
0001
0000
0000
0000
,
1000
0000
0000
0000
,
0010
0000
0000
0000
,
0100
0000
0000
0000
,
0001
0000
0000
0000
,
1000
0000
0000
0000
,
0001
0000
0000
0000
,
1000
0000
0000
0000
,
2002
0000
0000
3003
,
0000
0000
0000
0000
,
0020
0000
0000
0030
,
0000
0000
0000
0000
,
0200
0000
0000
0300
,
0000
0000
0000
0000
,
0002
0000
0000
0003
,
0000
0000
0000
0000
,
1000
0000
0000
0000
,
0001
0000
0000
0000
,
0100
0000
0000
0000
,
0010
0000
0000
0000
,
0100
0000
0000
1000
,
0000
0000
0001
0000
,
1000
0000
0000
2002
,
0000
0000
0000
0000
,
3003
0000
0000
0000
,
0110
0000
0000
0000
,
1000
0000
0000
0000
,
0001
0000
0000
0000
,
1000
0000
0000
0000
,
0001
0000
0000
0000
,
0100
0000
0000
0000
,
0010
0000
0000
0000
,
0100
0000
0000
0000
,
1000
0000
0000
0000
,
0001
0000
0000
0000
,
0010
0000
0000
0000
,
1000
0000
0000
0000
,
0010
0000
0000
0000
,
0100
0000
0000
0000
,
0220
0000
0000
0000
,
0330
0000
0000
0000
,
1000
0000
0000
0000
,
0001
0000
0000
0000
,
1000
0000
0000
0000
,
0001
0000
0000
0000
,
0010
0000
0000
0000
,
0100
0000
0000
0000
,
0010
0000
0000
0000
,
1000
0000
0000
0000
,
2002
0000
0000
0000
,
3003
0000
0000
0000
,
1000
0000
0001
0000
,
1000
0000
0000
0000
0001
0000
0000
1001
;

//--------------- dance-single - ----------------
#NOTES:
     dance-single:
     :
     Easy:
     5:
     0,0,0,0,0:
0000
0000
0000
0000
,
0000
0000
0000
0000
,
0000
0000
0000
0000
,
0000
0000
0000
0000
,
0000
0000
0000
0000
,
0000
0001
1000
0001
,
1000
0000
0000
0002
0000
0000
0000
0000
,
0000
0000
0000
0003
,
1000
0001
0000
0100
0000
0010
0000
1000
,
0000
0000
0001
1000
0000
0001
0000
1000
,
0001
1001
0001
0000
,
0100
0000
0000
1000
0000
0001
0000
0000
,
1000
0001
0100
0000
,
0010
0000
0000
0100
0000
1000
0000
0000
,
0001
1000
0001
0000
,
0100
0000
0000
0010
0000
1000
0000
0000
,
0001
0000
0000
1000
0000
0000
0001
0000
,
0000
1000
0000
0000
0001
0000
0100
0000
,
0010
0000
1000
0000
0000
0000
0000
0001
,
0000
0000
1000
0000
0001
0000
0000
0100
,
0000
0000
0000
0000
0010
0000
0000
0100
,
0000
0000
1000
0000
0001
0000
0000
0100
,
0000
0020
0000
0000
,
0030
0000
1000
0000
0001
0000
0000
1000
,
0000
0002
0000
0000
,
1003
0000
0000
0001
0000
0000
1000
0000
,
0001
0000
0100
0000
0000
0000
0000
0010
,
0000
0000
0100
0000
1000
0000
0000
0001
,
0000
0000
1000
0000
0001
0000
0000
0100
,
0000
0000
0010
0000
0100
0000
0000
1000
,
0000
0002
0000
0000
,
0003
0000
1000
0000
0001
0000
0000
0100
,
0000
0020
0000
0000
,
0130
0000
0000
0000
,
1000
0000
0000
0001
0000
0000
2002
0000
,
0000
0000
3003
0000
,
0100
0000
0000
0010
0000
0000
0100
0000
,
0000
1000
0000
0001
,
1000
0000
0000
0001
0000
0000
1001
0000
,
0000
0000
0000
0000
,
0100
0000
0000
0010
0000
0000
1000
0000
,
0000
0001
0000
0000
1000
0000
0001
0000
,
0100
0000
1000
0000
,
0001
0000
1000
0000
,
0001
0000
0100
0000
,
0010
0000
0100
1000
,
0001
0000
0000
1000
0000
0000
0002
0000
,
0000
0000
1003
0100
,
0010
0000
0000
1000
0000
0000
0002
0000
,
0000
0000
0000
0000
,
1003
0000
0000
0000
,
1001
0000
0000
0100
0000
0000
0000
0020
,
0000
0000
0000
0030
,
1000
0000
0000
0001
0000
1000
0000
0001
,
0000
0100
0010
0000
,
0100
0000
0000
2000
0000
0000
0000
0000
,
0000
0000
3001
0000
,
1000
0000
0000
0001
0000
0000
0000
1000
,
0000
0000
0001
0100
,
0010
0000
0000
2000
0000
0000
0000
0000
,
0000
0000
0000
3001
,
0010
0000
0000
0100
0000
0000
0000
1000
,
0000
0000
0001
1000
,
0001
0000
0000
0100
0000
0000
0000
0000
,
0000
0000
0010
0000
,
0100
0000
0000
0020
0000
0000
0000
0000
,
0000
0000
0000
0030
,
1000
0000
0001
0000
,
0100
0000
0010
0000
,
1000
0000
0001
0000
,
1000
0000
0001
0000
,
0100
0000
0010
0000
,
1000
0000
0001
0000
,
0100
0000
0010
0000
,
1000
0000
0001
1000
,
0001
0000
0000
2002
0000
0000
0000
0000
,
0000
0000
0000
3003
,
1000
0000
0001
0000
,
1000
0000
0000
0000
0001
0000
0000
1001
;

//--------------- dance-single - ----------------
#NOTES:
     dance-single:
     :
     Medium:
     8:
     0,0,0,0,0:
0000
0000
0000
0000
,
0000
0000
0000
0000
,
0000
0000
0000
0000
,
0000
0000
0000
0000
,
0000
0000
0000
0000
,
0001
1000
0001
0100
,
0010
0000
0000
2000
0000
0000
0000
0000
,
0000
0000
0000
3001
,
0001
1000
0000
0001
0000
0100
0010
0000
,
0000
1000
0000
0001
0000
0100
0000
0000
,
0010
0010
0000
1000
1000
0000
0001
0001
,
0000
1000
1000
0000
0001
0000
0100
0000
,
0010
0100
0000
0010
0100
0000
1000
0001
,
0000
1000
0001
0000
0100
0000
0100
0000
,
0010
0100
0000
1000
0001
0000
0100
0010
,
0000
0001
0010
0000
0100
0000
1000
0000
,
0001
1000
0000
0001
0100
0000
0010
0100
,
0000
1000
0001
0000
0100
0000
0010
0000
,
1000
0000
0001
0000
0100
0010
0000
0100
,
0000
0000
1000
0000
0001
0100
0000
0010
,
0000
0000
1000
0000
0001
0100
0000
0010
,
0000
0000
0100
0000
0001
0100
0000
1000
,
0000
0001
0200
0000
0001
0000
0000
0000
,
0310
0000
0010
0000
0100
1000
0000
0001
,
0000
0100
2000
0000
0001
0000
3001
0000
,
0010
0000
0100
0000
1000
0010
0001
0000
,
0100
0000
1000
0000
0001
0100
0000
0010
,
0000
0000
0100
0000
1000
0001
0000
0100
,
0000
0000
0001
0000
1000
0001
0000
0100
,
0000
0000
0010
0000
0100
1000
0000
0001
,
0000
0100
0020
0000
0100
0000
0130
0000
,
1000
0000
1000
0000
0001
0100
0000
0010
,
0000
1000
0002
0000
1000
0000
1000
0000
,
1003
0000
0001
1000
0000
0100
0010
0000
,
0100
0000
0000
0110
0000
0000
0202
0000
,
0000
0303
0000
0000
,
1010
0000
0000
0001
0000
0000
1001
0000
,
0000
0100
0010
0100
,
1000
0000
0000
0001
0000
0000
0101
0000
,
0000
1000
0001
0100
,
0110
0000
0000
0100
0000
0000
1001
0000
,
0000
0100
0000
0000
0010
0000
1000
0000
,
0001
1000
0001
0100
,
0010
1000
0001
0100
,
0010
0100
1000
0001
,
0100
0010
1000
0001
,
0100
1000
0010
0001
,
0100
0010
1000
0001
,
0100
0100
0000
1000
1000
0000
0001
0001
,
0000
1000
0001
0000
0100
0000
0010
0000
,
0110
0000
0100
0100
,
1001
0000
0100
0010
0000
1000
0000
0001
,
0001
1000
0001
0100
,
0010
1000
0000
0001
0000
0100
0000
0010
,
0000
1000
0001
0100
,
0010
0000
0100
1000
0000
0001
1000
0000
,
0001
0100
0000
0001
0100
0000
0001
0000
,
0100
1000
0000
0001
0000
0100
0000
0010
,
0000
1000
0001
1000
,
0001
0000
1000
0001
0000
1000
1000
0000
,
0001
0001
0000
0100
0000
0000
0010
0000
,
0100
1000
0000
0001
0000
0100
0000
0010
,
0000
1000
0001
0100
,
0010
0000
1000
0001
0000
0001
0100
0000
,
0000
0010
0100
0000
1000
0000
0001
0000
,
1000
0000
0000
1001
0000
0000
0001
0000
,
0100
0010
0100
1000
,
0001
0000
1000
0001
0000
0100
0000
0010
,
0000
1000
0000
0001
0000
0010
0100
0000
,
0010
0000
1000
0001
0000
0100
0000
0010
,
0000
0100
0000
1000
0100
0000
1000
0000
,
0001
0000
1000
0001
0000
0100
0000
0010
,
0000
0100
0000
1000
0000
0010
0001
0000
,
1000
0000
0001
1000
0000
0001
0000
0100
,
0000
0010
0100
0000
1000
0000
0001
0000
,
1100
0000
0000
2002
0000
0000
0000
0000
,
0000
0000
3003
0000
,
1000
0001
1000
0001
,
1000
0000
0001
0000
1000
0000
0001
1000
;

//--------------- dance-single - ----------------
#NOTES:
     dance-single:
     :
     Hard:
     15:
     0,0,0,0,0:
0000
0000
0000
0000
,
0000
0000
0000
0000
,
0000
0000
0000
0000
,
0000
0000
0000
0000
,
0000
0000
0000
0000
,
0001
1000
0100
0010
,
0200
0000
0000
0320
0000
0000
0000
0000
,
0000
0000
0000
0000
,
1030
0100
0000
0010
0000
0001
0000
0100
,
1000
0100
0010
0000
0000
0000
0100
0000
1000
0010
0001
0000
0010
0000
0100
0000
,
0001
0100
0010
0100
0001
0010
0100
0010
,
0001
1000
0001
1000
0001
0100
0010
1000
,
0001
0010
0100
1000
0100
1000
0100
0010
,
0001
0100
0001
0100
0010
0100
0001
1000
,
0001
1000
0001
0100
0010
0100
0010
1000
,
0001
0100
0010
0100
0010
0100
0001
1000
,
0100
0010
0100
1000
0100
0010
0001
1000
,
0001
0100
1000
0100
0010
0000
0100
0001
0010
0100
1000
0000
0010
0000
1000
0000
,
0100
1000
0100
0010
0100
0010
0001
0100
,
0010
0100
0001
1000
0001
0010
0100
1000
,
0001
0010
0100
1000
0001
0010
0001
0010
,
0100
0000
0010
0000
0100
0000
1000
0000
0001
0000
0100
0001
0010
0000
0100
0000
,
0010
0100
0001
1000
0010
1000
0100
0010
,
0001
0000
1000
0000
0100
0000
1000
0000
0010
0000
0100
1000
0001
0000
1000
0000
,
0001
1000
0001
0010
0100
1000
0010
1000
,
0100
0001
1000
0000
0100
0000
0010
1000
0100
0000
0010
0000
0001
0100
1000
0000
,
0010
1000
0010
0100
0010
0100
0001
1000
,
0001
0010
0001
0100
0010
1000
0100
1000
,
0001
1000
0010
0100
0010
1000
0001
0100
,
0001
1000
0001
1000
0010
1000
0001
0100
,
0010
0100
0001
0010
0001
0010
0100
1000
,
0001
1000
0100
1000
0001
0010
0001
0010
,
0001
0100
0010
1000
0010
0100
0010
1000
,
0100
0000
0000
0000
0000
0000
1000
0000
0000
0000
0000
0000
0010
0000
0000
0000
0000
0000
0100
0000
0000
0000
0000
0000
0001
0000
0000
0010
0000
0000
0100
0000
0000
0000
0000
0000
0001
0000
0000
0000
1000
0000
0000
0000
0100
0000
0000
0000
,
0001
0000
0000
0101
0000
0000
2002
0000
,
0000
0000
0000
0000
0000
0000
0000
0000
3003
0000
0000
0000
1000
0100
0010
0000
,
0100
0000
0100
0100
0110
0000
0100
0102
,
0000
0000
0000
0000
1003
0000
0000
0000
0100
0000
0000
0000
0010
0000
0100
1000
,
0001
0000
0000
0101
0000
0000
1010
0000
,
0100
1000
0001
1000
0010
1000
0100
0010
,
0100
0010
0100
1000
0001
1000
0010
0100
,
0001
0000
0000
1000
0000
0000
0001
0000
0000
0100
0000
0000
0010
0000
0001
0000
0010
0000
0001
0000
0010
0000
0001
0000
,
0010
0000
0000
0001
0010
0100
1000
0000
0000
1000
0001
0100
,
0010
0000
0100
1000
0000
0001
0010
0000
1000
0001
0100
0010
,
0100
0000
1000
0100
0010
0000
0010
0100
1000
0001
0000
0010
,
0100
0000
1000
0001
0000
0010
0100
0000
1000
0100
0010
0001
,
0010
1000
0001
0010
0001
0010
0001
0100
,
0010
0100
0010
0100
0001
1000
0100
0000
,
0101
0000
0000
0110
0000
0000
1010
0000
,
0010
0100
0010
0000
1000
0000
0001
0000
0100
0010
0100
0000
0001
0000
1000
0000
,
0002
0100
2003
3001
,
1001
0000
0100
1000
0100
0010
0001
1000
,
0010
1000
0001
0100
0001
1000
0100
1000
,
0010
0100
0001
0100
0001
0010
0001
1000
,
0100
0000
0010
0000
0001
0000
0100
0000
0010
0000
0100
0000
0001
0100
1000
0000
,
0010
0100
0001
0010
0100
1000
0010
0100
,
0010
1000
0001
1000
0001
1000
0010
0100
,
0001
0010
0100
1000
0001
1000
0010
1000
,
0100
1000
0010
0000
0001
0000
1000
0000
0001
0010
1000
0100
0010
0000
1000
0000
,
0010
0100
0010
1000
0001
0010
0100
0010
,
0100
0010
0001
0100
0001
1000
0010
1000
,
0001
0100
0010
1000
0010
1000
0100
1000
,
0010
0100
0001
0100
0001
1000
0010
0100
,
0001
0010
0001
1000
0001
0010
0100
1000
,
0100
0010
0001
0100
0001
0010
0001
0010
,
0100
0010
0100
1000
0010
0100
0001
1000
,
0001
0000
1000
0100
0001
0000
0010
0000
0100
0000
0010
0000
0001
0000
1000
0000
,
0001
0000
1000
0001
0010
0100
0010
1000
,
0001
0000
1000
0001
0100
0010
0100
0000
,
1000
0001
0100
0010
0000
0100
1000
0001
,
0000
0010
0100
1000
0001
0000
0010
0000
,
0100
1000
0001
0000
0100
0010
0100
1000
,
0001
0000
0010
0100
0000
1000
0001
0000
,
0100
0010
0001
0010
0100
1000
0100
0010
,
0001
0010
0001
0100
0002
0000
0203
0000
,
2300
0000
3000
2002
0000
0000
3003
0000
,
1000
0001
0010
0000
0200
0000
0000
0000
,
0301
1000
0001
1000
0010
1000
0001
0100
,
0001
1000
0100
1000
0100
0010
0100
0020
,
0000
0000
0030
0000
;
