#TITLE:Chibiverse Theme Song;
#SUBTITLE:TVアニメ「Chibiverse」;
#ARTIST:Disney;
#SUBTITLETRANSLIT:TV Anime「Chibiverse」;
#GENRE:キッズ;
#MUSIC:Chibiverse Theme Song.ogg;
#BANNER:Chibiverse Theme Song.png;
#BACKGROUND:Chibiverse Theme Song-bg.png;
#CDTITLE:./CDTitles/NSD WORLD.png;
#SAMPLESTART:4.114;
#SAMPLELENGTH:15.000;
#SELECTABLE:YES;
#OFFSET:0.000;
#BPMS:0.000=174.113;
#STOPS:;
#BGCHANGES:;
#FGCHANGES:;

//--------------- dance-single - ----------------
#NOTES:
     dance-single:
     :
     Beginner:
     1:
     0,0,0,0,0:
0000
0000
0000
0000
,
0000
0000
0000
0000
,
0000
0000
0000
0000
,
2000
0000
0000
0000
,
3010
0000
0000
0000
,
0001
0000
0000
0000
,
0010
0000
0000
0000
,
1000
0000
0001
0000
,
1000
0000
0000
0000
,
0010
0000
0000
0000
,
0001
0000
0000
0000
,
0100
0000
0000
0000
,
1000
0000
0000
0000
,
0001
0000
0000
0000
,
1000
0000
0000
0000
,
0010
0000
0000
0000
,
0100
0000
0000
0000
,
0010
0000
0000
0000
,
0002
0000
0000
0000
,
0003
0000
0000
0000
,
0001
0000
0000
0000
,
1000
0000
0000
0000
,
0001
0000
0000
0000
,
0000
0110
0000
0000
,
0000
1000
0000
0000
,
0000
0001
0000
0000
,
0000
0100
0000
0000
,
0000
1000
0000
0000
,
0000
0001
0000
0000
,
0000
0100
0000
0010
,
0000
0100
0000
0000
,
0000
0001
0000
0000
,
0000
1000
0000
0000
,
0000
0001
0000
1000
,
0000
0001
0000
0000
,
0100
0000
0000
0000
,
0000
1000
0000
0000
,
0001
1000
0000
0001
,
0000
1000
0000
0001
,
0000
1000
0000
0000
,
0001
0000
0000
0000
,
0000
0000
0000
0000
,
0000
0000
0000
0000
,
0000
0000
0000
0100
0000
1001
0000
0000
;

//--------------- dance-single - ----------------
#NOTES:
     dance-single:
     :
     Easy:
     3:
     0,0,0,0,0:
0000
0000
0000
0000
,
0000
0000
0000
0000
,
0000
0000
0000
0000
,
1001
0000
0000
0000
,
0010
0000
0000
0000
,
0100
0000
0000
0000
,
1000
0000
0001
0000
,
1000
0000
0000
0000
,
0010
0000
0100
0000
,
0010
0000
0000
0000
,
1000
0000
0001
0000
,
1000
0000
0000
0000
,
0001
0000
0010
0000
,
0100
0000
0000
0000
,
1000
0000
0100
0000
,
0010
0000
0000
0000
,
0001
0000
1000
0000
,
0001
0000
0000
0000
,
0200
0000
0000
0000
,
0300
0000
0000
0000
,
0001
0000
1000
0000
,
0001
0000
1000
0000
,
0010
0000
0100
0000
,
0000
1001
0000
0000
,
0000
0100
0000
0000
,
0010
1000
0001
0000
,
1000
0001
1000
0000
,
0000
1000
0000
0001
,
0000
1000
0000
0000
,
0000
0010
0000
0100
,
0000
1001
0000
0000
,
0000
0010
0000
0100
,
0000
0001
0000
1000
,
0000
0001
0000
0100
,
0000
0010
0000
0000
,
0000
0001
0000
0000
,
0000
1000
0000
0000
,
0000
0001
0000
1000
,
0000
0001
0000
0100
,
0000
1000
0000
0001
,
1000
0001
0000
0000
,
0000
0000
0000
0000
,
0000
0000
0000
0000
,
0000
0000
0000
0000
0000
1001
0000
0000
;

//--------------- dance-single - ----------------
#NOTES:
     dance-single:
     :
     Medium:
     7:
     0,0,0,0,0:
0000
0000
0000
0000
,
0000
0000
0000
0000
,
0000
0000
0000
0000
,
0020
0000
0000
0000
,
0130
1000
0100
0001
,
0010
0100
0001
1000
,
0001
1000
0100
0010
,
0100
0000
1000
0000
,
0001
0010
0100
0001
,
1000
0001
0100
0010
,
0100
1000
0001
0010
,
0100
0000
0102
0000
,
1003
0010
0100
0001
,
1000
0001
0100
0010
,
0100
1000
0001
0100
,
0010
0001
1001
0000
,
0010
0100
1000
0001
,
1000
0100
0000
0002
0000
0000
0000
0000
,
2003
0000
0000
0000
,
3001
0010
0100
1000
,
0001
1000
0001
0100
,
0010
1000
0001
1000
,
0001
1000
0002
0000
,
0000
0000
1003
0000
0100
0001
0000
1000
,
0000
0001
0100
0000
0010
0100
0000
1000
,
0000
0001
1000
0001
,
0100
0000
0010
1000
0100
0000
0000
0000
,
0001
1000
0001
0100
,
0010
0100
1000
0001
,
0010
0100
0001
0010
,
0000
0001
1000
0000
0110
0000
0001
0000
,
0010
0000
0100
0000
1000
0001
0000
0100
,
0000
0010
1000
0001
0100
1000
0000
0001
,
0000
1000
0100
0010
,
0001
2000
0000
3001
,
0100
0000
0000
0001
0000
0000
0100
0000
1000
0000
0000
0000
,
0100
0000
0000
0001
0000
1000
0100
0000
0001
0000
0000
0000
,
1001
0020
0230
2300
,
3002
0203
0000
0320
,
0000
2000
0000
0000
,
0000
0000
0000
3030
0000
0000
0000
0000
,
0000
0000
0000
0000
,
0000
0000
0000
0000
,
0000
0000
0000
0001
1000
0001
0000
0000
;

//--------------- dance-single - ----------------
#NOTES:
     dance-single:
     :
     Hard:
     11:
     0,0,0,0,0:
0000
0000
0000
0000
,
0000
0000
0000
0000
,
0000
0000
0000
0000
,
2000
0000
0000
0000
,
3001
0100
0010
0000
0100
0000
0001
0000
,
1000
0001
1000
0000
0100
0000
0010
0000
,
0100
0001
1000
0100
0010
0001
1000
0100
,
0010
0000
0100
0000
1001
0000
0100
1000
,
0001
0000
0100
0000
0010
0001
1000
0000
,
0001
1000
0001
0000
0100
0010
0001
0000
,
1000
0001
0100
0000
1000
0000
0001
0000
,
1001
0010
0200
0000
,
0310
1000
0001
0000
1000
0001
0100
0000
,
0010
0100
1000
0000
0001
1000
0100
0000
,
0001
0000
1000
0000
0010
0001
0010
0000
,
0100
0000
1000
0000
0001
1000
0001
0000
,
1000
0000
0001
0000
0100
0010
0100
0000
,
1000
0001
0000
2002
0000
0000
0000
0000
,
3003
0000
0000
0000
,
1000
0010
0001
0000
1000
0100
0010
0000
,
0100
0001
1000
0000
0200
0000
0000
0000
,
0320
0000
2030
0000
,
3002
0000
2003
0000
,
0100
0000
3010
0000
0001
1000
0001
0100
,
0010
1000
0001
0000
1000
0001
0100
0000
,
0001
1000
0001
0010
0100
0001
1000
0100
,
0001
1000
0001
0010
1001
0000
0000
0000
,
1000
0000
0001
0010
0100
1000
0010
0000
,
1000
0000
0001
0100
0010
0100
0000
1010
,
0000
1000
0001
0100
0010
0100
2000
0000
,
0000
3001
0200
0000
0310
0000
0100
0000
,
0001
0000
1000
0001
0100
0010
1000
0001
,
0100
1000
0001
0010
0100
0010
1000
0010
,
0000
0100
0001
1000
0010
1000
0100
0001
,
1000
0100
0002
0000
0023
0000
0230
0000
,
1300
0000
0000
0000
0000
0000
0001
0000
0000
0000
0100
0000
0000
0000
0000
1000
0000
0000
0000
0000
0000
0000
0000
0000
,
0010
0000
0000
0001
0000
0100
1000
0000
0001
0000
0000
0000
,
1001
0020
0230
2300
,
3002
0000
2003
0000
3002
0000
1003
0100
,
0010
0001
0100
0010
1000
0001
1000
0000
,
0001
1000
0001
0000
0000
0000
0000
0000
,
0000
0000
0000
0000
,
0000
0000
0000
0000
,
0000
0000
0000
0100
0010
1001
0000
0000
;
