#TITLE:愛♡スクリ~ム!;
#SUBTITLE:TVアニメ「ラブライブ!シリーズ」;
#ARTIST:AiScReam;
#TITLETRANSLIT:Ai Scream!;
#SUBTITLETRANSLIT:TV Anime「Love Live! Series」;
#GENRE:アニメ;
#LISTSORT:MOST POPULAR;
#MUSIC:Ai Scream!.ogg;
#BANNER:Ai Scream!.png;
#BACKGROUND:Ai Scream!-bg.png;
#CDTITLE:./CDTitles/NSD WORLD.png;
#SAMPLESTART:72.263;
#SAMPLELENGTH:15.000;
#SELECTABLE:YES;
#OFFSET:0.000;
#BPMS:0.000=132.000;
#STOPS:;
#BGCHANGES:;
#FGCHANGES:;

//--------------- dance-single - ----------------
#NOTES:
     dance-single:
     :
     Beginner:
     1:
     0,0,0,0,0:
0000
0000
0000
0000
,
0000
0000
0000
0000
,
0000
0000
0000
0000
,
0000
0000
0000
0000
,
0000
0000
0000
0000
,
0001
0000
0000
0000
,
0000
0000
0000
0000
,
0001
0000
0000
0000
,
0000
0000
0000
0000
,
1000
0000
0000
0000
,
0000
0000
0000
0000
,
1000
0000
0000
0000
,
0000
0000
0000
0000
,
0010
0000
0000
0000
,
0000
0000
0000
0000
,
0010
0000
0000
0000
,
0000
0000
0000
0000
,
0100
0000
0000
0000
,
0000
0000
0000
0000
,
0100
0000
0000
0000
,
0000
0000
0000
0000
,
0000
0000
0000
0000
,
0110
0000
0000
0000
,
0001
0000
0000
0000
,
0001
0000
0000
0000
,
0000
0000
0000
0000
,
1000
0000
0000
0000
,
1000
0000
0000
0000
,
0020
0000
0030
0000
,
0200
0000
0300
0000
,
0001
0000
0000
0000
,
1000
0000
0000
0000
,
0001
0000
0000
0000
,
1000
0000
0000
0000
,
0001
0000
0000
0000
,
1000
0000
0000
0000
,
0001
0000
0000
0000
,
1000
0000
0000
0000
,
0010
0000
0000
0000
,
0000
0000
0000
0000
,
0100
0000
0000
0000
,
0000
0000
0000
0000
,
1000
0000
0000
0000
,
0000
0000
0000
0000
,
0001
0000
0000
0000
,
0000
0000
0000
0000
,
0010
0000
0000
0000
,
0100
0000
0000
0000
,
0010
0000
0000
0000
,
0000
0000
0000
0000
,
1000
0000
0000
0000
,
0001
0000
0000
0000
,
1000
0000
0000
0000
,
0001
0000
0000
0000
,
0100
0000
0000
0000
,
0220
0000
0000
0000
,
0330
0000
0000
0000
;

//--------------- dance-single - ----------------
#NOTES:
     dance-single:
     :
     Easy:
     4:
     0,0,0,0,0:
0000
0000
0000
0000
,
0000
0000
0000
0000
,
0000
0000
0000
0000
,
0000
0000
0000
0000
,
0000
0000
0000
0000
,
1000
0000
0001
0000
,
1000
0000
0000
0000
,
0100
0000
0010
0000
,
0100
0000
0000
0000
,
0001
0000
1000
0000
,
0001
0000
0000
0000
,
0100
0000
0010
0000
,
0100
0000
0000
0000
,
0001
0001
0001
0000
,
0000
0000
0000
0000
,
1000
1000
1000
0000
,
0001
0001
0001
0000
,
0100
0000
0000
0000
,
0010
0000
0000
0000
,
0001
0001
0001
0000
,
1000
1000
1000
0000
,
0000
0000
0000
0000
,
1001
0000
0100
0000
,
0010
0001
0010
0000
,
1000
0000
0100
0000
,
1000
0100
1000
0000
,
0010
0000
0100
0000
,
1000
0100
0010
0000
,
0001
0000
1000
0000
,
0001
0000
1000
0000
,
0001
0000
0001
0000
,
0001
0000
0000
0000
,
1000
0000
1000
0000
,
1000
0000
0000
0000
,
0010
0000
0010
0000
,
0100
0000
0010
0000
,
0010
0000
0100
0000
,
0010
0010
0010
0000
,
2002
0000
0000
3003
,
0000
0000
0000
0000
,
0010
0000
1000
0000
,
0100
0000
0010
0000
,
0001
0000
0001
0000
,
1000
0000
1000
0000
,
0100
0000
0000
0000
,
0010
0000
0100
0000
,
1000
0000
0000
0000
,
0001
0000
1000
0000
,
0001
0000
0000
0000
,
0010
0000
0100
0000
,
1000
0000
0000
0000
,
0001
0000
1000
0000
,
0001
0000
0000
0000
,
0100
0000
0010
0000
,
0100
0000
0000
0000
,
1000
0001
1000
0000
,
2002
0000
0000
0000
,
0000
0000
0000
0000
,
0000
0000
0000
0000
,
0000
0000
0000
3003
;

//--------------- dance-single - ----------------
#NOTES:
     dance-single:
     :
     Medium:
     7:
     0,0,0,0,0:
0000
0000
0000
0000
,
0000
0000
0000
0000
,
0000
0000
0000
0000
,
0000
0000
0000
0000
,
0000
0000
0000
0000
,
1000
0010
0100
0000
,
0001
1000
0001
0000
,
0010
0100
1000
0000
,
1000
0100
0010
0000
,
0001
1000
0001
0000
,
0100
0010
0001
0000
,
1000
0001
0100
0000
,
0010
0100
0001
0000
,
0010
0000
0100
0000
,
1000
0001
1000
0000
,
0100
0000
0010
0000
,
0001
0001
0001
0000
,
1000
0000
0100
0000
,
0001
0000
0010
0000
,
0100
0000
1000
0000
,
0010
0100
0010
0000
,
0000
0000
0000
0000
,
1001
0100
0010
0000
,
0001
1000
0001
0000
,
0001
0010
0100
0000
,
1000
0001
0100
0010
,
0001
0001
0001
0000
,
1000
1000
1000
0000
,
0100
0010
0002
0003
,
1000
0001
0200
0300
,
0101
0010
1010
0000
,
0100
0010
0001
0000
,
1000
0001
1000
0001
,
0100
0010
0220
0330
,
0001
0010
0100
1000
,
0001
1000
0001
0000
,
0100
1000
0001
0100
,
0010
0001
2002
0000
,
3003
0000
0000
0000
,
0000
0000
0000
0000
,
0001
0000
1000
0001
,
0100
0010
0200
0300
,
1000
0001
1000
0001
,
0100
0010
0100
0010
,
0200
0300
0101
0000
,
0010
0001
0110
0000
,
1000
0001
1000
0000
,
0001
0010
0100
0000
,
1000
0001
2002
3003
,
0100
0100
0001
0000
,
1000
0001
0100
0000
,
0010
0001
1000
0000
,
0001
1000
0002
1003
,
0010
0100
0010
0000
,
1000
0001
0010
0100
,
1000
0001
2002
3003
,
0220
0000
0000
0000
,
0000
0000
0000
0000
,
0000
0000
0000
0000
,
0000
0000
0000
0330
;

//--------------- dance-single - ----------------
#NOTES:
     dance-single:
     :
     Hard:
     13:
     0,0,0,0,0:
0000
0000
0000
0000
,
0000
0000
0000
0000
,
0000
0000
0000
0000
,
0000
0000
0000
0000
,
0000
0000
0000
0000
,
1000
0001
0010
0100
,
1000
0001
1000
0000
0001
0000
0100
0000
,
0001
0010
0100
0000
1001
0000
0000
0000
,
1000
0001
0100
0000
0110
0000
0001
0000
,
1000
0000
0001
0000
0100
0010
0100
0000
,
1000
0000
0001
0000
0100
0010
0001
0000
,
1000
0001
1000
0000
1001
0000
0100
0000
,
0010
0001
0010
0000
0110
0000
1001
0000
,
0200
0000
0301
0000
1000
0001
1000
0000
,
0100
0000
0010
0000
0001
1000
0001
0000
,
0001
0100
2000
3001
,
0001
0010
0200
0000
0310
0000
0010
0000
,
0001
0010
1000
0001
0100
0000
0010
0000
,
0100
1000
0001
0000
0100
0000
0010
0000
,
1000
0001
1000
0010
,
0200
0000
0010
0000
0000
0010
0310
0000
,
0100
0000
0100
0000
0001
1000
0001
0000
,
0110
0000
1010
0000
0101
0000
0001
1000
,
0001
0100
0010
0000
0110
0000
0001
0000
,
0001
0010
0100
0000
1001
0000
0100
1000
,
0020
0000
1030
0000
0001
1000
0001
0000
,
1100
0000
0101
0000
1010
0000
0001
0010
,
1000
0001
1000
0000
0001
0010
0100
0000
,
1020
0000
0000
0100
0130
0000
0001
0000
,
0201
0000
0000
0010
0310
0000
0011
0000
,
0010
0000
0100
0010
1000
0000
0100
0001
,
0010
0000
0100
1000
0001
0000
1000
0000
,
0001
0000
1000
0001
0100
0000
1000
0001
,
0010
1000
0100
0001
1000
0000
1001
0000
,
0110
0000
0010
0100
0010
0000
1000
0010
,
1000
0000
0001
0100
0001
0000
0101
0000
,
1000
0000
0001
1000
0001
0000
1000
0001
,
1000
0000
0001
0100
2002
0000
0000
0000
,
3003
0000
0000
0000
,
0000
0000
0000
0000
0000
0000
0000
0000
0000
0000
0000
0000
0001
1000
0001
1000
,
0002
1003
0220
0330
,
0001
1000
0002
0000
0200
0000
0303
0000
,
0200
0300
0200
0300
0002
0000
0000
0000
1003
0000
0000
0000
0000
0001
1000
0001
,
1000
0000
0000
0000
0010
0000
0000
0000
0110
0000
0000
0000
0000
0000
0001
1000
,
0002
0003
0220
0330
,
1000
0001
1000
0000
0220
0000
0330
0000
,
0001
1000
0001
0000
0100
0000
0010
0000
0100
0000
0000
0001
0000
0000
1000
0000
,
0200
0000
0300
0000
0200
0000
0300
0000
0002
0000
0003
0000
0000
0000
0100
0010
,
0002
1003
2020
3030
,
0001
1000
0001
0000
0220
0000
0330
0000
,
1000
0000
0001
0000
1000
0000
0100
0000
0010
0000
0000
0100
0000
0000
1000
0001
,
1000
0000
0010
0000
0110
0000
0000
0200
,
0020
0330
2002
3003
,
0001
0010
1000
0000
0202
0000
0303
0000
,
0001
1000
0001
0000
0110
0000
0001
1000
,
0001
0000
1000
0100
0220
0000
0330
0000
,
2002
0000
0000
0000
,
0000
0000
0000
0000
,
0000
0000
0000
0000
,
0000
0000
0000
3003
;
