
//----- song ID: jbqu -----//
#TITLE:Qubellic Prism;
#ARTIST:Nazzo-Non-Heat;
#GENRE:jubeat;
#MUSIC:Qubellic Prism.ogg;
#BANNER:Qubellic Prism.png;
#BACKGROUND:Qubellic Prism-bg.png;
#CDTITLE:./CDTitles/jubeat Qubell.png;
#SAMPLESTART:19.757;
#SAMPLELENGTH:15.000;
#SELECTABLE:YES;
#OFFSET:0.000;
#BPMS:0.000=170.000;
#STOPS:;
#BGCHANGES:;
#FGCHANGES:;

//--------------- dance-single - ----------------
#NOTES:
     dance-single:
     :
     Beginner:
     1:
     0,0,0,0,0:
0000
0000
0000
0000
,
0000
0000
0000
0000
,
0000
0000
0000
0000
,
0000
0000
0000
0000
,
0000
0000
0000
0000
,
0000
0000
0000
0000
,
0000
0000
0000
0000
,
0001
0000
0000
0000
,
0000
0000
0000
0000
,
0010
0000
0000
0000
0000
0000
0000
2002
,
0000
0000
0000
0000
,
0000
0000
0000
0000
,
3003
0000
0000
0000
,
0000
0000
0000
0000
,
0010
0000
0000
0000
0000
0000
0000
1000
,
0000
0000
0000
0000
,
0010
0000
0000
0000
0000
0000
0000
0001
,
0000
0000
0000
0000
,
0010
0000
0000
0000
0000
0000
0000
0100
,
0000
0000
0000
0000
,
1000
0000
0000
0000
0000
0000
0000
0010
,
0000
0000
0000
0000
,
1001
0000
0000
0000
,
0000
0000
0000
0010
0000
0000
0000
0000
,
0100
0000
0000
0000
0000
0000
0000
1000
,
0000
0000
0000
0000
,
0010
0000
0000
0000
0000
0000
0000
1000
,
0000
0000
0000
0000
,
0001
0000
0000
0100
0000
0000
0000
0010
,
0000
1000
0000
0000
,
0001
0000
0000
0220
0000
0000
0000
0330
,
0000
0000
0000
0000
,
0000
0000
0000
0000
,
1000
0000
0000
0000
,
0000
0000
0000
0000
,
0001
0000
0000
0000
,
0000
0000
0000
0000
,
0010
0000
0000
0000
,
0000
0000
0000
0000
,
1000
0000
0000
0000
,
0000
0000
0000
0000
,
0001
0000
0000
0000
,
0000
0000
0000
0000
,
0100
0000
0000
0000
,
0000
0000
0000
0000
,
0100
0000
0000
0000
,
0000
0000
0000
0000
,
1000
0000
0000
0001
0000
0010
0000
0100
,
0000
0000
0000
0000
,
1000
0000
0000
0000
,
0000
0020
0000
0000
,
0000
0000
0000
0000
,
0000
0000
0030
0000
,
1000
0000
0000
0000
,
0000
0020
0000
0000
,
0000
0000
0000
0000
,
0000
0030
0000
0000
,
0000
0000
0000
0000
,
0000
0000
0000
0000
,
1000
0000
0000
0000
0000
0000
0000
0001
,
0000
0000
0000
0000
,
0100
0000
0000
0000
0000
0000
0000
0010
,
0000
0000
0000
0000
,
1000
0000
0000
0000
,
0001
0000
0000
0000
,
0100
0000
0000
0000
,
1000
0000
0000
0100
0000
0010
0000
0000
,
0001
0000
0000
0000
,
1000
0000
0000
0000
,
0010
0000
0000
0000
,
0100
0000
0000
0000
,
0010
0000
0000
0000
,
1000
0000
0000
0000
,
0001
0000
0000
1000
0000
0000
0010
0000
,
0000
0100
0000
0000
0000
0000
0000
0000
,
1001
0000
0000
0000
0000
0000
0000
0010
,
0000
0000
0000
0000
,
0100
0000
0000
0000
0000
0000
0000
1000
,
0000
0000
0000
0000
,
0001
0000
0000
0000
0000
0000
0000
0010
,
0000
0000
0000
0000
,
1000
0001
0000
0000
,
0010
0000
0000
0100
0000
0000
0010
0000
,
0000
1001
0000
0000
0000
0000
0000
0000
;

//--------------- dance-single - ----------------
#NOTES:
     dance-single:
     :
     Easy:
     3:
     0,0,0,0,0:
0000
0000
0000
0000
,
0000
0000
0000
0000
,
0000
0000
0000
0000
,
0000
0000
0000
0000
,
0000
0000
0000
0000
,
0000
0000
0000
0000
,
0000
0000
0000
0000
,
0010
0000
0000
0100
0000
0000
0000
1000
,
0000
0000
0000
0001
0000
0000
0010
0000
,
0100
0000
0000
0010
0000
0100
0000
2002
,
0000
0000
0000
0000
,
0000
0000
0000
0000
0000
0000
0000
3003
,
0000
0000
0000
0000
,
0000
0000
0000
0000
0000
0020
0000
0000
,
1030
0000
0000
0000
0000
0001
0000
0010
,
0000
0000
0000
0100
0000
0000
0010
0000
,
1000
0000
0000
0000
0000
0001
0000
0010
,
0000
0100
1000
0001
,
0100
0000
0000
0000
0000
0010
0000
0100
,
0000
0000
0000
0010
0000
0000
0001
0000
,
1000
0000
0000
0001
0000
0000
0000
0100
,
0000
0000
0010
0000
0000
0100
0000
0000
,
1001
0000
0000
0000
0000
0100
0000
0001
,
0000
0000
0000
0010
0000
0000
0100
0000
,
1000
0000
0000
0000
0000
0001
0000
0010
,
0000
0100
0010
1000
,
0001
0000
0000
0000
0000
0010
0000
0100
,
0000
0000
0000
0010
0000
0000
0001
0000
,
0010
0000
0000
1000
0000
0000
0000
0001
,
0000
0000
1000
0000
0000
0001
0000
0000
,
0010
0000
0000
0220
0000
0000
0000
0000
,
0330
0000
0000
0000
,
0000
0000
0000
0000
,
1000
0000
0000
0000
0000
0010
0000
0001
,
0000
0100
0000
0000
0000
0000
0000
0000
,
1000
0000
0000
0000
0000
0010
0000
0100
,
0000
0010
0000
0000
0000
0000
0000
0000
,
1000
0000
0000
0000
0000
0001
0000
1000
,
0000
0001
0000
0000
0000
0000
0000
0000
,
0010
0000
0000
0100
0000
1000
0000
0001
,
0000
0000
0200
0000
0000
0320
0000
0000
,
1030
0000
0000
0000
0000
0001
0000
0010
,
0000
0000
0000
0000
,
1000
0000
0000
0000
0000
0010
0000
0100
,
0000
0001
0000
0000
,
1000
0000
0000
0000
0000
0100
0000
0010
,
0000
0000
1000
0000
,
0100
0000
0000
0010
0000
1000
0000
0002
,
0000
0000
0003
0000
,
1000
0000
0000
0100
0000
0010
0000
1000
,
0000
0001
0020
0000
0000
0000
0000
0000
,
0000
0000
0000
0000
,
0000
0000
0030
0000
,
0010
0000
1000
0001
0000
0100
0000
0010
,
0000
1000
0002
0000
0000
0000
0000
0000
,
0000
0000
0000
0000
,
0000
0000
0000
0000
0000
0000
0000
0003
,
0000
0000
0000
0000
,
0000
0000
0000
0000
,
1000
0001
0100
0000
,
0010
0100
0001
0000
,
1000
0001
0100
0000
,
0010
0000
0100
1000
,
0001
0000
1000
0001
,
0100
0000
0010
0100
,
0001
0000
0000
1000
0000
0000
0001
0000
,
0000
0100
0000
0010
0000
0100
0000
0000
,
1000
0001
0100
0000
,
0010
0100
0001
0000
,
1000
0000
0001
0000
0100
0000
0000
0010
,
0000
0000
1000
0001
,
0100
0000
0000
0000
0000
0010
0000
0100
,
0000
0000
0000
1000
0000
0000
0001
0000
,
0100
0000
0000
0010
0000
0000
0100
0000
,
0000
2000
0000
0000
0000
0000
0000
0000
,
3001
0000
0010
0000
0000
0100
0000
1000
,
0000
0000
0000
0001
0000
0000
0010
0000
,
0100
0000
0000
0000
0000
0010
0000
0100
,
0000
0001
1000
0010
,
0100
0000
0000
0000
0000
1000
0000
0001
,
0000
0000
0000
0100
0000
0000
0010
0000
,
1000
0001
0000
0000
,
0010
0000
0000
0100
0000
0000
0010
0000
,
0000
1001
0000
0000
0000
0000
0000
0000
;

//--------------- dance-single - ----------------
#NOTES:
     dance-single:
     :
     Medium:
     8:
     0,0,0,0,0:
0000
0000
0000
0000
,
0000
0000
0000
0000
,
0000
0000
0000
0000
,
0000
0000
0000
0000
,
0000
0000
0000
0000
,
0000
0000
0000
0000
,
0000
0000
0000
0000
,
0001
0000
0000
0010
0000
0000
0000
0100
,
0000
0000
0000
1000
0000
0000
0001
0000
,
0010
0000
0000
0100
0000
1000
0000
2002
,
0000
0000
0000
0000
,
0000
0000
0000
0000
0000
0000
0000
3003
,
0000
0000
0000
0000
,
0000
0000
0000
0000
0000
2000
0000
0000
,
3001
0000
0010
0100
0000
1000
0000
0001
,
0000
0010
0100
1000
0000
0000
0010
0000
,
0100
0000
1000
0001
0000
0100
0000
0010
,
0000
1000
0001
0010
,
0100
0000
0010
1000
0000
0001
0000
0010
,
0000
0100
0010
0001
0000
0000
1000
0000
,
0001
0000
0100
0010
0000
0100
0000
1000
,
0000
0001
0000
0000
0100
0000
0000
0010
0000
0000
0100
0000
0000
1000
0000
0000
,
0001
0000
0010
0100
0000
1000
0000
0001
,
0000
0000
0100
0010
0000
0000
1000
0000
,
0001
0000
0010
0100
0000
0001
0000
0010
,
0000
0100
0010
1000
,
0001
0000
0100
0010
0000
1000
0000
0001
,
0000
0000
0000
0010
0000
0100
0010
0000
,
1000
0000
0000
0001
0000
0000
0000
0100
,
0000
0000
0000
0000
1000
0000
0000
0100
0000
0000
0001
0000
0000
0010
0000
0000
,
0100
0000
0000
0010
0000
0000
2002
0000
0000
0000
0000
0000
0000
0000
0000
0000
,
3003
0000
0000
0000
,
0000
0000
0000
0000
,
1000
0000
0010
0000
1000
0010
0000
0001
,
0000
0100
0000
0000
0010
0000
0100
0000
,
1000
0000
0001
0000
0100
0010
0000
0100
,
0000
0010
0000
0000
1000
0000
0001
0000
,
1000
0000
0100
0000
0010
0001
0000
1000
,
0000
0001
0000
0000
0100
0000
1000
0000
,
0010
0000
0000
0100
0000
1000
0000
0001
,
0000
0000
0200
0000
0000
0320
0000
0000
,
1030
0000
0100
0000
1000
0001
0000
0010
,
0000
1000
0001
0100
,
1000
0000
0100
0000
0001
0010
0000
0100
,
0000
0001
0100
0010
,
1000
0000
0001
0000
0010
0100
0000
0010
,
0000
0001
1000
0001
,
0100
0000
0000
0010
0000
1000
0000
0002
,
0000
0000
0003
0000
,
1000
0000
0001
0100
0000
0010
0000
1000
,
0000
0001
0020
0000
0000
0000
0000
0100
,
0000
0000
0100
0000
0000
0000
0000
0100
,
0000
0130
0000
0000
,
0010
0000
1000
0001
0000
0100
0000
0010
,
0000
1000
0002
0000
0000
0000
0000
1000
,
0000
0000
1000
0000
0000
0000
0000
1000
,
0000
0000
1000
0000
0000
0000
0000
0003
,
1000
0000
0000
0010
0000
0000
0100
0000
,
0000
0010
0000
0000
0100
0000
0010
0000
,
1000
0000
0001
0010
0100
0000
0000
1000
,
0010
0100
0001
0000
,
1000
0000
0001
0000
0100
1000
0000
0100
,
0010
0000
0100
1000
,
0001
0000
0010
0000
1000
0100
0001
0000
,
0100
0000
0000
0000
0010
1000
0100
0000
,
0001
0000
0000
1000
0000
0000
0001
0000
,
0000
0100
0000
0010
0000
0100
0000
0000
,
1000
0000
0001
0000
0100
1000
0000
0000
,
0010
0000
0100
0000
0001
1000
0000
0000
,
1000
0000
0001
0000
0100
0001
0000
0010
,
0000
0000
0010
0000
1000
0000
0001
1000
,
0100
0000
0000
0000
0001
0010
0000
0100
,
0000
0000
0001
1000
0000
0000
0001
0000
,
0100
0000
0000
0010
0000
0000
0100
0000
,
0000
2000
0000
0000
0000
0000
0000
0000
,
3001
0000
0010
1000
0000
0100
0000
1000
,
0000
0000
0100
0001
0000
0000
0010
0000
,
0100
0000
1000
0001
0000
0010
0000
0100
,
0000
0001
1000
0010
,
0100
0000
0010
0100
0000
1000
0000
0001
,
0000
0000
0010
0100
0000
0000
0010
0000
,
1000
0001
0000
0000
,
0011
0000
0000
1100
0000
0000
0110
0000
,
0000
1001
0000
0000
0000
0000
0000
0000
;

//--------------- dance-single - ----------------
#NOTES:
     dance-single:
     :
     Hard:
     12:
     0,0,0,0,0:
0000
0000
0000
0000
,
0000
0000
0000
0000
,
0000
0000
0000
0000
,
0000
0000
0000
0000
,
0000
0000
0000
0000
,
0000
0000
0000
0000
,
0000
0000
0000
0000
,
1000
0000
0000
0001
0000
0000
0000
0100
,
0000
0000
0000
0010
0000
0000
0100
0000
,
1000
0000
0000
0001
0000
0100
0000
2002
,
0000
0000
0000
0000
,
0000
0000
0000
0000
0000
0000
0000
3003
,
0000
0000
0000
0001
0000
0000
1000
0000
0000
0000
0100
0000
0000
0000
0010
0000
,
0000
1000
0100
0010
0001
2000
0000
0000
,
3001
0000
0010
1000
0000
0110
0000
1001
,
0000
0010
0100
1000
0000
0000
0010
0000
,
0100
0000
1000
0010
0000
0001
0000
0100
,
0000
1000
0001
0100
,
0001
0000
0010
1000
0000
0110
0000
1001
,
0000
0010
0100
1000
0000
0000
0010
0000
,
0100
0000
1000
0010
0000
0001
0000
0100
,
0000
0000
0000
0000
1000
0000
0000
0001
0000
0000
1000
0000
0000
0010
0000
0000
,
1001
0000
0010
1000
0000
0110
0000
1001
,
0000
0010
0100
1000
0000
0000
0010
0000
,
0100
0000
1000
0010
0000
0001
0000
0100
,
0000
1000
0001
0100
,
0001
0000
0010
1000
0000
0110
0000
1001
,
0000
0010
0100
1000
0000
0000
0010
0000
,
0100
0000
1000
0010
0000
0001
0000
0100
,
0000
0000
0000
0000
1000
0000
0000
0001
0000
0000
1000
0000
0000
0001
0000
0000
,
0010
0000
0000
0100
0000
0000
2002
0000
0000
0000
0000
0000
0000
0000
0000
0000
,
3003
0000
0000
0000
,
0000
0000
0000
0000
,
0001
0010
0100
1000
0001
0000
0100
1000
,
0001
0100
0000
1000
0000
0001
0100
1000
,
0010
0000
0000
0100
1000
0001
0000
1000
,
0000
0001
0000
0100
0000
1000
0000
0010
,
0100
1000
0001
0010
0100
0000
1000
0001
,
0010
0100
0000
1000
0001
0100
0010
0100
,
1000
0000
0000
0001
0000
0100
0000
0010
,
0000
0000
2000
0000
0000
3002
0000
0000
,
1003
0100
0010
0001
1000
0000
0010
0002
,
0000
0100
0010
0100
,
1003
0100
0010
1000
0001
0000
1000
0002
,
0000
1000
0000
0010
0000
0000
0000
0100
,
0013
0100
1000
0100
0010
0000
0001
1000
,
0000
0000
0001
0000
0000
1000
0000
0000
0001
0000
0100
0000
1000
0000
0000
0000
,
0001
0000
0100
1000
0000
0001
0000
2002
,
0000
0000
0000
3003
,
1000
0000
0010
0100
0000
0001
0000
0100
,
0000
1000
0002
0000
0000
1000
0000
0100
,
0000
0010
0000
0100
0000
0010
0000
0100
,
0000
0010
0000
0100
0000
0010
0000
0100
,
1003
0000
0100
0010
0000
0000
0100
0001
,
0000
0100
2000
0000
0000
0001
0000
0010
,
0000
0100
0000
0010
0000
0100
0000
0010
,
0000
0100
0000
0010
0000
0100
0000
0010
,
0000
0000
0000
0000
,
3000
0000
0000
0002
,
1003
0000
0100
1000
0010
0100
0000
0001
,
1000
0001
0100
0010
0000
0100
0000
1000
,
0000
0001
0100
1000
0001
0100
0000
2000
,
0000
0000
3002
0000
,
1003
0100
0010
0100
0001
1000
0000
0001
,
0100
0000
0001
1000
0100
0001
1000
0000
,
0010
0000
0000
1000
0000
0000
0001
0000
,
0000
0100
0000
0010
0000
0100
0000
0000
,
0001
0000
0010
0001
0100
0010
0000
1000
,
0001
1000
0010
0100
0000
0010
0000
0001
,
0000
1000
0010
0001
1000
0010
0000
0002
,
0000
0000
2003
0000
,
3001
0010
0100
0010
1000
0001
0000
1000
,
0010
0000
1000
0001
0010
1000
0001
0000
,
0100
0000
0000
0001
0000
0000
1000
0000
,
0000
0020
0000
0000
0000
0000
0000
0000
,
0031
0000
0010
1000
0000
0110
0000
1001
,
0000
0010
0100
1000
0000
0000
0010
0000
,
0100
0000
1000
0010
0000
0001
0000
0100
,
0000
1000
0001
0100
,
0001
0000
0010
1000
0000
0110
0000
1001
,
0000
0010
0100
1000
0000
0000
0010
0000
,
0100
1000
0000
0000
,
0001
0000
0000
0010
0000
0000
0100
0000
,
0000
2002
0000
0000
0000
0000
0000
0000
,
0000
0000
0000
0000
,
3003
0000
0000
0000
;
