
//----- song ID: koyu -----//
#TITLE:Mecha Kawa Breaker!!;
#ARTIST:BEMANI Sound Team "ZAQUVA";
#GENRE:ナムコオリジナル;
#MUSIC:Mecha Kawa Breaker!!.ogg;
#BANNER:Mecha Kawa Breaker!!.png;
#BACKGROUND:Mecha Kawa Breaker!!-bg.png;
#CDTITLE:./CDTitles/NSD GRAND PRIX.png;
#SAMPLESTART:20.175;
#SAMPLELENGTH:15.000;
#SELECTABLE:YES;
#OFFSET:0.000;
#BPMS:0.000=214.000
,68.000=107.000
,116.000=214.000
,376.000=856.000
,377.000=428.000
,377.500=202.000
,377.625=101.000
,377.750=50.500
,377.875=31.250
,378.000=214.000
;
#STOPS:378.000=2.500;
#BGCHANGES:;
#FGCHANGES:;

//--------------- dance-single - ----------------
#NOTES:
     dance-single:
     :
     Beginner:
     9:
     0.312108,0.448196,0.096386,0.056225,0,272,260,12,7,0,0,0,0,0,0.312108,0.448196,0.096386,0.056225,0,272,260,12,7,0,0,0,0,0:
0000
0000
0000
0000
,
0000
0000
0000
0000
,
0000
0000
0000
0000
,
0000
0000
0000
0000
,
0000
0000
0000
0000
,
0000
0000
0000
0000
,
0000
0000
0000
0000
,
0000
0000
0000
0000
,
0000
0000
0000
0000
,
0000
0000
0000
0000
,
0002
0000
0003
0000
,
2000
0000
3000
0000
,
0200
0000
0300
0000
,
0020
0000
0030
0000
,
0001
0000
0001
0000
,
1000
0000
1000
0000
,
0010
0000
0010
0000
,
0100
0000
0001
0000
,
1001
1000
0100
1000
,
0001
0001
0100
0001
,
1000
0010
0100
0001
,
0001
0010
0100
1000
,
0001
0001
1000
1000
,
0010
0010
0100
0100
,
0001
0010
0100
1000
,
0100
0010
0001
1000
,
0001
0010
0100
0010
,
0001
0100
0010
1000
,
1000
0010
0010
0100
,
0100
0110
1001
0000
,
1000
0100
1000
0000
,
0001
0000
0001
0100
,
0001
0000
0001
0000
,
0010
0000
0100
0000
,
1000
0010
1000
0000
,
0001
0000
0001
0010
,
0001
0000
0001
0000
,
0100
0000
0001
0001
,
0001
0010
0001
0000
,
1000
0000
1000
0010
,
1000
0000
1000
0000
,
0100
0000
0010
0000
,
0001
0100
0001
0000
,
1000
0000
1000
0100
,
1000
0000
1000
0000
,
0010
0000
0100
1001
,
0001
0001
0001
0001
,
0001
0001
0001
0001
,
1000
1000
1000
1000
,
1000
1000
1000
1000
,
0100
0100
0100
0100
,
0100
0100
0100
0100
,
0010
0010
0010
0010
,
0020
0000
0130
0000
,
1000
0010
1000
0010
,
0100
0010
0100
0100
,
0001
0010
0001
0010
,
0100
0010
0100
0100
,
1000
0100
0010
0001
,
1000
0010
0100
0001
,
0100
0100
0010
0010
,
0200
0300
0110
0000
,
0001
0000
0000
0000
,
0100
0000
0000
0000
,
0010
0000
0000
0000
,
1000
0000
0000
0000
,
1000
0000
0000
0000
,
0100
0000
0000
0000
,
0010
0000
0000
0000
,
0001
0000
0000
0000
,
1000
1000
1000
0010
,
0100
0100
0100
0000
,
0001
0001
0001
0010
,
0100
0100
0100
0000
,
1000
1000
0010
0100
,
0001
0001
0010
0010
,
0001
0001
0010
0100
,
1000
1000
0020
0030
,
1001
0100
1001
0100
,
1001
0001
1000
0000
,
1001
0010
1001
0010
,
1001
1000
0001
0000
,
1000
1000
0100
0100
,
0010
0010
0001
0000
,
0001
0001
0100
0100
,
0010
0010
1000
0010
,
1000
0010
0100
0001
,
0001
0010
0100
1000
,
1000
0010
1000
0010
,
0100
0001
0010
0100
,
1000
1000
0001
0001
,
1000
1000
0001
0001
,
0100
0100
0010
0010
,
1000
0100
0010
0001
,
2002
0000
0000
0000
0000
0000
0000
0000
0000
0000
0000
0000
0000
0000
0000
0000
0000
3003
0000
0000
0000
0000
0000
0000
0000
0000
0000
0000
0000
0000
0000
0000
;

//--------------- dance-single - ----------------
#NOTES:
     dance-single:
     :
     Easy:
     10:
     0.45095,0.829424,0.032129,0.112451,0.289159,393,389,4,14,0,0,0,0,0,0.45095,0.829424,0.032129,0.112451,0.289159,393,389,4,14,0,0,0,0,0:
0000
0000
0000
0000
,
0000
0000
0000
0000
,
0000
0000
0000
0000
,
0000
0000
0000
0000
,
0000
0000
0000
0000
,
0000
0000
0000
0000
,
0000
0000
0000
0000
,
0000
0000
0000
0000
,
0000
0000
0000
0000
,
0000
0000
0000
0000
,
1000
0000
1000
0000
,
0001
0000
0001
0000
,
0100
0000
0100
0000
,
0010
0000
0010
0000
,
1000
0100
0010
0001
,
1000
0100
0010
0001
,
0100
0010
1000
0100
,
0010
0000
0100
0010
0100
0000
0110
0000
,
0001
0000
0010
0000
0100
0000
0000
1000
0000
1000
0000
1000
0001
1000
0000
0010
,
0000
0100
0000
0001
0000
0000
0010
0001
0000
0010
0000
0001
0000
0100
0010
0000
,
1000
0000
0010
0000
0100
0000
0000
0001
0000
0001
0000
0001
1000
0001
0000
0010
,
0000
0100
0000
1000
0000
0000
0010
0100
0000
0001
0000
1000
0000
0100
0010
0100
,
1000
0000
0100
0010
0000
0001
0000
0100
0000
0010
0000
0010
1000
0000
0001
1000
,
0001
0000
0100
0010
0000
1000
0000
0100
0000
0010
0000
0010
0001
1000
0001
0000
,
0001
0000
0010
0100
0000
1000
0000
0010
0000
0100
0000
0100
0001
0000
1000
0001
,
1000
0000
0010
0100
0000
0001
0000
0010
0000
0100
0000
0100
1000
0000
1000
0001
,
0000
0000
0000
0100
0000
0000
0010
1000
0000
0000
0000
0100
0000
0010
0001
0000
,
0001
0000
0100
0010
0000
0100
0000
0001
0000
1000
0000
0100
0000
0000
0010
0000
,
0010
0001
0001
0100
0100
0010
0010
1000
,
1000
0100
0100
0010
0001
0000
0000
0001
,
1000
0100
1000
0000
0001
0100
0001
0000
,
0100
0000
0010
0100
0000
0010
0100
0000
,
0001
0000
0001
0000
1000
0001
1000
0000
,
0010
0000
1000
0100
0000
0010
0100
0000
,
2000
0000
3001
0000
0010
0100
0010
0000
,
0001
0000
0010
0100
0000
1000
0001
0000
,
0001
0001
1000
1000
,
0010
0000
0010
1000
0000
1000
0001
1000
,
0001
0000
0001
0000
1000
0100
1000
0000
,
0100
0000
0010
0100
0000
0010
0100
0000
,
1000
0000
1000
0000
0001
1000
0001
0000
,
0010
0000
0001
0100
0000
0010
0100
0000
,
0002
0000
1003
0000
0010
0100
0010
0000
,
1000
0000
0010
0100
0000
0001
1000
0000
,
1000
0001
1000
0000
0001
1000
0001
0000
,
0010
0010
0010
1001
,
1000
0010
1000
0000
0100
0000
1000
0000
,
0010
1000
0100
1000
,
1000
0001
0100
0001
,
0001
0010
0001
0100
,
0100
0001
1000
0100
,
1000
0010
1000
0100
,
0100
1000
0001
0100
,
0200
0300
0100
0000
,
0001
0010
0100
1000
,
0010
0100
0001
0010
,
0100
0100
1000
0010
,
0100
0001
0100
0001
0100
0000
0100
0000
,
0001
0001
1000
1000
,
0100
0000
0100
0010
0100
0000
0010
0000
,
0001
0001
1000
1000
,
0010
0100
0010
0000
0200
0000
0300
0000
,
0002
0000
0000
0000
,
0203
0000
0000
0000
,
0320
0000
0000
0000
,
2030
0000
0000
0000
,
3002
0000
0000
0000
,
0023
0000
0000
0000
,
0230
0000
0000
0000
,
2300
0000
3001
0000
,
1000
0000
0000
0100
0000
0000
1000
0000
0100
0000
0000
0000
0000
0000
0000
0010
,
0000
0001
0010
0000
0001
0000
0000
0000
,
1000
0000
0000
0010
0000
0000
1000
0000
0010
0000
0000
0000
0000
0000
0000
0100
,
0000
0001
0100
0000
0001
0000
1000
0000
,
0001
0000
0000
0010
0000
0000
0100
0000
1000
0000
0000
0000
0000
0000
0000
0100
,
0000
0010
0100
0000
1000
0000
0000
0000
,
0001
0000
0000
0100
0000
0000
0010
0000
1000
0000
0000
0000
0000
0000
0000
0010
,
0000
0100
0010
0000
1000
0000
0000
0000
,
0001
0000
0000
0100
0000
0000
0000
0000
0001
0000
0000
0100
0000
0000
0000
0000
,
0001
0010
0001
0000
1000
0000
0010
0000
,
1000
0000
0000
0100
0000
0000
0000
0000
1000
0000
0000
0100
0000
0000
0000
0000
,
1000
0000
0010
0100
0000
0000
0001
0000
,
1000
0000
0000
0010
0000
0000
0000
0000
0100
0000
0000
0010
0000
0000
0000
0000
,
1000
0100
1000
0000
0001
0000
0100
0000
,
0001
0000
0000
0010
0000
0000
0000
0000
0100
0000
0000
0010
0000
0000
0000
0000
,
0001
0100
0001
0000
1000
0000
1001
0000
,
0001
0100
0010
0100
,
0001
0010
0100
0010
,
0001
1000
0100
0010
,
0100
1000
0010
0100
,
0001
1000
0001
0000
0100
0000
0010
0000
,
1000
0001
1000
0000
0100
0000
0010
0000
,
0001
0100
0010
0000
0100
0000
0001
0000
,
1000
0100
0010
0000
0100
0000
1000
0000
,
2002
0000
0000
0000
0000
0000
0000
0000
0000
0000
0000
0000
0000
0000
0000
0000
0000
3003
0000
0000
0000
0000
0000
0000
0000
0000
0000
0000
0000
0000
0000
0000
;

//--------------- dance-single - ----------------
#NOTES:
     dance-single:
     :
     Medium:
     14:
     0.655198,1.01793,0.064258,0.40161,0.441771,571,563,8,50,0,0,0,0,0,0.655198,1.01793,0.064258,0.40161,0.441771,571,563,8,50,0,0,0,0,0:
0000
0000
0000
0000
,
0000
0000
0000
0000
,
0000
0000
0000
0000
,
0000
0000
0000
0000
,
0000
0000
0000
0000
,
0000
0000
0000
0000
,
0000
0000
0000
0000
,
0000
0000
0000
0000
,
0000
0000
0000
0000
,
0000
0000
0000
0000
,
1000
0100
1000
0100
,
0010
0100
0010
0100
,
0010
0001
0010
0001
,
1000
0001
1000
0001
,
1000
0010
1000
0000
0001
0010
0001
0000
,
1000
0010
1000
0000
0010
0100
0010
0000
,
1000
0100
0010
0001
0010
0100
1000
0000
,
0001
0001
0100
0100
0010
0000
0110
0000
,
1000
0000
0010
0000
0100
0001
0000
2000
0000
0000
0000
3001
0100
0010
0000
1000
,
0000
0100
0000
1000
0000
0100
0010
0001
0000
0010
0000
0001
0000
0100
0001
0000
,
0001
0000
0010
0000
0100
1000
0000
0002
0000
0000
0000
1003
0100
0010
0000
0001
,
0000
0100
0000
0010
0000
0100
1000
0100
0000
0010
0000
1000
0000
0100
0010
1000
,
0010
0100
1000
0010
0000
0100
0000
0010
0000
0100
0000
0001
0100
0000
0001
1000
,
0010
0100
0001
0010
0000
0100
0000
0010
0000
0100
0000
1000
0100
0010
0010
0000
,
0100
0010
0001
0100
0000
0010
0000
0100
0000
0010
0000
1000
0010
0000
1000
0001
,
0100
0010
1000
0100
0000
0010
0000
0100
0000
0010
0000
0001
0010
0100
0001
0100
,
0000
0000
0000
0100
1000
0010
0100
1000
0000
0000
0000
0200
0000
0310
0100
0001
,
1000
0100
0010
1000
0000
0001
0000
0100
0000
1000
0000
0010
0100
1000
0001
0010
,
1000
1100
1000
1001
0001
0101
0001
1001
,
1000
0010
0100
0001
0010
0100
1000
0001
1000
0000
0001
0000
1000
0000
0001
0000
,
1000
0100
0010
0001
0001
0010
0010
0001
,
1000
0010
0100
1000
0100
0010
1000
1000
,
0001
0100
0010
1000
1000
0010
0010
1000
,
0001
0000
0010
0000
0100
0000
0001
0000
0100
0000
0010
0000
0001
1000
0000
0000
,
0001
0010
0100
1000
1000
0100
0100
1000
,
0001
0100
0010
0001
0010
0100
0001
0001
,
1000
0010
0100
0001
0001
0010
0010
0001
,
1000
0100
0001
0100
1000
0010
0010
0001
,
0010
0100
0002
0000
0013
0100
1000
0001
,
1000
0100
1000
0010
0100
0001
0010
0010
,
0100
0010
2000
0000
3010
0100
1000
0001
,
0100
0000
0001
0010
0100
1000
0010
0010
,
0100
0010
2000
0000
3100
0010
0001
1000
,
0001
0010
0001
0100
0010
1000
0010
0010
,
0100
0010
0002
0000
0013
0100
0001
1000
,
0100
0010
0010
0110
,
0001
0000
1000
0001
2000
0000
0000
0000
3200
0000
0000
0000
0302
0000
0000
0000
,
0203
0000
0000
0000
2300
0000
0000
0000
3002
0000
0000
0000
0103
0000
0000
0100
,
0001
1000
0002
0000
0023
0000
1030
1000
,
0020
0000
0000
0000
0032
0000
0000
0000
1003
0000
0000
0000
0010
0100
0000
0000
,
0001
0001
0002
0000
0203
0000
2300
0000
,
3200
0000
0000
0000
0302
0000
0000
0000
2003
0000
0000
0000
3100
0000
0000
0100
,
1000
0001
2000
0000
3020
0000
0031
0001
,
0020
0000
0100
0100
,
1030
0000
0100
0000
1000
0000
0000
1000
0200
0000
0000
0000
0302
0000
0000
0000
,
2003
0000
0000
0000
3020
0000
0000
0000
0032
0000
0000
0000
0103
0000
0000
0100
,
0001
0001
0002
0000
0203
0000
2300
0000
,
3001
0000
0001
0000
0010
0000
0010
0000
1000
0000
1000
0000
0001
1000
0000
0000
,
0010
0100
0020
0000
0032
0000
2003
0000
,
3100
0100
0001
0001
0020
0000
1030
1000
,
0001
0001
0100
0100
0010
0010
0001
0000
,
0100
0100
0100
0000
1001
0000
0000
0000
,
2000
0000
0000
0000
,
3200
0000
0000
0000
,
0320
0000
0000
0000
,
0032
0000
0010
0000
,
2003
0000
0000
0000
,
3020
0000
0000
0000
,
0230
0000
0000
0000
,
0302
1000
0010
2003
,
3001
0000
0000
0001
0000
0000
1000
0100
1000
0000
0100
0000
0010
0001
0000
1000
,
0000
1000
0010
0000
0100
0001
0100
0001
,
1000
0000
0000
1000
0000
0000
0001
0100
0001
0000
0100
0000
0010
1000
0000
0001
,
0000
0001
0010
0000
0100
1000
0100
0100
,
1000
0000
0000
1000
0000
0000
0001
0010
0001
0000
0010
0000
0100
1000
0000
0001
,
0000
0001
0100
0000
0010
1000
0010
1000
,
0001
0000
0000
0001
0000
0000
1000
0010
1000
0000
0010
0000
0100
0001
0000
1000
,
0000
1000
0100
0000
0010
0000
0020
0000
,
0031
0000
0000
0100
0000
0000
0010
0000
1000
0000
0000
0100
0000
0000
0010
0000
,
0001
0000
0001
0010
0000
0000
0001
0000
0100
0000
0100
0000
0010
0000
0000
0000
,
1000
0000
0000
0100
0000
0000
0010
0000
0001
0000
0000
0100
0000
0000
0010
0000
,
1000
0010
0000
0000
0010
0000
1000
0000
0100
0000
0100
0000
0010
0000
0001
0000
,
1000
0000
1000
0010
0000
0000
0100
0000
0001
0000
0001
0010
0000
0000
0100
0000
,
1000
0000
1000
0100
0000
0000
1000
0000
0010
0000
0010
0000
0100
0000
0100
0000
,
0001
0000
0001
0010
0000
0000
0100
0000
1000
0000
1000
0010
0000
0000
0100
0000
,
0001
0100
0100
0001
0001
0010
0010
0000
,
0001
0100
1000
0100
1000
0100
0001
0000
,
1000
0100
0001
0100
0001
0100
1000
0010
,
1000
0010
0001
0010
0001
0010
1000
0000
,
0001
0010
1000
0010
1000
0010
0001
0100
,
0010
0010
1000
0100
0010
0010
0001
0100
,
0010
1000
0100
0010
0001
0100
0010
0000
,
1000
0100
1000
0000
0100
0000
0010
0100
0010
0000
0001
0000
0100
0000
0010
0000
,
1000
0010
1000
0000
0010
0000
0100
0000
0001
0000
0100
0000
0010
0000
0000
0000
,
2002
0000
0000
0000
0000
0000
0000
0000
0000
0000
0000
0000
0000
0000
0000
0000
0000
3003
0000
0000
0000
0000
0000
0000
0000
0000
0000
0000
0000
0000
0000
0000
;

//--------------- dance-single - ----------------
#NOTES:
     dance-single:
     :
     Hard:
     18:
     0.874362,1.131033,0.465867,0.136547,0.927718,762,704,58,17,0,0,0,0,0,0.874362,1.131033,0.465867,0.136547,0.927718,762,704,58,17,0,0,0,0,0:
0000
0000
0000
0000
,
0000
0000
0000
0000
,
0000
0000
0000
0000
,
0000
0000
0000
0000
,
0000
0000
0000
0000
,
0000
0000
0000
0000
,
0000
0000
0000
0000
,
0000
0000
0000
0000
,
0000
0000
0000
0000
,
0000
0000
0000
0000
,
1000
0100
0010
0100
,
1000
0010
0100
0010
,
1000
0001
0100
0010
,
0100
0001
0010
0001
,
1000
0100
1000
0100
0010
0001
0010
0001
,
1000
0010
0100
0001
1000
0010
0100
0001
,
1000
0100
1000
0000
0001
0100
0001
0000
1000
0010
1000
0000
0001
0010
0001
0000
,
1000
1000
0100
0100
0010
0000
0110
0000
,
1002
0000
0013
0000
0100
1000
0100
0200
0000
1300
0000
1000
0010
0100
0000
0001
,
0000
0001
0000
1000
0010
0100
0010
1000
0000
0010
0000
1000
0000
0100
0010
0000
,
2001
0000
3010
0000
0100
0001
0100
0200
0000
0301
0000
0001
0010
0100
0000
1000
,
0000
0100
0000
0002
0000
0103
0010
0001
0000
0010
0000
0001
0000
0100
0010
0100
,
0001
0100
0010
1000
0000
0100
0000
0010
0000
0001
0000
0100
1000
0000
0100
0001
,
1000
0100
0010
0001
0000
0100
0000
0010
0000
1000
0000
0100
0010
0100
1000
0000
,
1000
0010
0100
0001
0000
1000
0000
0100
0000
0010
0000
0001
1000
0000
0001
0100
,
0001
0010
0100
1000
0000
0001
0000
0100
0000
0010
0000
1000
0001
0000
0010
0100
,
1000
0000
0000
0000
0000
0000
0001
0000
1000
0000
0000
0000
0010
0000
0100
0000
0000
0000
0100
0000
0000
0000
0100
0001
0100
0000
0010
0000
1000
0000
0100
0000
,
1000
0000
0000
0000
0100
0000
0010
0000
0000
0000
0100
0000
0000
0000
1000
0000
0000
0000
0001
0000
0000
0000
1000
0001
1000
0000
0001
0000
0010
0000
0100
0000
,
1000
0000
0000
0000
0001
0000
1000
0000
0001
0000
0000
1000
0010
0000
0100
0000
0001
0000
0000
0000
1000
0000
0001
0000
1000
0000
0000
0001
0010
0000
0100
0000
,
1000
0010
0100
0001
0010
0100
1000
1000
0010
0000
0010
0000
0010
0000
0100
0100
,
0001
0000
0001
0000
0010
0000
0100
0010
0001
0000
1000
0010
0100
0010
1000
0000
,
0001
1000
0001
1000
0001
0000
0100
0010
0100
0010
0100
0000
0001
0010
0100
0000
,
0010
0000
0100
1000
0100
0000
1000
0000
0001
0100
0001
0100
0000
0010
1000
0000
,
0001
1000
0001
1000
0001
0000
0010
0100
0010
0100
0010
0000
1000
0010
0100
0000
,
1000
0000
1000
0000
1000
0000
0001
0100
0001
0000
0100
0010
1000
0010
0100
0000
,
0001
1000
0001
1000
0001
0000
0010
0100
0010
0100
0010
0000
0001
0100
0010
0000
,
0001
0000
0010
0000
0001
0000
0010
0000
1000
0000
0001
0010
0001
0010
0001
0000
,
0010
0100
0010
0100
0010
0000
0100
0010
0100
0010
0001
0000
0001
0000
0200
0000
,
1000
0000
0310
0100
0010
0000
1000
0001
1000
0001
1000
0000
0001
0000
0100
0001
,
0100
0000
0000
0000
0000
0000
0010
0000
0000
1000
0000
0000
0010
0000
0000
0000
0000
0000
0100
0000
0000
0000
0000
0000
0001
0000
0000
1000
0000
0000
0001
0000
0000
0000
0000
0000
0100
0000
0000
0000
0010
0000
0000
0000
0000
0000
0000
0000
,
1000
0000
0000
0000
0000
0000
0001
0000
0000
0000
1000
0000
0001
0000
0000
0000
0000
0000
0000
0000
0000
0000
0000
0000
0010
0000
0000
0100
0000
0000
0010
0000
0000
0000
0000
0000
0100
0000
0000
0010
0000
0000
0001
0000
0000
0000
0000
0000
,
1000
0000
0001
1000
0100
0000
0020
0000
0030
0000
0001
0100
0010
0100
0001
0000
,
1000
0000
0100
0010
0100
0000
1000
0001
1000
0001
1000
0000
0001
0000
0000
0000
,
0010
0000
0000
0000
0100
0000
1000
0000
0100
0000
0000
0000
0010
0000
0000
0000
0001
0000
1000
0000
0001
0000
0000
0000
0010
0100
0000
0000
0000
0000
0000
0000
,
1000
0000
0001
1000
0001
0000
0000
0000
0100
0000
0010
0000
0010
0000
0010
0000
,
1000
0000
0001
1000
0010
0000
1000
0001
0010
0000
0100
0000
0110
0000
0000
0000
,
1000
0000
0100
0010
0100
0000
0000
0000
1001
0000
0000
0000
0101
0000
0000
0000
,
1001
0000
0000
0000
0101
0000
0000
0000
1001
0000
0000
0000
0101
0000
0000
0001
,
1000
0100
0100
0000
1100
0000
1001
0001
,
0100
0000
0000
0000
0101
0000
0000
0000
0011
0000
0000
0000
0010
0100
0000
0100
,
0010
0010
0100
0000
1001
0000
0011
0000
,
1001
0000
0000
0000
0011
0000
0000
0000
1001
0000
0000
0000
0011
0000
0000
0001
,
1000
0000
0100
0010
0001
0000
0000
0000
1010
0000
0000
0000
1001
0000
0001
0100
,
0020
0000
0000
0000
0000
0000
0000
0000
1030
0000
0000
0000
0100
0010
0000
0010
,
0001
1000
0000
0001
0100
0000
0000
0100
0010
0000
0000
0000
1010
0000
0000
0000
,
1001
0000
0000
0000
1100
0000
0000
0000
0110
0000
0000
0000
0011
0000
0000
0001
,
0010
0001
1000
0000
1001
0000
0011
0000
,
1000
0000
1000
0000
0001
0000
0001
0000
0100
0000
0100
0000
0010
1000
0000
0010
,
1000
0001
1000
0100
0010
0000
0000
0100
0010
0000
0000
0000
0011
0000
0000
0001
,
1000
0000
0001
0010
0100
0000
1000
0000
1001
0000
0000
0000
0001
1000
0001
0010
,
0100
0000
1000
0000
0001
1000
0000
0000
0001
0000
0100
0010
1000
0000
0000
0000
,
0001
0001
2000
0000
3200
0000
0000
0000
,
0320
0000
0000
0000
,
0032
0000
0000
0000
,
2003
0000
0000
0000
,
3020
0000
0000
0000
,
0130
0001
0100
0001
,
1000
0100
1000
0100
,
0010
0001
0100
0010
,
1000
0001
1000
0000
,
1001
0000
0000
1001
0000
0000
0001
1000
0100
0000
1000
0000
0001
0010
0000
0110
,
0000
0000
0100
0010
0100
0000
1000
0000
0010
0000
0100
0010
0100
0000
0001
0000
,
1001
0000
0000
1001
0000
0000
0001
1000
0010
0000
1000
0000
0001
0100
0000
0110
,
0000
0000
0010
0100
0010
0000
1000
0000
0100
0000
0010
0100
0010
0001
1000
0000
,
1010
0000
0000
0011
0000
0000
1000
0001
0010
0000
0001
0000
1000
0100
0000
0110
,
0000
0000
0010
0100
0010
0000
0001
0000
0100
0000
0010
0001
0010
0000
0100
0000
,
0101
0000
0000
1100
0000
0000
1000
0001
0100
0000
0001
0000
1000
0010
0000
0110
,
0000
0000
0100
0010
0100
0000
0001
0000
0020
0000
0000
0000
1000
0000
0000
0000
,
0031
0000
0000
0011
0000
0000
1010
0000
0001
0000
0000
0101
0000
0000
1100
0000
,
0001
0000
1000
0001
0000
0000
1001
0000
0001
0100
0010
0000
0100
0000
0010
0000
,
1000
0000
0000
1010
0000
0000
0011
0000
1000
0000
0000
1100
0000
0000
0101
0000
,
1000
0001
0000
0000
1000
0000
0001
0000
1000
0000
0010
0000
0100
0000
0010
0000
,
1000
0000
0100
1000
0000
0000
0101
0000
1000
0000
0010
1000
0000
0000
0011
0000
,
1000
0000
0001
0100
0000
0100
0010
0000
1000
0010
0100
0000
0010
0000
0100
0000
,
0001
0000
0100
0001
0000
0000
1100
0000
0001
0000
0010
0001
0000
0000
1010
0000
,
0001
1000
0001
1000
0001
0010
0110
0000
,
0001
0000
0010
0001
0010
0000
0001
0000
1000
0010
1000
0000
0010
1000
0001
0000
,
0100
0001
0100
0010
1000
0000
0100
0010
0100
0010
0001
0000
0010
0000
0001
0000
,
1000
0010
1000
0010
1000
0000
0001
0000
0010
0000
0010
0000
0010
0100
0010
0000
,
0001
0010
0100
1000
0001
0000
1000
0010
0100
0001
1000
0000
0001
0000
0000
0000
,
1000
0100
1000
0100
1000
0000
0001
0100
0001
0100
0001
0000
0010
0100
0010
0000
,
0001
1000
0001
1000
0001
0000
0100
0010
0100
0000
0010
0000
0100
0000
0000
0000
,
0001
0100
0010
0100
0001
0000
1000
0100
0010
0100
1000
0000
0100
0000
0100
0000
,
0010
0000
0000
0000
0000
0000
0000
0000
0000
0000
0000
0000
0100
0000
0000
0000
0000
0000
0000
0000
0010
0000
0000
0000
0000
0000
0100
0000
0000
0000
0000
0000
1000
0000
0000
0000
0000
0000
0000
0000
0000
0000
0000
0000
0000
0000
0000
0000
0000
0000
0000
0100
0000
0000
0000
0000
0000
0010
0000
0000
0000
0000
0000
0000
0000
0000
0000
0000
0000
0000
0000
0000
0001
0000
0000
0000
0000
0000
0000
0000
0000
0000
0000
0000
1000
0000
0000
0000
0000
0000
0000
0000
0000
0000
0000
0000
,
2002
0000
0000
0000
0000
0000
0000
0000
0000
0000
0000
0000
0000
0000
0000
0000
0000
3003
0000
0000
0000
0000
0000
0000
0000
0000
0000
0000
0000
0000
0000
0000
;

//--------------- dance-single - ----------------
#NOTES:
     dance-single:
     :
     Challenge:
     19:
     1.075166,1.281838,0.706833,0.192773,1.305231,937,849,88,24,0,0,0,0,0,1.075166,1.281838,0.706833,0.192773,1.305231,937,849,88,24,0,0,0,0,0:
0000
0000
0000
0000
,
0000
0000
0000
0000
,
0000
0000
0000
0000
,
0000
0000
0000
0000
,
0000
0000
0000
0000
,
0000
0000
0000
0000
,
0000
0000
0000
0000
,
0000
0000
0000
0000
,
0000
0000
0000
0000
,
0000
0000
0000
0000
,
1000
0000
0000
0000
1000
0000
0000
0000
0001
0000
0000
0000
0001
0000
0010
0001
,
0010
0000
0001
0000
0010
0000
0100
0000
0010
0000
0000
0000
0100
0000
1000
0100
,
1000
0000
0000
0000
1000
0000
0000
0000
0001
0000
0000
0000
0001
0000
0100
0001
,
0100
0000
0001
0000
0100
0000
0010
0000
0100
0000
0000
0000
0010
0000
1000
0010
,
1000
0001
0001
0010
0010
0100
0100
1000
,
0010
0100
0001
0010
0100
1000
0010
0100
,
0001
0010
0001
0010
0100
1000
0100
1000
0001
0100
0010
1000
0001
0010
0100
1000
,
0010
0000
0000
0100
0010
0100
0010
1000
0000
0010
0000
0000
0100
0001
0100
0001
0000
0000
0010
0000
0000
0000
0000
0000
,
0210
0000
0000
0000
0310
0000
0100
0000
1000
0000
0010
0000
0100
0000
0101
0000
0000
0000
0101
0000
0000
0000
0100
0001
1000
0000
0001
0000
0001
0000
0020
0000
,
0000
0000
0032
0000
0000
0000
2003
0000
3010
0000
0100
0000
0010
0000
1000
0000
0000
0000
0011
0000
0000
0000
0010
0100
1000
0000
0010
0000
0100
0000
0000
0000
,
0210
0000
0000
0000
0310
0000
0100
0000
0001
0000
0010
0000
0100
0000
1100
0000
0000
0000
1100
0000
0000
0000
0100
1000
0001
0000
1000
0000
1000
0000
0020
0000
,
0000
0000
0230
0000
0000
0000
2300
0000
3100
0000
0001
0000
0010
0000
0001
0000
0000
0000
0011
0000
0000
0000
0010
0100
1000
0000
0001
0000
0100
0000
0010
0000
,
1000
0000
0100
0000
0010
0000
0001
0000
1000
0000
0001
0000
0000
0000
0011
0000
0000
0000
1010
0000
0000
0000
1000
0010
0100
0000
0001
0000
0001
0000
1000
0000
,
0001
0000
0100
0000
0010
0000
1000
0000
0001
0000
1000
0000
0000
0000
1010
0000
0000
0000
0011
0000
0000
0000
0001
0010
0100
0000
0001
0000
0001
0000
0000
0000
,
0100
0000
0010
0000
0100
0000
1000
0000
0001
0000
1000
0000
0000
0000
1100
0000
0000
0000
0101
0000
0000
0000
0001
0100
0010
0000
1000
0000
1000
0000
0001
0000
,
1000
0000
0010
0000
0100
0000
0001
0000
1000
0000
0001
0000
0000
0000
0101
0000
0000
0000
1100
0000
0000
0000
1000
0100
0010
0000
0100
0000
0100
0000
0000
0000
,
1000
0000
0001
0000
0100
0000
0010
0000
1000
0000
0100
0000
0010
0000
1000
0000
0000
0000
1010
0000
0000
0000
0010
0100
1000
0000
0001
0000
0001
0000
1000
0000
,
0100
0000
1000
0000
0100
0000
0010
0000
0001
0000
0100
0000
0010
0000
0001
0000
0000
0000
0011
0000
0000
0000
0001
0010
0100
0000
0010
0000
0010
0000
0000
0000
,
1000
0000
0000
0000
1010
0000
0000
0000
0010
0000
0000
1000
0100
0000
1000
0000
0001
0000
0000
0000
0011
0000
0000
0000
0010
0000
0000
0001
0100
0000
0001
1000
,
0100
0000
0100
0000
0010
0000
0010
0000
0001
0000
0001
0000
0100
0010
0100
0000
0010
0000
0000
0000
0010
0000
0100
0000
0010
0000
1000
0000
0100
0000
0100
0000
,
1000
0000
1000
0000
0001
0000
1000
0100
1000
0001
1000
0010
1000
0010
1000
0001
,
0010
0001
0010
0001
1000
0010
1000
0100
0010
0001
0010
0001
0100
0010
0001
0000
,
0010
0000
0001
0010
0100
0000
0100
0000
0001
0010
0001
0000
0100
0000
0010
1000
,
0001
0010
0100
0010
0001
1000
0001
0010
0100
0010
0001
1000
0010
1000
0010
0100
,
0001
0000
0001
0000
1000
0000
0001
0010
0001
1000
0001
0100
0001
0100
0001
1000
,
0100
0010
0100
1000
0001
0100
0001
0100
0010
1000
0001
1000
0100
0010
0100
0000
,
0001
0000
0100
0000
1000
0000
0100
0000
0010
0000
0001
1000
0001
1000
0001
0000
,
0100
0010
0100
0010
0100
0010
1000
0010
1000
0010
0100
0000
0100
0000
0020
0000
,
1030
0000
1000
0100
0010
0001
0010
0100
1000
0001
1000
0000
0010
0100
0001
1000
,
0100
0000
0000
0000
0000
0000
0010
0000
0000
0001
0000
0000
1000
0000
0000
0001
0000
0000
0100
0000
0000
0000
0000
0000
0010
0000
0000
1000
0000
0000
0001
0000
0000
1000
0000
0000
0100
0000
0000
0000
0010
0000
0000
0000
0000
0000
0000
0000
,
0010
0000
0000
0000
0000
0000
0100
0000
0000
0000
0010
0000
0100
0000
0000
0000
0000
0000
1000
0000
0000
0000
0000
0000
0001
0000
0000
0100
0000
0000
0001
0000
0000
1000
0000
0000
0001
0000
0000
0010
0000
0000
0001
0000
0000
0000
0000
0000
,
0020
0000
0000
0000
0000
0000
0000
0000
0000
0000
0000
0000
0130
0000
0000
0000
0000
0000
1000
0000
0000
0000
0000
0000
0200
0000
0000
0000
0000
0000
0000
0000
0000
0000
0000
0000
2300
0000
0000
0000
0000
0000
0000
0000
0000
0000
0000
0000
3010
0000
0000
0000
0000
0000
0000
0000
1000
0000
0000
0000
0000
0000
0000
0000
0010
0000
0000
0000
0000
0000
0000
0000
0100
0000
0000
0010
0000
0000
0100
0000
0000
0000
0000
0000
0010
0000
0000
0000
0000
0000
0100
0000
0000
0000
0000
0000
,
0001
0000
0010
0000
0110
0000
0100
0010
0001
1000
0010
0000
0100
0010
0100
0010
,
1000
0000
0001
0000
0100
0000
0010
0000
1000
0000
0010
0000
0100
0000
0001
0000
1000
0000
0100
0000
0010
0000
0100
0000
1000
0001
0000
0000
1000
0000
0000
0000
,
0010
0000
0010
0100
0010
1000
0001
0010
0100
0000
0010
0100
0010
0100
0010
0100
,
1000
0000
0100
0010
0001
0000
0100
0010
0100
0000
0010
0000
1001
0000
0000
0000
,
0011
0000
0010
0001
0100
0000
0000
0000
0110
0000
0000
0000
1010
0000
0000
0000
,
0110
0000
0000
0000
1010
0000
0000
0000
0110
0000
0000
0000
1010
0000
0000
1000
,
0100
0010
0110
0000
1100
0000
0110
0110
,
1100
0000
0000
0000
0000
0000
0000
0000
0110
0000
0000
0000
0000
0000
0000
0000
1100
0000
0000
0000
0000
0000
0000
0000
1000
0100
1000
0000
0100
0000
0010
0000
,
0001
0100
0110
0000
1010
0000
0110
0000
,
1010
0000
0000
0000
0110
0000
0000
0000
1010
0000
0000
0000
0110
0000
0000
0010
,
1000
0000
0100
0010
0001
0000
0000
0000
0011
0000
0000
0000
0110
0000
0010
0100
,
2000
0000
0000
0000
0010
0000
0000
0000
0001
0000
0000
3010
1000
0100
0010
0001
,
0100
0010
0001
0000
0010
0000
0000
0010
1000
0000
0000
0000
1001
0000
0000
0000
,
0011
0000
0000
0000
1001
0000
0000
0000
1010
0000
0000
0000
1001
0000
0000
0001
,
0010
0100
1100
0000
1001
0000
0101
0000
,
1001
0000
0000
0000
1001
0000
0000
0000
1100
0000
0000
0000
0110
0000
0000
0000
1001
0000
0000
0000
1001
0000
0000
0000
0001
0100
0001
0000
0100
0000
0010
0000
,
1000
0000
0100
0010
0200
0000
0300
0000
0110
0000
0000
0000
0011
0000
0000
0010
,
0100
0000
0000
0000
1000
0000
0010
0000
0100
0000
0000
0000
0010
0000
0000
0000
0110
0000
0000
0000
0000
0000
0000
0000
1000
0000
0010
0000
0100
0010
0000
0000
,
0100
0000
0100
0000
0001
1000
0001
0000
0010
0000
0001
1000
0200
0000
0000
0000
,
0310
0100
0001
0100
2000
0000
3020
0000
0230
0000
0000
0000
0302
0000
0003
0000
,
0011
0001
0010
0001
,
1000
0010
0100
0010
,
1000
0010
1000
0010
,
0100
0100
0001
1000
,
0001
0001
0010
0010
,
0100
0100
1000
1000
,
0100
0100
0010
0010
,
0001
0001
1000
2000
,
3001
0000
0000
0011
0000
0000
0001
0100
0010
0000
0100
0000
0001
0010
0000
1010
,
0000
0000
1000
0010
0100
0000
0010
1000
0100
0000
0010
0100
1000
0100
0010
0001
,
0100
0000
0000
0101
0000
0000
0100
0001
0010
0000
0001
0010
0100
1000
0000
1100
,
0000
0000
1000
0100
0010
0000
0100
1000
0010
0000
0100
0010
1000
0010
0100
0001
,
1000
0000
0000
1010
0000
0000
1000
0100
0010
0000
0100
0000
1000
0010
0000
0011
,
0000
0000
0000
0000
0000
0000
0001
0000
0000
0010
0000
0000
0100
0000
0000
0000
0000
0000
0010
0000
0000
0001
0000
0000
0100
0000
0000
0000
0000
0000
0010
0000
0100
0000
0000
0000
0001
0000
0000
0100
0000
0000
0010
0000
0000
1000
0000
0000
,
0100
0000
0000
1100
0000
0000
0100
1000
0010
0000
1000
0010
0100
0001
0000
0101
,
0000
0000
0000
0000
0000
0000
0001
0000
0000
0100
0000
0000
0010
0000
0000
0000
0000
0000
0100
0000
0000
0001
0000
0000
0020
0000
0000
0000
0000
0000
0000
0000
0000
0000
0000
0000
0130
0000
0010
0000
0001
0000
0010
0000
0100
0000
1000
0000
,
0001
0000
0000
1010
0000
0000
0110
0000
0101
0000
0000
0011
0000
0000
0110
0000
,
1100
0000
0001
0100
0000
0000
0110
0000
0010
0100
1000
0000
0100
0010
0100
0001
,
1000
0000
0000
0011
0000
0000
0110
0000
1100
0000
0000
1010
0000
0000
0110
0000
,
0001
0100
0010
0000
1000
0000
0100
0000
0001
0100
0010
0000
0100
0000
1000
0000
,
0001
0000
1000
0100
0000
0100
0010
0000
0011
0000
0001
0100
0000
0100
0010
0000
,
1010
0000
0001
0010
0000
0010
0100
0000
0100
0010
1000
0000
0010
0100
0010
0001
,
1000
0000
0001
0100
0000
0100
0010
0000
1010
0000
1000
0100
0010
0100
0010
0000
,
0001
0100
0010
1000
0010
0110
0220
0330
,
1000
0000
1000
0001
0100
0000
0100
0000
0010
1000
0010
0000
0010
0100
0010
0000
,
1000
0100
1000
0100
0010
0000
0010
0001
0010
0001
1000
0000
1000
0010
1000
0000
,
0001
0000
0001
1000
0100
0000
0100
0000
0010
0001
0010
0000
0010
0100
0010
0000
,
0001
0000
0100
0000
0001
0000
0100
0000
0010
0000
0000
0000
0010
0000
1000
0000
0010
0000
1000
0000
0001
0000
0000
0000
0001
0000
0010
0000
0000
0001
0000
0000
,
1000
0010
1000
0010
0100
0000
0001
0010
0001
0010
0100
0000
1000
0010
0100
0000
,
0001
0100
0010
0100
0001
0000
1000
0100
0010
0100
1000
0000
0001
0100
0001
0000
,
0010
0100
0001
1000
0100
0010
0001
1000
0001
1000
0010
0100
0001
0100
1000
0010
,
0100
0000
1000
0010
0001
0100
1000
0000
0100
0000
0010
0000
0100
0010
0001
0100
1000
0000
0100
0000
0010
0000
0100
0010
0001
0100
0010
1000
0100
0001
1000
0010
,
0200
0000
0000
0000
0000
0000
0000
0000
0000
0000
0000
0000
0000
0000
0000
0000
0000
0300
0000
0000
0000
0000
0000
0000
0000
0000
0000
0000
0000
0000
0000
0000
;
