#TITLE:splash!;
#ARTIST:BEMANI Sound Team "Trance Liquid";
#GENRE:jubeat;
#MUSIC:splash!.ogg;
#BANNER:splash!.png;
#BACKGROUND:splash!-bg.png;
#CDTITLE:./CDTitles/jubeat festo.png;
#SAMPLESTART:81.338;
#SAMPLELENGTH:15.000;
#SELECTABLE:YES;
#OFFSET:0.000;
#BPMS:0.000=156.000;
#STOPS:;
#BGCHANGES:;
#FGCHANGES:;

//--------------- dance-single - ----------------
#NOTES:
     dance-single:
     :
     Beginner:
     2:
     0,0,0,0,0:
0000
0000
0000
0000
,
0000
0000
0000
0000
,
0000
0000
0000
0000
,
0000
0000
0000
0000
,
0000
0000
0000
0000
,
0000
0000
0000
0000
,
0001
0000
0000
0000
,
1000
0000
0000
0000
,
0010
0000
0000
0000
,
0100
0000
0000
0000
,
0010
0000
0000
0000
,
0100
0000
1000
0000
,
0001
0000
0000
0000
,
0010
0000
1000
0000
,
0001
0000
0000
0000
,
0100
0000
0001
0000
,
1000
0000
0000
0000
,
0010
0000
0000
0000
,
1001
0000
0000
0000
,
0000
0000
0000
0000
,
0010
0000
0001
0000
,
1000
0000
0001
0000
,
0010
0000
0100
0000
,
0001
0000
1000
0000
,
0001
0000
0000
0000
,
0010
0000
0000
0000
,
1000
0000
0001
0000
,
0010
0000
0000
0000
,
0200
0000
0000
0300
,
0010
0000
1000
0000
,
0001
0000
0000
0000
,
0010
0000
0000
0000
,
1000
0000
0000
0000
,
0001
0000
0000
0000
,
0100
0000
0000
0000
,
1000
0000
0000
0000
,
0001
0000
0000
0000
,
1000
0000
0000
0000
,
0100
0000
0000
0000
,
0001
0000
0000
0000
,
0001
0000
0000
0000
,
0100
0000
0000
0000
,
0010
0000
0000
0000
,
1000
0000
0000
0000
,
0001
0000
0000
0000
,
0000
0000
0000
0000
,
0000
0000
0000
0000
,
0000
0000
0000
0000
,
0100
0000
0000
0000
,
0000
0000
0000
0000
,
1000
0000
0000
0000
,
0001
0000
0010
0000
,
0100
0000
0000
0000
,
1001
0000
0000
0000
,
0100
0000
0000
0000
,
0010
0000
0000
0000
,
1000
0000
0000
0000
,
0001
0000
0000
0000
,
0100
0000
0000
0000
,
0100
0000
0000
0000
,
0000
0000
0000
0000
,
1000
0000
0000
0000
,
0000
0000
0000
0000
,
0001
0000
0000
0000
,
0000
0000
0000
0000
,
0001
0000
0000
0000
,
0000
0000
0000
0000
,
1000
0000
0000
0000
,
0000
0000
0000
0000
,
0001
0000
0000
0000
,
1000
0000
0000
0000
,
0001
0000
0000
0000
,
0100
0000
0000
0000
;

//--------------- dance-single - ----------------
#NOTES:
     dance-single:
     :
     Easy:
     4:
     0,0,0,0,0:
0000
0000
0000
0000
,
0000
0000
0000
0000
,
0000
0000
0000
0000
,
0000
0000
0000
0000
,
0000
0000
0000
0000
,
0000
0000
0000
0000
,
0010
0000
0000
0000
,
1000
0000
0000
0000
,
0001
0000
0000
0000
,
0010
0000
0100
0000
,
1000
0000
0000
0000
,
0001
0000
0010
0000
,
1000
0001
0100
0000
,
0010
0100
1000
0000
,
0001
0000
1000
0000
,
0001
0000
0100
0000
,
0010
0000
1000
0000
,
0001
0000
0010
0000
,
1001
0000
0000
0000
,
0000
0000
0000
0000
,
0010
1000
0001
0100
,
0010
0100
1000
0001
,
0100
0010
0100
0001
,
1000
0001
0100
0010
,
0100
0001
0100
0010
,
1000
0001
0100
0010
,
0001
1000
0010
0100
,
0001
0000
1000
0001
,
0200
0000
0000
0300
,
0001
0010
0100
1000
,
0001
0100
1000
0001
,
0100
0010
1000
0001
,
0100
0010
1000
0001
,
0100
0010
0100
0001
,
1000
0100
0010
0100
,
1000
0000
0001
0000
,
0110
1000
0001
0100
,
0010
1000
0001
0100
,
0010
0100
1000
0001
,
0100
0010
0001
1000
,
0001
0100
0010
0100
,
1000
0001
0100
0010
,
1000
0001
0100
0010
,
0100
0000
1000
0000
,
0001
0000
0000
0000
,
0100
0000
0000
0000
,
1000
0000
0000
0000
,
0001
0000
0000
0000
,
0002
0000
0003
0000
,
2000
0000
3000
0000
,
0020
0000
0030
0000
,
0200
0300
0020
0030
,
0200
0300
0000
0000
,
1000
0001
0100
0010
,
0100
1000
0001
0100
,
0010
0100
1000
0001
,
0100
0010
0100
1000
,
0001
0100
0010
0001
,
0010
0001
0010
0100
,
0001
1000
0001
0000
,
0100
1000
0001
0000
0100
0010
0100
0000
,
1001
0100
1000
0001
,
0100
0010
0010
0001
,
0100
0010
0100
1000
,
0001
0100
0010
1000
,
0001
0100
1000
0001
,
0100
0010
0100
1000
,
0001
0100
0010
1000
,
0001
0100
0010
1000
,
0002
0000
0000
0003
,
2000
0000
0000
3000
,
0002
0000
0000
0003
,
0200
0000
0000
0000
,
0300
0000
0000
0000
;

//--------------- dance-single - ----------------
#NOTES:
     dance-single:
     :
     Medium:
     8:
     0,0,0,0,0:
0000
0000
0000
0000
,
0000
0000
0000
0000
,
0000
0000
0000
0000
,
0000
0000
0000
0000
,
0000
0000
0000
0000
,
0000
0000
0000
0000
,
0010
0000
1000
0000
,
0001
0000
0100
0000
,
0010
0000
1000
0000
,
0001
1000
0010
0000
0100
0000
1000
0010
,
0001
0100
0010
0100
,
0001
1000
0010
0100
,
1000
0001
0100
0010
,
1000
0001
0100
0010
,
0100
0001
1000
0001
,
0100
0010
0100
1000
,
0001
0100
0010
0100
,
1000
0001
0100
0010
,
2002
0000
3003
0000
,
0010
1000
0001
0000
0100
0000
0010
1000
,
0001
0100
0010
1000
,
0001
0000
0100
0001
1000
0000
0001
0000
,
0100
0000
0010
0000
1000
0001
0100
0000
,
0010
0000
0100
0000
0001
1000
0001
0100
,
0010
0100
1000
0001
,
0100
0010
0100
0000
,
1000
0001
0100
0010
,
0001
1000
0001
0000
0100
0000
0010
1000
,
0200
0000
0010
0301
,
0100
1000
0001
0100
,
0010
0000
1000
0001
0100
0000
0010
0000
,
0100
1000
0001
0000
0100
0000
0010
0000
,
1000
0001
0100
0000
0010
0000
0100
0000
,
0001
0100
0010
0000
1000
0000
0001
0000
,
0100
1000
0001
0000
0100
0000
0010
0000
,
0001
1000
0001
0000
0100
0000
0000
0000
,
1001
0100
0010
0100
,
1000
0000
0000
0001
1000
0000
0100
0000
,
0001
0100
0010
1000
,
0001
0100
0001
0100
,
0001
1000
0001
0100
,
0010
0100
0010
0001
,
0100
0001
1000
0001
,
0100
0010
0000
0100
1000
0000
0001
0000
,
0100
0000
1000
0000
,
0001
0000
0100
0000
,
0010
0000
0001
0000
,
1000
0000
0001
0000
,
0010
0000
0100
0000
,
1000
0000
0001
0000
,
0100
0000
0010
0000
,
1000
0000
0001
0000
,
0200
0000
0300
0000
,
1001
0100
0010
0100
,
1000
0000
0001
0000
0100
0000
0010
1000
,
0001
0100
0010
0100
,
0001
0000
1000
0000
0001
0000
0100
1000
,
0001
0100
0010
1000
,
0001
0000
0100
0010
0000
1000
0001
0000
,
0010
0100
1000
0000
0001
0000
0100
1000
,
0001
0000
0100
0000
1000
0000
0001
0000
0100
0000
0001
0000
0010
0100
0000
0000
,
0110
1000
0100
0010
,
0100
0000
1000
0000
0001
0100
0010
0000
,
0100
1000
0001
0100
0010
0000
0100
0000
,
0001
0000
1000
0000
0001
0100
1000
0001
,
0100
0010
0100
0010
,
1000
0000
0001
0000
0100
0010
1000
0000
,
0001
0000
0100
0000
0010
0001
0000
0000
,
1000
0001
0100
0000
0010
0000
1000
0100
,
0002
0000
0000
0003
,
2000
0000
0000
3000
,
0002
0000
0000
0003
,
0200
0000
0000
0000
,
0300
0000
0000
0000
;

//--------------- dance-single - ----------------
#NOTES:
     dance-single:
     :
     Hard:
     13:
     0,0,0,0,0:
0000
0000
0000
0000
,
0000
0000
0000
0000
,
0000
0000
0000
0000
,
0000
0000
0000
0000
,
0000
0000
0000
0000
,
0000
0000
0000
0000
,
0001
0010
0100
1000
,
0001
1000
0001
0010
,
0100
0010
0100
1000
,
0001
0000
0100
0000
0010
1000
0001
0100
,
1000
0100
0001
0000
0010
0000
0100
0000
,
0001
1000
0001
0100
,
0010
1000
0001
0100
0010
0000
0100
0000
,
1000
0001
0100
0010
,
1000
0001
0100
0010
0100
0000
1000
0000
,
0001
0100
0001
0010
0100
1000
0001
0000
,
0100
1000
0001
0000
0100
0010
0100
0000
,
1000
0001
0100
0010
0100
1000
0001
0100
,
2002
0000
0000
3003
,
0010
1000
0001
0100
0010
0100
2000
0000
,
3001
0100
0010
0100
1000
0100
0002
0000
,
0103
0010
0100
1000
0002
0000
0203
0000
,
0310
1000
0001
0100
0010
0100
1000
0010
,
0001
0100
0010
0100
0001
1000
0020
0000
,
0130
0010
0100
1000
0001
0100
0010
0000
,
0001
0000
0010
0000
0001
0000
0100
0000
1000
0000
0010
0000
1000
0000
0001
0010
,
0100
1000
0010
0100
1000
0001
0100
0010
,
0100
0000
1000
0000
0001
0000
0100
0000
0010
0000
0100
0000
1000
0000
0001
0010
,
0200
0010
0010
0310
,
1000
0001
0010
0100
,
0001
1000
0001
0100
0010
0000
0100
0000
,
1000
0001
0100
0010
0100
0000
0010
0000
,
0001
1001
0100
1001
,
0100
0010
0100
1000
,
0001
0110
0010
1100
,
0001
0010
0100
0001
1000
0001
0100
0010
,
1001
0010
0100
0001
,
1000
0001
0100
0010
,
1000
0001
0100
0010
0100
1000
0001
0000
,
0100
1000
0001
0100
0000
0010
0100
1000
,
0001
0100
0010
0100
1000
0000
0001
0000
,
0100
0000
0000
0000
0010
0000
0000
0000
1000
0000
0001
0000
0100
0000
0010
1000
,
0100
0001
0000
1000
0001
0000
0100
0000
,
0010
0000
0100
0001
1000
0000
0001
1000
0100
0000
0001
0000
0010
0000
0000
0000
,
2002
0000
0000
0003
,
3002
0000
0000
0000
,
2003
0000
0000
0000
,
3200
0000
0010
0000
,
0320
0000
0000
0000
,
2030
0000
0000
0000
,
3002
0000
1000
0000
,
0203
0000
0001
0000
,
0310
0000
1000
0001
,
1001
0100
1000
0100
1000
0001
1000
0001
,
0010
0000
0001
0000
0100
0000
0010
0000
1000
0000
0001
0000
1000
0000
0010
1000
,
0100
0001
1000
0010
0100
0010
1000
0010
,
0100
0000
0001
1000
0010
0000
0001
0000
1000
0000
0010
0000
1000
0000
0100
0001
,
0010
0000
0100
0000
0010
0000
0100
0000
1000
0000
0001
0000
1000
0000
0010
0001
,
0100
0000
0010
0000
0100
0000
0010
0000
1000
0000
0001
0000
1000
0000
0100
0001
,
1000
0000
0010
0000
0100
0000
0010
0000
1000
0000
0100
0000
0001
0100
0001
0100
,
0001
0000
1000
0000
0010
0000
0001
0000
1000
0000
0001
0000
0010
0100
0000
0000
,
0100
0010
0100
1000
0001
1000
0100
0010
,
0100
0000
1000
0000
0010
0000
1000
0000
0100
0000
0010
0000
0001
0000
0010
1000
,
0001
0000
1000
0000
0001
0000
0010
0000
0100
0000
1000
0000
0010
0000
1000
0100
,
0010
0000
1000
0000
0001
0000
0010
0000
0100
0000
1000
0000
0100
0000
0010
0001
,
0100
1000
0001
0100
0001
1000
0001
0100
,
0010
0000
1000
0000
0010
0000
1000
0000
0001
0000
0100
0000
0010
0000
1000
0001
,
0100
0000
0010
0000
0100
0000
0010
0000
0001
0000
0100
0000
0001
0000
1000
0001
,
0100
0000
1000
0000
0001
0000
1000
0000
0100
0000
0010
0000
0100
0000
0010
1000
,
0200
0000
0320
0000
,
0032
0000
0023
0000
,
0230
0000
2300
0000
,
0002
0000
0000
0000
,
0000
0000
0000
0000
,
3003
0000
0000
0000
;
