#TITLE:milky ice bear;
#ARTIST:S-C-U;
#GENRE:ソニックリングショップ(秋);
#MUSIC:milky ice bear.ogg;
#BANNER:milky ice bear.png;
#BACKGROUND:milky ice bear-bg.png;
#CDTITLE:./CDTitles/REFLEC BEAT limelight.png;
#SAMPLESTART:70.196;
#SAMPLELENGTH:15.000;
#SELECTABLE:YES;
#OFFSET:0.000;
#BPMS:0.000=147.000;
#STOPS:;
#BGCHANGES:;
#FGCHANGES:;

//--------------- dance-single - ----------------
#NOTES:
     dance-single:
     :
     Beginner:
     2:
     0,0,0,0,0:
0000
0000
0000
0000
,
0000
0000
0000
0000
,
0000
0000
0000
0000
,
0000
0000
0000
0000
,
0000
0000
0000
0000
,
0000
0000
0000
0000
,
0000
0000
0000
0000
,
0000
0000
0000
0000
,
0000
0000
0000
0000
,
0001
0000
0000
0000
,
0001
0000
0000
0000
,
1000
0000
0000
0000
,
1000
0000
0000
0000
,
0010
0000
0000
0000
,
0010
0000
0000
0000
,
0100
0000
0000
0100
,
0000
0000
0000
0000
,
0001
0000
0000
0000
,
1000
0000
0000
0000
,
0010
0000
0000
0000
,
0100
0000
1000
0000
,
0001
0000
0000
0100
,
0000
1000
0000
0001
,
0000
0010
0000
1000
,
0000
0000
0000
0000
,
0001
0000
0000
0000
,
0100
0001
0000
0100
,
0000
0010
0000
1000
,
0000
1000
0000
0001
,
0010
0100
0000
1000
,
0000
0001
0000
0100
,
0000
0010
0000
0100
,
0000
1000
0000
0001
,
0010
0000
0000
1000
,
0001
0000
0000
0100
,
0010
0000
0000
0100
,
0010
0000
1000
0000
,
0001
0000
0100
0000
,
0010
0000
1000
0000
,
0001
0000
0010
0000
,
1000
0000
0001
0000
,
0010
0100
1000
0001
,
0000
0000
0000
0000
,
1001
0000
0100
0000
,
0010
0000
0100
0000
,
1000
0000
0001
0000
,
0010
0000
0100
0000
,
0001
0000
1000
0000
,
0001
0000
0100
0000
,
0010
0000
0100
0000
,
0010
0000
1000
0000
,
0001
0000
0010
0000
,
0100
0000
1000
0000
,
0001
0000
0000
0000
,
1000
0000
0000
0000
,
0001
0000
0100
0000
,
0010
0000
1000
0000
,
0001
0000
0100
0000
,
0010
0000
0000
0000
,
0001
0000
0000
0000
,
1000
0000
0000
0010
,
0000
0000
0000
0100
,
0000
1000
0000
0001
,
0000
0010
0000
0000
,
1000
0000
0000
0010
,
0100
1000
0001
0000
,
1000
0000
0000
0000
0000
0000
0000
1001
;

//--------------- dance-single - ----------------
#NOTES:
     dance-single:
     :
     Easy:
     4:
     0,0,0,0,0:
0000
0000
0000
0000
,
0000
0000
0000
0000
,
0000
0000
0000
0000
,
0000
0000
0000
0000
,
0000
0000
0000
0000
,
0000
0000
0000
0000
,
0000
0000
0000
0000
,
0000
0000
0000
0000
,
0000
0000
0000
0000
,
1000
0001
0100
0010
,
0100
1000
0001
0100
,
0010
0100
0001
1000
,
0001
0100
0010
1000
,
0001
0100
0010
0100
,
1000
0001
0100
0010
,
0100
0010
0001
1000
,
0001
0000
0000
0000
,
1000
0000
0001
0000
,
0100
0000
0010
0000
,
0100
0000
0010
0000
,
0001
0010
0100
1000
,
0001
0100
0000
0010
,
0000
1000
0000
0001
,
0000
0010
0000
0100
,
1000
0000
0000
0001
0000
0000
0200
0300
,
0010
0001
1000
0100
,
0010
1000
0001
0100
,
0010
0000
0000
0001
,
0010
0001
1000
0001
,
0100
0010
0100
1000
,
0001
1000
0100
0010
,
0100
0000
0000
0000
,
0010
0100
0001
0100
,
1001
0100
0010
1000
,
0001
0100
0010
1000
,
0000
0001
0100
0010
,
0001
1000
0001
0100
,
0010
0001
1000
0001
,
0100
0010
0100
0001
,
1000
0100
1000
0001
,
0100
0010
0100
0001
,
1000
0001
0100
0020
,
0000
0000
0000
0030
,
1001
0100
0010
1000
,
0001
0100
0010
1000
,
0001
0100
0010
0100
,
0010
0000
1000
0000
0000
1001
0000
0000
,
0010
0100
0001
1000
,
0001
0100
0010
1000
,
0001
0100
0010
1000
,
0001
0100
0010
0001
,
1001
0100
0010
0100
,
1000
0001
0100
1000
,
0001
0100
0010
0100
,
1000
0000
0001
0000
0000
0110
0000
0000
,
1000
0001
0100
0010
,
1000
0001
0100
0010
,
0100
0001
0100
0010
,
0000
0000
1000
0001
,
1001
0100
0010
1000
,
0001
0100
0010
0100
,
1000
0001
0100
0010
,
0100
0001
1000
0001
,
0100
0010
0100
0001
,
1000
0100
0010
1000
,
0001
0000
0100
0000
0010
0000
0001
1000
,
0000
0000
0001
0000
0100
0000
0010
0200
,
0000
0000
0000
0000
,
0300
0000
0000
0000
;

//--------------- dance-single - ----------------
#NOTES:
     dance-single:
     :
     Medium:
     7:
     0,0,0,0,0:
0000
0000
0000
0000
,
0000
0000
0000
0000
,
0000
0000
0000
0000
,
0000
0000
0000
0000
,
0000
0000
0000
0000
,
0000
0000
0000
0000
,
0000
0000
0000
0000
,
0000
0000
0000
0000
,
0000
0000
0000
0000
,
1001
0100
0010
1000
,
0001
0000
0100
0000
0010
0000
1000
0100
,
0010
0000
1000
0000
0001
0000
0100
0010
,
0000
1000
0001
0000
0100
0000
0010
0100
,
1000
0001
0100
0010
,
0020
0000
0000
0000
0000
2030
0000
3200
,
0000
0000
0000
0000
0000
0310
0100
1000
,
0000
0001
0100
1000
0001
0100
0010
1000
,
0001
0000
0000
1000
0001
0000
0000
1000
,
0010
0000
0000
0001
0010
0000
0000
0100
,
0010
0000
0000
0001
0100
0000
0000
0001
,
1000
0100
0010
0001
,
0100
0000
0000
1000
0001
0000
0000
0100
,
0010
0000
0000
1000
0001
0000
0000
0010
,
0100
0000
0000
0001
0010
0000
0000
0010
,
0100
0000
0000
0000
0000
0000
1000
0000
0000
0000
0000
0000
0200
0300
0000
0000
,
0010
0000
0100
0000
0001
1000
0001
0000
,
0100
0000
0010
0000
0100
0001
0010
0000
,
0000
0000
0100
0000
0000
1000
0001
0000
,
0100
0000
0010
0000
0100
1000
0001
0000
,
0100
0000
0010
0000
0001
0010
0100
0000
,
0010
0000
0100
0000
1000
0000
0001
0100
,
0000
1000
0100
0001
,
0100
0000
0010
0000
0100
1000
0010
0001
,
0100
0000
0010
0000
0100
0000
1000
0001
,
0100
0000
0010
0000
0100
0000
0010
1000
,
0001
0000
0010
0000
0100
0010
1000
0000
,
0001
1000
0001
0000
0100
0010
0100
0001
,
1000
0000
0100
0000
0010
1000
0001
0000
,
0100
0010
0100
1000
,
0001
0100
0010
0000
1000
0001
0100
0000
,
0010
0000
0100
0000
1000
0001
0100
0000
,
0010
1000
0001
0000
0100
0000
0010
0100
,
0020
0000
0000
0030
,
1001
0000
0001
0000
0100
0010
0100
0000
,
1000
0001
0100
0010
,
0100
1000
0001
0000
0100
0010
0100
0000
,
1000
0000
0001
0100
0000
0010
0000
0000
,
1000
0001
0100
0010
,
0100
1000
0001
0000
0100
0000
0010
1000
,
0001
0000
0100
0000
0010
1000
0001
0010
,
0000
0100
1000
0001
,
0100
1000
0001
0010
0100
0000
0010
0000
,
0100
1000
0001
0000
0100
0010
0000
0100
,
0000
1000
0001
0000
0100
0000
0010
0100
,
0001
0010
0100
1000
0000
0001
0010
0100
,
1000
0001
0100
0000
0010
0100
0001
0000
,
0010
0000
0100
1000
0001
0010
0100
1000
,
0001
0010
0100
0010
1000
0001
0010
0100
,
0000
0000
1000
0000
0001
0100
0010
1000
,
1001
0100
0010
1000
,
0001
0000
0100
0000
0010
0000
1000
0100
,
0010
0000
1000
0000
0001
0000
0100
0010
,
0000
1000
0001
0000
0100
0000
0010
0100
,
1000
0001
0100
0010
,
0020
0000
0000
0000
0000
2030
0000
3200
,
0000
0000
0000
0000
0000
0310
0100
1000
,
0000
0000
0001
0000
0010
0000
0100
2002
,
0000
0000
0000
0000
,
3003
0000
0000
0000
;

//--------------- dance-single - ----------------
#NOTES:
     dance-single:
     :
     Hard:
     13:
     0,0,0,0,0:
0000
0000
0000
0000
,
0000
0000
0000
0000
,
0000
0000
0000
0000
,
0000
0000
0000
0000
,
0000
0000
0000
0000
,
0000
0000
0000
0000
,
0000
0000
0000
0000
,
0000
0000
0000
0000
,
0000
0000
0000
0000
,
0001
0010
0100
0000
1000
0001
0100
0000
,
0010
1000
0001
0000
0100
0010
2000
0000
,
3002
0000
0010
0000
0100
0000
1000
0013
,
0000
0000
0100
0000
0010
0000
0001
0100
0000
0010
0100
0000
1000
0000
0100
0000
,
0020
0000
0000
0000
,
2030
0000
0000
0000
0000
3001
0000
0020
,
0000
0000
0000
0000
0000
1030
0001
0100
,
0000
0010
0100
0010
1000
0001
0100
0010
,
1000
0000
0000
0001
0000
0000
1000
0000
0010
0000
0000
0001
0000
0000
0100
0000
,
0010
0000
0000
1000
0000
0000
0001
0000
0100
0000
0000
0010
0000
0000
0100
0000
,
1000
0000
0000
0001
0000
0000
0010
0000
0100
0000
0000
1000
0000
0000
0001
0000
,
0020
0230
2300
3002
,
1003
0000
0000
0100
0000
0000
0010
0000
0001
0000
0000
1000
0000
0000
0001
0000
,
0010
0000
0000
0100
0000
0000
0001
0000
1000
0000
0000
0001
0000
0000
0100
0000
,
0010
0000
0000
1000
0000
0000
0001
0000
0010
0000
0000
0100
0000
0000
1000
0000
,
0011
0000
0000
0110
0000
0000
1100
0000
0000
0110
0000
0000
0220
0000
0330
0000
,
1000
0000
0010
0000
0001
1000
0000
0001
0100
0000
1000
0001
0000
0100
1000
0000
,
0100
0000
0010
0000
1000
0000
0001
0000
0100
0000
0000
0010
0000
0000
1000
0000
,
0001
0100
0001
0100
0010
0100
0001
1000
,
0010
0000
0100
0000
1000
0000
0001
0000
0100
0000
0000
0010
0000
0000
0110
0000
,
1000
0000
0010
0000
0001
1000
0000
0001
0100
0000
1000
0001
0000
0100
1000
0000
,
0100
0000
0010
0000
1000
0000
0001
0000
0100
0000
0000
0010
0000
0000
1000
0000
,
0001
0001
0010
0100
,
1000
0000
0010
0000
0100
0000
1000
0000
0001
0000
0010
0000
1000
0000
0010
0001
,
1000
0000
0100
0000
0010
0000
0001
0010
0000
1000
0001
0000
0100
0000
0010
0000
,
1000
0000
0001
0000
0100
0000
0010
1000
0000
0001
0010
0000
1000
0000
0002
0000
,
0000
0000
1003
0000
0010
0000
0100
1000
0000
0010
0001
0000
0100
0000
0010
0000
,
1000
0000
0001
0000
0100
0000
1000
0010
0000
0100
0001
0000
0010
0000
1000
0000
,
0100
0000
0001
0000
0100
0000
1000
0001
0000
1000
0010
0000
0001
0000
1000
0000
,
0001
0000
0010
0000
0100
0000
0001
0100
0000
1000
0010
0000
0100
0000
0010
0000
,
0001
0000
1000
0000
0010
0000
0100
0001
0000
0010
0100
0000
1000
0000
0001
0000
,
0010
0000
0100
0000
1000
0000
0001
0100
0000
0010
1000
0000
0001
0000
0100
0000
,
0001
0000
0100
0000
0010
0000
0100
1000
0000
0001
0100
0000
0010
0000
2000
0000
,
0000
0000
0000
3001
,
0100
0000
1000
0000
0010
0000
1000
0000
0100
0000
0000
0020
0000
0000
2030
0000
,
0000
0000
3100
0000
0001
0000
0010
0000
0001
0000
0000
0110
0000
0000
1000
0000
,
0100
0000
1000
0000
0010
0000
0100
0010
0000
0100
0010
0000
0001
0000
1000
0000
,
0100
1000
0001
0100
0000
2002
0000
3003
,
0010
0000
1000
0000
0001
0000
0000
0000
0001
0000
0000
0100
0000
0000
1000
0000
,
0000
0010
0100
0000
1000
0000
0001
0010
0000
1000
0100
0000
0001
0000
0010
0000
,
0100
0000
0001
0000
0100
0000
0010
0001
0000
1000
0001
0000
0100
0000
0010
0000
,
1001
0100
0010
0001
1000
0001
0100
0010
,
0100
0000
1000
0000
0010
0000
1000
0000
0100
0000
0000
0020
0000
0000
2030
0000
,
0000
0000
3100
0000
0001
0000
0010
0000
0001
0000
0000
0110
0000
0000
1000
0000
,
0100
0000
1000
0000
0010
0000
0100
0010
0000
0100
0010
0000
0001
0000
1000
0000
,
0100
1000
0001
0100
0000
2002
0000
3003
,
0010
0000
1000
0000
0001
0000
0000
0000
0001
0000
0000
0100
0000
0000
1000
0000
,
0000
0010
0100
0000
1000
0000
0001
0010
0000
1000
0100
0000
0001
0000
0010
0000
,
0100
0000
0001
0000
0100
0000
0010
0001
0000
1000
0001
0000
0100
0000
0010
0000
,
1001
0100
0010
0001
1000
0001
0100
0010
,
0001
0010
0100
0000
1000
0001
0100
0000
,
0010
1000
0001
0000
0100
0010
2000
0000
,
3002
0000
0010
0000
0100
0000
1000
0013
,
0000
0000
0100
0000
0010
0000
0001
0100
0000
0010
0100
0000
1000
0000
0100
0000
,
0020
0000
0000
0000
,
2030
0000
0000
0000
0000
3001
0000
0020
,
0000
0000
0000
0000
0000
1030
0001
0100
,
0000
0010
0100
0010
1000
0001
0100
2002
,
0000
0000
0000
0000
,
3003
0000
0000
0000
;
