
//----- song ID: marp -----//
#TITLE:mariposa;
#ARTIST:BEMANI Sound Team "S-C-U";
#GENRE:ノスタルジア;
#MUSIC:mariposa.ogg;
#BANNER:mariposa.png;
#BACKGROUND:mariposa-bg.png;
#CDTITLE:./CDTitles/Nostalgia Op.3.png;
#SAMPLESTART:11.388;
#SAMPLELENGTH:15.000;
#SELECTABLE:YES;
#OFFSET:-0.000;
#BPMS:0.000=100.000
,20.000=200.000
,84.000=100.000
,100.000=200.000
,132.000=100.000
,148.000=50.000
,152.000=100.000
,168.000=200.000
;
#STOPS:;
#BGCHANGES:;
#FGCHANGES:;

//--------------- dance-single - ----------------
#NOTES:
     dance-single:
     :
     Beginner:
     1:
     0,0,0,0,0:
0000
0000
0000
0000
,
0000
0000
0000
0000
,
0000
0000
0000
0000
,
0000
0000
0000
0000
,
0000
0000
0000
0000
,
0010
0000
0000
0000
,
0010
0000
0000
0000
,
0100
0000
0000
0000
,
0100
0000
0000
0000
,
0001
0000
0000
0000
,
1000
0000
0000
0000
,
0010
0000
0000
0000
,
0000
0000
0000
0000
,
0001
0000
0000
0000
,
0000
0000
0000
0000
,
1000
0000
0000
0000
,
0001
0000
0000
0000
,
0100
0000
0000
0000
,
0010
0000
0000
0000
,
1000
0000
0000
0000
,
0001
0000
0000
0000
,
1000
0000
0000
0100
,
0000
0000
0000
0010
,
0000
0000
0000
0100
,
0000
0000
0000
0000
,
1000
0000
0000
0000
,
0000
0000
0000
0001
,
0000
0000
0000
0000
,
0000
0000
0010
0000
,
0000
0000
0000
0000
,
0100
0000
0000
0000
,
1000
0000
0001
0000
,
0100
0000
0000
0000
,
0010
0000
1000
0000
,
0001
0000
0010
0000
,
0100
0000
1000
0000
,
0001
0000
0000
0000
,
0010
0000
0000
0000
,
1000
0000
0001
0000
,
0100
0000
0010
0000
,
1000
0000
0000
0000
,
0000
0000
0000
0000
,
1000
0000
0000
0000
,
0001
0000
0000
0000
,
0010
0000
0000
0000
,
0100
0000
0000
0000
,
0001
0000
0000
0000
,
1000
0000
0000
0000
,
0010
0000
0000
0000
,
1000
0000
0000
0000
,
0001
0000
0000
0000
,
0010
0000
0000
0000
,
1000
0000
0000
0000
,
0001
0000
0000
0000
,
0010
0000
0000
0000
,
0100
0000
0000
0000
,
1000
0000
0000
0000
,
0000
0000
0000
0000
,
0001
0000
0000
0000
,
0000
0000
0000
0000
,
0010
0000
0000
0000
,
0000
0000
0000
0000
,
0100
0000
0000
0000
,
1000
0000
0000
0000
,
0001
0000
0000
0000
,
0000
0000
0000
0000
,
0100
0000
0000
0000
,
0010
0000
0000
0000
,
1000
0000
0000
0000
,
0000
0000
0000
0000
,
0001
0000
0000
0000
,
1000
0000
0000
0000
,
0001
0000
0000
0000
,
0100
0000
0000
0000
;

//--------------- dance-single - ----------------
#NOTES:
     dance-single:
     :
     Easy:
     5:
     0,0,0,0,0:
0000
0000
0000
0000
,
0000
0000
0000
0000
,
0000
0000
0000
0000
,
1000
1000
0000
0001
0000
0100
0000
0010
0000
0100
0000
0000
1000
0000
0001
0000
,
0100
0000
0000
0100
0000
0000
0110
0000
0000
0000
0000
0000
0000
0000
0000
0000
,
1000
0001
0100
0000
,
0010
1000
0001
0100
,
0010
0100
1000
0001
,
0100
0010
0000
1000
,
0001
0100
0001
0010
,
0100
1000
0001
0100
,
1000
0000
0000
0001
0000
0010
0000
0100
,
0000
1000
0000
0000
,
0010
1000
0001
0100
,
1000
0000
0010
0000
,
0100
0000
1000
0000
,
0010
0100
0010
1000
,
0001
0000
0100
0000
,
1000
0000
0001
0000
,
0010
0000
0000
1000
0000
0000
0001
0000
,
0000
0100
0000
0000
1000
0000
0001
0000
,
0100
0000
1000
0000
0001
0100
0010
0000
,
1000
0000
0001
0000
0100
1000
0001
0000
,
0010
0000
0100
0000
0010
0001
0100
0000
,
1000
0000
0000
0001
0000
0000
0100
0000
0000
0001
0000
0000
1000
0000
0000
0000
,
0001
0000
0100
0000
,
0010
1000
0001
0000
,
0100
0000
0001
0000
,
1000
0001
0100
0000
,
0010
0000
0100
0000
,
1000
0001
0100
0000
,
0010
0000
0100
0000
,
1000
0001
0100
0010
,
1000
0000
0001
0000
0100
1000
0001
0000
,
0100
0000
0010
0000
0001
0000
0010
0001
,
1000
0001
0100
0010
,
1000
0000
0001
0000
0100
0010
1000
0000
,
2002
0000
0000
3003
0010
0100
1000
0001
,
0101
0000
0100
0000
1000
0001
0100
0000
,
0010
0000
0100
0000
1000
0001
0010
0000
,
1000
1000
0000
0001
0000
0100
0000
0010
0000
0100
0000
0000
1000
0000
0001
0000
,
0100
0000
0000
0100
0000
0000
0110
0000
0000
0000
0000
0000
0000
0000
0000
0000
,
1000
0001
0100
0000
,
0010
1000
0001
0100
,
0010
0100
1000
0001
,
0100
0010
0000
1000
,
0001
0100
0001
0010
,
0100
1000
0001
0100
,
1000
0000
0000
0001
0000
0010
0000
0100
,
0000
1000
0000
0000
,
0010
1000
0001
0100
,
1000
0000
0010
0000
,
0100
0000
1000
0000
,
0010
0100
0010
1000
,
0001
0000
0100
0000
,
1000
0000
0001
0000
,
0010
0000
0000
1000
0000
0000
0001
0000
,
0000
0100
0000
0000
1000
0000
0001
0000
,
0100
0000
0010
0000
,
0001
0000
1000
0001
,
0100
0000
0010
0000
,
1000
0000
0001
0100
,
1000
0000
0001
0000
,
0100
0000
1000
0000
,
0001
0000
0000
0100
0000
1000
0000
0001
,
0000
0100
0000
0000
,
1001
0000
0100
0000
,
1000
0001
0100
0010
,
0100
0000
0001
0000
,
1000
0001
0100
0010
,
1000
0000
0001
0000
,
0100
0000
0010
0000
,
1000
0000
0001
0000
,
0220
0000
0000
0000
0000
0000
0000
0000
0000
0000
0330
0000
;

//--------------- dance-single - ----------------
#NOTES:
     dance-single:
     :
     Medium:
     10:
     0,0,0,0,0:
0000
0000
0000
0000
,
0000
0000
0000
0000
,
0000
0000
0000
0000
,
1000
1000
0000
0001
0000
0100
0000
0010
0000
0100
0000
0000
1000
0000
0001
0000
,
0100
0000
0000
0100
0000
0000
0220
0000
0000
0000
0330
0000
0000
0000
0000
0000
,
1000
0001
0100
0010
,
0100
1000
0001
0100
,
0010
0001
0010
0100
,
0001
1000
0001
0100
,
0010
0100
0001
1000
,
0001
0100
0010
0100
,
1000
0000
0001
0010
0000
0110
0000
1001
,
0000
0000
0100
0110
0000
0000
0020
0000
,
1030
0001
0100
0010
,
0100
1000
0001
0100
,
1001
0000
0000
0000
0000
0000
0000
0000
1000
0000
0000
0001
0000
0000
0100
0000
,
1000
0010
0100
1000
,
0001
0010
0100
1000
,
0001
0010
0100
1000
,
1000
1000
0000
0001
0001
0000
1000
1000
,
0000
0001
0001
0000
0010
0000
0100
0000
,
1000
0000
0001
0000
0010
1000
0001
0000
,
0010
0100
1000
0000
0001
1000
0001
0100
,
0010
1000
0001
0000
0100
0010
0001
0000
,
1000
0000
0000
0001
0000
0000
1001
0000
0000
0101
0000
0000
1001
0000
0110
0000
,
0010
1000
0001
0010
,
0100
1000
0001
0100
,
0010
0000
0000
1000
0001
0000
0100
0000
,
0010
0100
1000
0001
,
0000
0000
1000
0001
0000
0000
0100
0000
,
1000
0000
0001
0010
0000
0000
0100
0000
,
1000
0000
0001
0010
0000
0100
1000
0000
,
0001
0010
0000
0100
1000
0001
0010
0100
,
1000
0000
0001
0010
0100
1000
0001
0100
,
0010
0100
1000
0001
0100
0010
0001
0010
,
0100
1000
0001
0100
0010
1000
0001
0100
,
0010
1000
0001
0010
0100
1000
0001
0010
,
2000
0000
3200
0320
0032
0023
0230
2300
,
3001
0010
0100
1000
0001
0100
0010
0001
,
0010
0100
1000
0001
0010
0001
0100
0010
,
1000
1000
0000
0001
0000
0100
0000
0010
0000
0100
0000
0000
1000
0000
0001
0000
,
0100
0000
0000
0100
0000
0000
0220
0000
0000
0000
0330
0000
0000
0000
0000
0000
,
1000
0001
0100
0010
,
0100
1000
0001
0100
,
0010
0001
0010
0100
,
0001
1000
0001
0100
,
0010
0100
0001
1000
,
0001
0100
0010
0100
,
1000
0000
0001
0010
0000
0110
0000
1001
,
0000
0000
0100
0110
0000
0000
0020
0000
,
1030
0001
0100
0010
,
0100
1000
0001
0100
,
1001
0000
0000
0000
0010
0000
0000
0000
1000
0000
0000
0001
0000
0000
0100
0000
,
1000
0010
0100
1000
,
0001
0010
0100
1000
,
0001
0010
0100
1000
,
1000
1000
0000
0001
0001
0000
1000
1000
,
0000
0001
0001
0000
0010
0001
0100
0001
,
1000
0010
0001
1000
,
0001
0100
0010
1000
,
0001
0100
0010
0001
,
0010
0100
0001
1000
,
0001
0100
0010
0001
,
0010
0100
0001
1000
,
0001
0000
0010
1000
0000
0001
0000
0110
,
0000
0000
1000
0001
0000
0000
2000
0000
,
3001
0100
0010
1000
,
0001
0000
0100
0000
0010
0000
1000
0001
,
0000
0000
0000
0000
0001
0000
0000
0000
0100
0000
0000
1000
0000
0000
0001
0000
,
0010
0100
0010
1000
,
0001
0010
1000
0001
,
0100
0000
1000
0001
0010
0000
0100
0000
,
1000
0001
0100
1000
,
0001
0000
0010
0000
0100
0000
1000
0000
0001
0000
0010
0000
;

//--------------- dance-single - ----------------
#NOTES:
     dance-single:
     :
     Hard:
     15:
     0,0,0,0,0:
0000
0000
0000
0000
,
0000
0000
0000
0000
,
0000
0000
0000
0000
,
1000
1000
0000
0001
0000
0100
0000
0010
0000
0100
0000
0000
1000
0000
0001
0000
,
0100
0000
0000
0100
0000
0000
0220
0000
0000
0000
0330
0000
1000
0001
0010
0100
,
0001
1000
0010
1000
0100
0010
0100
0010
,
0001
0010
0001
0100
0010
0100
0001
0100
,
0010
1000
0010
0100
0001
0100
0001
1000
,
0010
1000
0001
0100
0001
1000
0010
1000
,
0001
1000
0010
0100
0001
1000
0001
0100
,
0010
1000
0010
0100
0001
0100
0010
0100
,
1000
0000
0001
0010
0000
0110
0000
0101
,
0000
0000
0000
0000
1000
0000
0102
0000
0000
0000
0000
0000
0013
0100
0010
0100
,
0010
0100
1000
0100
1000
0001
0100
0010
,
1000
0100
0010
0100
0010
0001
1000
0100
,
1001
0000
0000
0000
0110
0000
0000
0000
0001
0000
0000
0010
0000
0000
0100
0000
,
1001
0101
1010
0101
,
0001
0100
0001
1000
0001
0010
0100
1000
,
0001
1000
0010
0100
0010
1000
0010
0100
,
1000
1000
0000
0001
0001
0000
0010
0010
,
1000
0000
0100
0000
0100
0000
0001
0000
1000
0000
0100
0000
0001
0010
0001
0010
,
0001
1000
0010
0000
0001
0000
0010
1000
0000
0100
0010
0000
0001
0000
0100
0000
,
0001
0010
1000
0001
0000
0100
1000
0200
0000
0000
0302
0000
0013
0000
1000
0000
,
0100
0000
0010
0000
0001
0000
1000
0000
0000
0000
0100
0000
0000
0000
0020
0000
0000
0000
0000
0000
0000
0000
0000
0000
0032
0000
0000
0000
1003
0000
0001
1000
,
0001
0000
0000
0000
0000
0000
0110
0000
0000
0000
0000
0000
1001
0000
0000
0000
0000
0000
0110
0000
0000
0000
0000
0000
1001
0000
0000
0000
0001
0100
0001
0100
,
0001
1000
0010
0100
0001
0000
0010
1000
,
0000
0100
0010
0000
0001
1000
0100
1000
,
0001
0010
1000
0001
0010
0100
1000
0200
,
0000
0302
0013
1000
,
1001
0000
0001
1000
0000
0100
1000
0020
,
1000
0000
0000
0000
0100
0000
0000
0000
0032
0000
0000
0000
1003
0000
0001
1000
,
0001
0000
0000
0110
0000
0000
1000
0100
,
0001
0000
0010
0000
0100
0000
0010
0000
1000
0000
0010
0000
0001
0100
0001
0100
,
0001
0000
1000
0000
0001
0000
0100
1000
0010
0000
0001
0000
0100
0000
1000
0000
,
0001
0010
0100
0000
0010
0000
1000
0000
0001
0010
0100
0000
0010
1000
0001
0000
,
0010
0000
0100
0000
0001
0000
1000
0010
0001
0000
0100
0000
0010
0000
1000
0010
,
0001
0000
0100
0000
0010
1000
0100
0000
1000
0010
0001
0010
0100
1000
0010
0100
,
1000
0000
0000
0000
0000
0000
0100
0000
0000
0000
1000
0000
0010
0000
0100
0000
0001
0000
0000
0000
1000
0000
0000
0000
0100
0000
0000
0000
0002
0000
0000
0000
0023
0000
0000
0000
0000
0000
0000
0000
0230
0000
0000
0000
0000
0000
0000
0000
0301
0000
0000
0000
0000
0000
0010
0100
1000
0000
0001
0000
1000
0000
0000
0000
,
0010
0000
1000
0000
0001
0000
0100
1000
0010
0000
0100
0000
1000
0000
0001
0010
,
0100
0000
0000
0000
0010
0000
0000
0000
1000
0000
0000
0000
0001
0000
0010
0000
0100
0000
0000
0000
0001
0000
0010
0001
0100
0000
1000
0000
0100
0000
0000
0000
,
0001
0001
0000
1001
0000
0110
0000
1001
0000
0101
0000
0000
0001
0000
1001
0000
,
0101
0000
0000
1010
0000
0000
0220
0000
0000
0000
0330
0000
1000
0001
0100
0010
,
1000
0001
0100
0001
0010
0100
0010
0100
,
1000
0100
1000
0010
0100
0010
1000
0010
,
0100
0001
0100
0010
1000
0010
1000
0001
,
0100
0001
1000
0010
1000
0001
0100
0001
,
1000
0001
0100
0010
1000
0001
1000
0010
,
0100
0001
0100
0010
1000
0010
0100
0010
,
0001
0000
1000
0100
0000
0110
0000
1010
,
0000
0000
0000
0000
0001
0000
2010
0000
0000
0000
0000
0000
3100
0010
0100
0010
,
0100
0010
0001
0010
0001
1000
0010
0100
,
0001
0010
0100
0010
0100
1000
0001
0010
,
1001
0000
0000
0000
0110
0000
0000
0000
1000
0000
0000
0100
0000
0000
0010
0000
,
1001
1010
0101
1010
,
1000
0010
1000
0001
1000
0100
0010
0001
,
1000
0001
0100
0010
0100
0001
0100
0010
,
0001
0001
0000
1000
1000
0000
0100
0100
,
0001
0000
0010
0000
0010
0000
1000
0000
0001
0000
0010
0000
1000
0100
1000
0100
,
0001
1000
0010
1000
0100
0010
0100
0010
,
0001
0010
0001
0100
0010
0100
0001
0100
,
0010
1000
0010
0100
0001
0100
0001
1000
,
0010
1000
0001
0100
0001
1000
0010
1000
,
0001
1000
0010
0100
0001
1000
0001
0100
,
0010
1000
0010
0100
0001
0100
0010
0100
,
1000
0100
0001
0010
0000
0110
0000
0101
,
0000
0000
0000
0000
1000
0000
0102
0000
0000
0000
0000
0000
0013
0100
0010
0100
,
0010
0100
1000
0100
1000
0001
0100
0010
,
1000
0100
0010
0100
0010
0001
1000
0100
,
1001
0000
0000
0000
0110
0000
0000
0000
0001
0000
0000
0010
0000
0000
0100
0000
,
1001
0101
1010
0101
,
0001
0100
0001
1000
0001
0010
0100
1000
,
0001
1000
0010
0100
0010
1000
0010
0100
,
1000
0001
0100
0001
0100
1000
0010
0001
,
1000
0000
0001
0000
0010
0000
1000
0000
0100
0000
0220
0000
,
0000
0000
0000
0000
,
0000
0000
0000
0000
,
0000
0000
0000
0000
,
0000
0000
0000
0000
,
0330
0000
0000
0000
;
