
//----- song ID: m1dy2 -----//
#TITLE:m1dy Deluxe;
#ARTIST:m1dy;
#GENRE:ナムコオリジナル;
#MUSIC:m1dy Deluxe.ogg;
#BANNER:m1dy Deluxe.png;
#BACKGROUND:m1dy Deluxe-bg.png;
#CDTITLE:./CDTitles/NSD A3.png;
#SAMPLESTART:14.622;
#SAMPLELENGTH:15.000;
#SELECTABLE:YES;
#OFFSET:0.000;
#BPMS:0.000=410.000
,92.000=102.500
,94.000=410.000
,214.000=102.500
,216.000=410.000
,376.000=102.500
,380.000=410.000
,388.000=102.500
,398.000=205.000
,410.000=102.500
,412.000=410.000
,468.000=102.500
,478.000=205.000
,490.000=410.000
,497.000=205.000
,498.000=410.000
,504.000=205.000
,505.000=410.000
,511.000=205.000
,512.000=410.000
,544.000=102.500
,546.000=410.000
,666.000=102.500
;
#STOPS:490.000=1.024;
#BGCHANGES:;
#FGCHANGES:;

//--------------- dance-single - ----------------
#NOTES:
     dance-single:
     :
     Beginner:
     6:
     0,0,0,0,0:
0000
0000
0000
0000
,
0000
0000
0000
0000
,
0000
0000
0000
0000
,
0000
0000
0000
0000
,
0000
0000
0000
0000
,
0000
0000
0000
0000
,
0000
0000
0000
0000
,
0000
0000
0000
0000
,
0000
0000
0000
0000
,
0100
0000
0000
0000
,
0000
0000
0000
0000
,
0100
0000
0000
0000
,
0000
0000
0000
0000
,
0100
0000
0000
0000
,
0000
0000
0000
0000
,
0100
0000
0000
0000
,
0000
0000
0000
0000
,
0010
0000
0000
0000
,
0000
0000
0000
0000
,
0010
0000
0000
0000
,
0000
0000
0000
0000
,
0010
0000
0000
0000
,
0000
0000
0000
0000
,
0010
0000
1000
0000
,
0000
0000
0000
0000
,
0000
0000
1000
0000
,
0000
0000
0000
0000
,
0000
0000
0001
0000
,
0000
0000
0000
0000
,
0000
0000
0001
0000
,
0000
0000
0000
0000
,
0000
0000
0010
0000
,
0000
0000
0000
0000
,
0000
0000
0010
0000
,
0000
0000
0000
0000
,
0000
0000
0100
0000
,
0000
0000
0000
0000
,
0000
0000
0100
0000
,
0000
0000
0000
0000
,
0000
0000
0010
0000
,
0000
0000
0000
0000
,
0000
0000
0010
0000
,
0000
0000
0000
0000
,
0000
0000
1000
0000
,
0000
0000
0000
0000
,
0000
0000
0001
0000
,
0000
0000
0000
0000
,
0000
0000
0010
0000
,
0000
0000
0000
0000
,
0000
0000
0100
0000
,
0000
0000
0000
0000
,
0000
0000
0001
0000
,
0000
0000
0000
0000
,
0000
0000
1000
0000
,
0100
0000
0000
0000
,
0100
0000
0000
0000
,
0001
0000
0000
0000
,
1000
0000
1000
0000
,
0001
0000
0000
0000
,
0100
0000
0000
0000
,
0010
0000
0000
0000
,
0100
0000
0100
0000
,
1000
0000
0000
0000
,
0001
0000
0000
0000
,
0100
0000
0000
0000
,
0010
0000
0010
0000
,
0100
0000
0000
0000
,
1000
0000
0000
0000
,
0001
0000
0000
0000
,
1000
0000
0000
0000
,
1001
0000
0000
0000
,
0100
0000
0000
0000
,
0010
0000
0000
0000
,
0100
0000
1000
0000
,
0001
0000
0000
0000
,
0100
0000
0000
0000
,
0010
0000
0000
0000
,
0100
0000
0001
0000
,
0010
0000
0000
0000
,
0100
0000
0000
0000
,
1000
0000
0000
0000
,
0001
0000
0000
0000
,
0100
0000
0000
0000
,
0010
0000
0000
0000
,
1000
0000
0001
0000
,
1000
0000
0000
0000
,
1001
0000
0000
0000
,
0010
0000
0000
0000
,
0100
0000
0000
0000
,
0001
0000
0000
0000
,
0010
0000
0000
0000
,
0100
0000
0000
0000
,
0001
0000
0000
0000
,
1000
0000
0000
0000
,
2000
3000
0002
0003
,
0100
0000
0000
0000
,
0010
0000
0000
0000
,
0200
0300
0001
1000
,
0001
0000
0100
0010
,
0100
0000
0002
0000
,
1003
0000
2000
0000
,
3001
0000
0010
0000
,
0100
0000
0000
0000
1000
0001
1000
0000
,
0100
0000
0000
0000
,
0010
0000
0000
0000
,
0100
0000
1000
0000
,
0001
0000
0000
0000
,
0100
0000
0000
0000
,
0010
0000
0000
0000
,
0001
0000
1000
0000
,
0001
0000
0000
0000
,
1000
0001
1000
0000
,
0100
0000
0000
0000
,
0001
0010
0100
0000
,
1000
0000
0000
0000
,
0001
1000
0001
0000
,
0100
0000
0000
0000
,
0220
0330
0001
1000
,
0001
1000
0010
0100
,
0010
0100
1000
0000
,
0001
0000
0100
0000
,
0010
0000
1000
0001
,
1000
0000
0001
0100
,
0000
1000
0000
0010
,
0000
0000
0100
0000
,
0001
0000
1000
0000
,
0000
0001
0000
1000
,
0000
0100
0000
0000
,
0010
0000
0100
0000
,
1000
0000
0000
0000
,
0001
0000
1000
0000
,
0001
0000
0000
0000
,
0100
0000
0010
0000
,
0100
0000
0000
0000
,
1000
0000
0001
0000
,
0100
0000
0010
0000
,
0220
0330
1000
0000
,
0000
0000
0001
0000
,
0000
0000
0100
0000
,
0000
0000
0010
0000
,
0000
0000
0001
0000
,
0000
0000
1000
0000
,
0000
0000
0001
0000
,
0100
0000
0010
0000
,
0000
0000
1000
0000
,
0000
0000
0001
0000
,
0000
0000
0100
0000
,
0000
0000
0010
0000
,
0000
0000
0001
0000
,
0000
0000
1000
0000
,
0000
0000
0001
0000
,
0000
0000
0100
0000
,
0000
0000
0010
0000
,
0100
0000
1000
0000
,
0000
0000
0001
0000
,
1000
0000
0001
0000
,
0000
0000
0100
0000
,
0010
0000
0001
0000
,
0000
0000
1000
0000
,
0001
0000
0100
0000
,
0000
0000
0110
0000
,
0000
0000
0000
0000
,
0000
0000
1001
0000
,
0000
0000
0000
0000
,
0000
0000
0110
0000
,
0000
0000
0000
0000
,
0000
0000
0200
0000
,
0300
0000
0000
0000
;

//--------------- dance-single - ----------------
#NOTES:
     dance-single:
     :
     Easy:
     11:
     0,0,0,0,0:
0000
0000
0000
0000
,
0000
0000
0000
0000
,
0000
0000
0000
0000
,
0000
0000
0000
0000
,
0000
0000
0000
0000
,
0000
0000
0000
0000
,
0000
0000
0000
0000
,
0000
0000
0000
0000
,
0000
0000
0000
0000
,
0001
0000
0000
0000
,
0000
0000
0000
0000
,
1000
0000
0000
0000
,
0000
0000
0000
0000
,
0001
0000
0000
0000
,
0000
0000
0000
0000
,
1000
0000
0000
0000
,
0000
0000
0000
0000
,
0010
0000
0000
0000
,
0000
0000
0000
0000
,
0100
0000
0000
0000
,
0000
0000
0000
0000
,
0010
0000
0000
0000
,
0100
0000
0000
0000
,
0220
0330
1000
0000
,
0000
0000
0001
0000
,
0000
0000
0100
0000
,
0010
0000
0001
0000
,
0000
0000
1000
0000
,
0001
0000
0100
0000
,
0010
0000
0100
0000
,
0000
0000
1000
0000
,
0000
0000
0001
0000
,
1000
0000
0100
0000
,
0000
0000
0010
0000
,
0001
0000
0010
0000
,
0000
0000
0100
0000
,
1000
0000
0001
0000
,
0010
0000
0110
0000
,
0000
0000
1000
0000
,
0000
0000
0001
0000
,
0010
0000
0100
0000
,
0000
1000
0010
0000
,
0001
0000
0100
1000
,
0000
0000
0001
0000
,
0100
0000
0010
0100
,
0000
0000
1000
0000
,
0001
0000
0100
0010
,
0000
0000
0100
0000
,
1000
0000
0001
0010
,
0000
0100
1000
0000
,
1000
0000
0001
0000
,
0100
0000
0010
0000
,
0001
0000
0010
0000
,
0100
0000
2000
3000
,
0001
0000
1000
0000
,
0001
0000
0010
0000
,
0100
1000
0001
0000
,
0010
0000
0000
0000
,
0010
0100
1000
0000
,
0001
0000
0010
0000
,
0100
0000
0001
0000
,
0010
0000
0001
0000
,
0100
1000
0001
0000
,
0010
0000
0100
0000
,
0010
1000
0001
0000
,
0010
0000
0100
0000
,
0001
0010
0100
0000
,
0100
0000
1000
0000
,
0001
0010
0100
0000
,
0001
0000
0020
0000
,
0130
0000
1000
0000
,
0001
0100
0010
0000
,
0100
0000
1000
0000
,
0001
0010
0100
0000
,
1000
0000
0001
0000
,
0010
0100
0001
0000
,
0010
0100
1000
0000
,
0001
0000
0010
0000
,
1000
0001
0010
0000
,
0100
0000
0010
0000
,
1000
0001
0100
0000
,
0100
0000
0010
0000
,
0100
1000
0001
0000
,
0010
0000
0100
0000
,
0001
0010
0100
0000
,
1000
0001
0010
0000
,
0100
0000
0010
0000
,
0100
1000
0001
0000
,
0010
0000
0100
0000
,
0001
0010
0100
0000
,
1000
0000
0001
0000
,
0010
0100
1000
0000
,
0001
1000
0100
0000
,
0010
0001
0010
0000
,
2000
3000
0002
0003
,
1001
0000
0010
0000
,
0100
0000
1000
0000
,
0010
0000
0200
0310
,
1000
0100
0010
0000
0002
0000
1003
0000
,
0100
0010
0100
0000
1000
0000
0001
0000
,
0100
0010
0001
0010
,
0100
0001
0110
1000
,
0101
0000
0010
0000
0100
0100
0001
1001
,
0100
0000
1000
0001
,
0100
0000
0010
0000
,
0100
0000
0001
0100
,
0001
0000
0010
0000
,
0100
1000
0001
0000
,
0010
0000
0100
0000
,
1000
0001
0010
0000
,
0100
0000
1000
0000
,
0001
1000
0001
0000
,
1000
0001
1000
0000
,
0100
0010
0100
0000
,
0010
0100
0010
0000
,
1000
0001
0010
0100
,
1000
0001
0010
0100
,
0020
0030
1000
0001
,
0100
0010
1000
0001
,
0100
0010
1000
0001
,
0100
0010
1000
0001
,
0100
0000
0010
0000
1000
0001
0010
0000
,
0100
1000
0001
0000
0110
0000
1000
0000
,
0100
0010
0000
0001
,
0000
0100
1000
0001
,
0010
0000
0100
0000
,
0001
0010
0100
1000
,
0000
0001
0000
1000
,
0010
0001
0100
0000
,
0001
0000
1000
0000
,
0001
0100
0010
0000
,
1000
0000
0001
0000
,
0010
0100
1000
0000
,
0001
0000
0100
0000
,
0001
0100
0010
0000
,
1000
0000
0001
0000
,
0220
0330
1000
0000
,
0001
0000
0100
0010
,
0100
0000
1000
0000
,
0001
0000
0010
0100
,
1000
0000
0001
0000
,
0100
0000
0001
0010
,
0100
0000
0001
0010
,
0100
0000
0220
0000
,
0330
0000
1000
0000
,
0001
0000
0100
0010
,
0100
0000
1000
0000
,
0001
0000
0010
0100
,
0001
0000
1000
0000
,
0001
0000
0100
0010
,
0100
0000
1000
0001
,
0010
0000
0100
0000
,
1000
0000
0001
1000
,
0001
0000
0100
0000
,
0010
0000
0100
1000
,
0001
0000
0100
0000
,
0010
0000
0001
0010
,
0100
0000
1000
0000
,
0001
0000
0010
0100
,
1000
0000
0001
0000
,
0100
0000
0010
0100
,
1000
0000
0000
0000
,
0000
0000
0001
1000
,
0001
0000
0000
0000
,
0000
0000
0110
0000
,
0000
0000
1001
0000
,
0000
0000
0110
0000
,
1001
0000
0000
0000
;

//--------------- dance-single - ----------------
#NOTES:
     dance-single:
     :
     Medium:
     15:
     0,0,0,0,0:
0000
0000
0000
0000
,
0000
0000
0000
0000
,
0000
0000
0000
0000
,
0000
0000
0000
0000
,
0000
0000
0000
0000
,
0000
0000
0000
0000
,
0000
0000
0000
0000
,
0000
0000
0000
0000
,
0000
0000
0000
0000
,
1000
0000
0000
0001
,
0000
0000
0000
0000
,
1000
0000
0000
0001
,
0000
0000
0000
0000
,
0100
0000
0000
0010
,
0000
0000
0000
0000
,
0100
0000
0000
0010
,
0000
0000
0000
0000
,
2002
0000
0000
0000
,
0000
0000
0000
0000
,
0000
0000
0000
0000
,
0000
0000
0000
0000
,
0000
0000
0000
0000
,
0000
0000
0000
3003
,
0220
0330
0001
0001
,
0100
0000
0010
0000
,
1000
0000
0100
0100
,
0010
0000
0001
0000
,
1000
0000
0010
0010
,
0100
0000
0001
0000
,
0010
0000
0100
0100
,
1000
0000
0001
0000
,
0100
0000
0010
0100
,
0001
0000
0010
0000
,
0100
0000
0010
0100
,
1000
0000
0001
0000
,
1000
0000
0001
1000
,
0010
0000
1000
0001
,
0010
0000
0100
0000
,
0010
0000
1000
0001
,
0100
0000
1000
1000
,
0010
0000
0100
0000
,
0001
0000
0010
0010
,
0100
0000
1000
0000
,
0001
0000
0100
0100
,
0010
0000
1000
0000
,
0100
0000
0010
0010
,
0001
0000
1000
0000
,
0010
0000
0100
0010
,
1000
0000
0100
0000
,
0010
0000
0100
0010
,
0001
0000
1000
0000
,
0001
0000
1000
0001
,
0100
0000
0001
1000
,
0100
0000
0000
0000
0220
0000
0000
0330
,
0001
0001
0100
0100
,
0010
0000
1000
0000
,
0100
0010
0001
1000
,
0010
0100
0010
0000
,
1000
1000
0100
0100
,
0010
0000
0001
0000
,
1000
0100
0010
0001
,
0100
0010
0100
0000
,
0110
0100
0100
0001
,
0001
0010
0000
0100
,
0010
0001
1000
0010
,
0100
0010
0000
1000
,
1000
0001
0001
0010
,
0100
0100
0000
0010
,
0001
1000
0100
0010
,
0001
1000
0001
1000
,
0001
0001
0100
0100
,
0010
0001
1000
0001
,
0100
0010
0001
1000
,
0010
0100
0010
0100
,
1000
1000
0100
0100
,
0010
1000
0001
0010
,
1000
0100
0010
0001
,
0100
0010
0100
0001
,
0100
1000
0100
0001
,
0001
0010
1000
0100
,
0010
0001
1000
0010
,
0100
0010
0100
1000
,
1000
0001
0001
0010
,
0100
0100
1000
0010
,
0001
1000
0100
0010
,
0001
1000
0001
1000
,
0010
1000
0001
0100
,
0010
1000
0100
0010
,
0001
0100
0001
0010
,
0001
0010
0100
1000
,
0001
1000
0001
0010
,
0100
0010
0001
1000
,
0010
1000
0010
0100
,
0001
0100
0001
0010
,
0200
0000
0320
0000
,
1030
0010
1000
0010
,
1000
0010
0100
0001
,
0200
0000
0300
0000
0001
1000
0001
0000
,
0100
0010
0100
0000
1000
0001
0100
0000
,
0010
0001
0010
0000
0100
0000
1000
0000
,
0001
0100
0010
0100
,
1000
0001
0110
1001
,
0110
0000
0101
0000
0100
0100
0001
1001
,
0100
1000
0001
0100
,
0010
1000
0001
0010
,
0100
1000
0010
1000
,
0100
0000
1000
0000
0001
0000
0010
1000
,
0100
0010
0100
1000
,
0010
1000
0100
1000
,
0001
0000
0010
1000
0001
0000
0100
0000
,
0001
0000
0100
0000
0010
0000
1000
0100
,
0001
0010
0001
1000
,
0001
1000
0010
1000
,
0100
0010
0100
0010
,
0001
0000
1000
0000
0010
0000
0100
0001
,
0010
0100
0010
1000
,
0100
1000
0100
0010
,
2002
0000
3003
0000
0100
0010
0110
0000
,
1000
0001
1001
0000
0100
0010
0110
0000
,
0001
0010
0101
0000
1000
0000
0001
0000
,
0100
0010
0001
0010
,
0100
0000
1000
0000
0001
1000
0001
0100
,
0010
0100
1000
0010
1001
0000
0001
0000
,
0010
0001
1000
0010
,
0100
2001
3010
0001
,
0010
0100
0010
0100
,
1002
0013
1000
0010
,
0100
0001
0010
1002
,
1003
0001
0010
0100
,
1000
0010
1000
0001
,
0010
0100
1000
0010
,
0100
0001
1000
0100
,
1000
0100
1000
0001
,
0010
0100
1000
0010
,
1000
0100
1000
0001
,
0010
0100
1000
0001
,
0220
0000
0000
0330
0001
0000
0001
0000
,
1000
1000
0100
0010
,
0001
0100
0001
0001
,
0010
0010
0100
1000
,
0100
0010
0100
0100
,
1000
1000
0010
0100
,
0001
0010
0100
0100
,
1000
1000
0001
1000
,
0010
0000
0010
1000
,
0001
0100
0010
0010
,
0010
0100
0001
1000
,
0010
0100
0001
0001
,
0001
0010
0100
1000
,
0100
0010
0001
0001
,
0001
1000
0010
0010
,
0100
0100
0010
0010
,
0010
0000
1000
0010
,
1000
0000
1100
0000
,
0101
0000
1000
0001
,
1000
0000
0101
0000
,
0011
0000
0010
0100
,
0010
0000
0011
0000
,
1001
0000
0001
0100
,
0010
1000
0100
0010
,
0001
0000
1000
0010
,
0100
0010
1000
0000
,
0110
0000
0001
0100
,
0010
0100
0001
0000
,
0110
0000
0001
1000
,
0100
0010
0001
0000
,
1001
0000
0000
0000
0200
0000
0000
0300
,
0110
0000
0000
0000
;

//--------------- dance-single - ----------------
#NOTES:
     dance-single:
     :
     Hard:
     16:
     0,0,0,0,0:
0000
0000
0000
0000
,
0000
0000
0000
0000
,
0000
0000
0000
0000
,
0000
0000
0000
0000
,
0000
0000
0000
0000
,
0000
0000
0000
0000
,
0000
0000
0000
0000
,
0000
0000
0000
0000
,
0000
0000
0000
0000
,
1000
0000
0000
0001
0000
0000
0100
0000
,
0000
0010
0000
2000
0000
0000
0000
0000
,
3001
0000
0000
0010
0000
0000
0010
0100
,
0000
2000
0000
0000
0000
0000
3002
0000
,
0000
0000
0000
1000
0003
0000
0010
0000
,
0000
0100
0000
0000
2000
0000
0000
0000
,
3020
0000
0000
0000
0130
0000
0000
1000
,
0000
0000
0010
0000
0000
0100
0000
0000
,
2002
0000
0000
0000
,
0000
0000
0000
0000
,
0000
0000
0000
0000
,
0000
0000
0000
0000
,
0000
0000
0000
0000
,
0000
0000
0000
3003
,
0220
0000
0000
0330
0001
0000
0001
0000
,
0100
0100
0010
0010
,
1000
1000
0010
0010
,
0100
0100
0001
0001
,
0010
0010
0100
0100
,
1000
1000
0001
0001
,
0010
0010
0100
0100
,
1000
1000
0001
0001
,
0100
0100
0010
0010
,
1000
1000
0001
0001
,
0010
0010
0001
0001
,
1000
1000
0010
0010
,
0100
0100
0001
0001
,
0001
0001
1000
1000
,
1000
1000
0010
0010
,
0010
0000
0010
0000
0000
0101
0000
1000
,
0100
0010
0002
0000
1003
0000
1000
0000
,
0010
0010
0100
0100
,
0001
0001
0100
0100
,
0010
0010
1000
1000
,
0100
0100
0010
0010
,
0001
0001
1000
1000
,
0100
0100
0010
0010
,
0001
0001
1000
1000
,
0010
0010
0100
0100
,
0001
0001
1000
1000
,
0100
0100
1000
1000
,
0001
0001
0100
0100
,
0010
0010
1000
1000
,
1000
1000
0001
0001
,
0001
0000
0001
0000
0220
0000
0000
0330
,
1000
0010
0001
0010
,
0100
0001
0010
0100
,
0010
0001
0010
1000
,
0010
0001
0100
0010
,
1000
0001
0010
0100
,
0001
0100
0010
0001
,
1000
0010
0100
1000
,
0100
0010
1000
0001
,
1000
0001
0010
1000
,
0010
0100
1000
0010
,
0100
0001
0010
0100
,
1000
0001
1000
0010
,
0001
0010
0100
0001
,
0100
0000
0010
0000
1000
0000
0001
1000
,
0001
0010
0001
0100
,
0100
0010
0000
1100
,
0101
0000
0000
0000
0001
0100
0001
0100
,
0001
0000
1000
0100
1000
0000
0010
0000
,
0100
0001
0010
0010
,
0100
0000
0100
0000
1000
0000
0001
0100
,
0001
0000
1000
0000
0001
0000
1000
0100
,
1000
0000
0001
0000
1000
0000
0001
0100
,
0001
0100
0001
0000
0010
0000
0100
0000
,
1000
0000
1001
0000
,
1100
0000
0000
0000
1000
0010
1000
0010
,
1000
0000
0001
0010
0001
0000
0100
0000
,
0010
1000
0100
0100
,
0010
0000
0010
0000
0001
0000
1000
0010
,
1000
0000
0001
0000
1000
0000
0001
0010
,
0001
0000
1000
0000
0001
0000
1000
0010
,
1000
0010
1000
0000
0100
0000
0010
0000
,
0001
0000
1001
0000
,
0010
0100
0010
1000
,
0001
0000
1000
0000
0001
0000
0010
1000
,
0001
0100
0010
1000
,
0001
0100
0010
0100
,
0001
0000
0010
1000
0100
0000
1000
0000
,
0001
0010
0001
0100
,
0010
1000
0001
0100
,
0010
1000
0100
0010
,
2001
3001
1002
1003
,
0001
1000
0010
0100
,
0001
1000
0100
0010
,
0002
0100
1003
0110
0010
0000
1000
0001
,
0100
0010
0100
0001
0010
0000
0100
1000
,
0001
0100
0010
0000
0001
0000
1000
0000
,
0001
0100
0010
0001
,
0010
0100
0110
1001
,
0110
0000
0101
0000
0110
0100
0001
1001
,
0010
0100
0010
1000
,
0001
1000
0010
0100
,
0010
0100
0001
0100
,
0010
0000
1000
0000
0010
0000
0100
0010
,
0001
0100
0010
0100
,
0001
1000
0010
1000
,
0100
0000
0010
1000
0100
0000
0010
0000
,
0100
0000
1000
0000
0010
0000
1000
0001
,
0100
0010
0001
0010
,
0001
0010
0100
1000
,
0100
0010
0001
0100
,
0001
0100
0001
0010
,
0100
0010
0001
1000
,
0010
0100
0010
1000
,
0220
0330
1001
0100
,
0101
0100
1010
0100
,
0101
0011
0010
0100
,
1000
0001
0100
0010
,
0001
0000
0010
0000
1000
0001
0010
0100
,
1000
0100
0010
0100
1001
0000
0010
0000
,
1000
0100
0001
0000
1000
0000
0010
0000
,
1000
0000
0020
0000
0130
0000
0001
1000
,
0010
0001
0010
0100
,
2000
0000
3100
0001
0010
0000
0001
0000
,
1000
0100
1000
0200
,
0310
1000
0001
0000
1000
0000
0001
0000
,
0100
0010
0100
0010
,
0001
0100
1000
0100
,
0001
0100
1000
0100
,
0001
0100
1000
0100
,
0001
1000
0001
0000
1000
0001
1000
0000
,
0001
0010
1000
0010
,
0001
0010
1000
0010
,
0220
0000
0000
0330
1000
0000
0010
0000
,
0001
1000
0001
0000
1000
0001
1000
0000
,
0001
0100
0010
1000
,
0100
0010
0001
0100
,
0010
1000
0100
0010
,
0001
1000
0001
0000
1000
0001
1000
0000
,
0001
0001
0010
0010
,
0100
0100
1000
1000
,
0001
0100
1000
0100
,
0001
0100
1000
0100
,
0001
0100
1000
0100
,
0001
1000
0001
0000
1000
0001
1000
0000
,
0001
0010
1000
0010
,
0001
0010
1000
0010
,
0001
0010
1000
0010
,
0001
1000
0001
0000
1000
0001
1000
0000
,
0001
0100
0010
1000
,
0100
0010
0001
0100
,
0010
1000
0100
0010
,
0001
1000
0001
0000
1000
0001
1000
0000
,
0001
0001
0010
0010
,
0100
0100
1000
1000
,
0001
0000
0010
0100
1000
0001
0100
0000
,
1000
0100
0010
0100
,
0001
0100
2000
0000
,
0000
0000
0000
0000
,
3001
0000
0120
0000
,
0000
0000
0000
0000
,
1030
0000
0002
0000
,
0000
0000
0000
0000
,
1003
0000
0000
0000
0120
0000
0000
0030
,
1001
0000
0000
0000
;

//--------------- dance-single - ----------------
#NOTES:
     dance-single:
     :
     Challenge:
     17:
     0,0,0,0,0:
0000
0000
0000
0000
,
0000
0000
0000
0000
,
0000
0000
0000
0000
,
0000
0000
0000
0000
,
0000
0000
0000
0000
,
0000
0000
0000
0000
,
0000
0000
0000
0000
,
0000
0000
0000
0000
,
0000
0000
0000
0000
,
1000
0000
0001
0010
0000
0100
1000
0000
,
0010
0100
0000
0010
0200
0000
0000
0000
,
0310
0000
1000
0001
0000
0100
0010
0000
,
1000
0001
0200
0000
0000
0000
0310
0002
,
0000
1003
0000
0010
0000
0010
1000
0000
,
0001
0010
0000
1000
0200
0000
0000
0000
,
0320
0000
0000
0000
0031
1000
0000
0100
,
0010
0000
0000
0001
1000
0000
0100
0000
,
0220
0000
0000
0000
,
0000
0000
0000
0000
,
0000
0000
0000
0000
,
0000
0000
0000
0000
,
0000
0000
0000
0000
,
0000
0000
0000
0330
,
2002
3003
0001
0100
,
0010
1000
0010
0100
,
0001
1000
0100
0010
,
0100
1000
0001
0100
,
0010
1000
0001
0000
0100
0000
0010
0000
,
0100
0001
1000
0100
,
0010
0001
0010
0100
,
0010
0001
1000
0100
,
0010
0100
1000
0100
0010
0000
0100
0000
,
1000
0001
0010
0100
,
0010
0001
1000
0010
,
0100
0001
1000
0010
,
0100
0010
1000
0000
0001
0000
0010
0100
,
1000
0000
0010
0000
0100
0010
1000
0000
,
0001
0010
0100
0000
1000
0001
1000
0000
,
0001
0100
0001
0000
1000
0100
1000
0100
,
1000
0001
1000
0010
,
0100
0001
0100
0010
,
1000
0001
0010
0100
,
0010
0001
1000
0010
,
0100
0001
1000
0000
0010
0000
0100
0000
,
0010
1000
0001
0010
,
0100
1000
0100
0010
,
0100
1000
0001
0010
,
0100
0010
0001
0010
0100
0000
0010
0000
,
0001
1000
0100
0010
,
0100
1000
0001
0100
,
0010
1000
0001
0100
,
0010
0100
0001
0000
1000
0000
0100
0010
,
0001
0000
0100
0000
0010
0100
0001
0000
,
1000
0000
0000
0000
0100
0000
0000
0000
0010
0000
0000
0000
0000
0000
0000
0000
0001
1000
0001
0000
1000
0010
1000
0000
0001
0010
0001
0010
0001
0000
1000
0000
,
0001
0000
1000
0010
1000
0000
0001
0000
,
1000
0000
0001
0010
0001
0000
0100
0000
,
0010
0000
0100
0010
0100
0000
0001
0000
,
0010
0100
0010
0000
0001
0000
1000
0000
,
0100
0000
0010
0100
0010
0000
0001
0000
,
0100
0000
0001
1000
0001
0000
0100
0000
,
0010
0000
1000
0000
0001
0010
0001
0000
,
1000
0010
1000
0000
0001
0000
0010
0000
,
1000
0000
0001
0100
0001
0000
1000
0000
,
0001
0000
1000
0100
1000
0000
0010
0000
,
0100
0000
0010
0100
0010
0000
1000
0000
,
0100
0010
0100
0000
1000
0000
0001
0000
,
0010
0000
0100
0010
0100
0000
1000
0000
,
0010
0000
1000
0001
1000
0000
0010
0000
,
0100
0000
0001
0000
1000
0100
1000
0000
,
0001
0100
0001
0000
1000
0000
0100
0000
,
0010
0000
0010
0100
0010
0000
0100
0000
,
0010
0100
0010
0000
0001
0000
1000
0000
,
0001
1000
0001
0000
1000
0000
0001
1000
,
0001
0010
0100
1000
,
0001
0100
0001
0000
1000
0000
0001
0000
,
1000
0100
1000
0000
0010
0000
0100
0010
,
1000
0000
0100
0000
0010
0000
0001
1000
,
0001
0100
1000
0001
,
0100
0000
0100
0010
0100
0000
0010
0000
,
0100
0010
0100
0000
1000
0000
0001
0000
,
1000
0001
1000
0000
0001
0000
1000
0001
,
1000
0100
0010
0001
,
1000
0010
1000
0000
0001
0000
1000
0000
,
0001
0010
0001
0000
0100
0000
0010
0100
,
0001
0000
0010
0000
0100
0000
1000
0001
,
1000
0010
0100
1000
,
0001
0010
1000
0100
,
1000
0100
1000
0100
0010
0000
0001
0010
,
0001
0000
1000
0010
1000
0000
0010
0000
,
0100
0001
0100
0000
0010
0000
0100
0000
,
0001
0000
0010
0100
0010
0000
0100
0000
,
1000
0000
0010
1000
0010
0000
0100
0000
,
0001
0000
1000
0100
0010
0001
1000
0000
,
0100
0010
0100
0000
1000
0000
0010
0000
,
0201
0000
0000
0000
0320
0000
2030
0000
0000
0000
3002
0000
,
1003
0000
0010
0000
1000
0100
1000
0100
,
0010
0000
0001
0010
0001
0000
1000
0010
,
2002
0000
0000
0000
0000
0000
3003
0000
0001
1000
0000
0010
0100
1000
0001
0010
,
0100
1000
0001
0000
0010
0000
0100
0000
1000
0000
0001
0000
0100
0000
0010
0000
0100
0000
1000
0000
0000
0000
0001
0000
0100
0000
0010
0000
1000
0000
0001
0000
,
0100
0010
0100
1000
0001
0100
0010
0100
1000
0000
0000
0000
0110
0000
0000
0000
,
1010
0110
0101
1100
,
0011
1010
0110
0101
,
1010
0000
0000
0100
0010
0000
1000
0000
0200
0310
0200
0310
0002
0000
1003
0000
,
0100
1000
0001
0100
,
0010
1000
0100
0000
0001
0000
0100
0000
,
0001
0010
1000
0000
0010
0100
1000
0000
,
0001
0010
1000
0000
0100
0001
0010
0000
,
0100
0010
1000
0000
0010
0100
1000
0000
,
0010
0001
0100
1000
0010
0000
1000
0100
,
0001
0000
0100
0001
0010
0000
1000
0010
,
0100
0000
0010
1000
0001
0000
0010
0000
,
0001
0000
0010
0000
0100
0000
1000
0100
,
0010
0000
0100
0000
0010
0000
0100
0001
,
0010
0000
1000
0010
0100
0000
1000
0100
,
0001
0000
0100
0010
0001
0100
1000
0000
,
0010
0001
0100
0000
0010
1000
0100
0000
,
0010
0100
1000
0000
0001
0010
0100
0000
,
0110
0000
0011
0000
0200
0310
0200
0310
0002
0000
1003
1000
1001
0000
0001
0001
,
1001
0000
0100
0100
0110
0000
0010
0010
0110
0000
0001
0001
0101
0000
1000
1000
,
1001
0000
0000
0000
0010
0000
0010
0000
1010
0000
0000
0100
0001
0000
1000
0000
0100
0000
0000
0000
0010
0000
0000
0000
0001
0000
0000
0000
0010
0000
0000
0000
,
0100
0010
0001
1000
0010
1000
0010
0100
,
0010
0000
1000
0000
0001
0000
0100
0000
0001
1000
0010
0000
0001
1000
0010
0000
,
0100
0001
1000
0000
0010
1000
0100
0001
1000
0000
0000
0000
1000
0000
0000
0000
,
0100
0000
0010
0000
0100
0010
0100
1000
,
0001
2000
3010
0100
,
0001
0000
1000
0000
0010
0100
0010
1000
,
0002
0013
0100
1000
,
0001
0000
0010
0000
0100
0010
0200
0000
,
0301
0010
1000
0000
0010
0000
0100
0001
,
0010
0000
1000
0000
0001
1000
0001
0010
,
0100
0000
1000
0100
0010
0001
0100
0000
,
0010
0000
1000
0000
0001
0010
0100
1000
,
0001
0000
1000
0010
0100
0000
0010
0000
,
1000
0000
0001
0000
1000
0010
0100
0001
,
1000
0000
0001
0010
0100
0000
0010
0000
,
0100
0000
1000
0000
0001
0100
0010
0100
,
2000
3000
1000
0100
,
0010
0000
0100
0010
0100
1000
0001
0000
,
1000
0010
0100
0001
,
1000
0000
0010
0100
0010
1000
0001
0000
,
0010
0100
1000
0001
,
0010
0000
0100
0010
0100
1000
0001
0000
,
1000
0010
0100
0010
,
1000
0000
0001
1000
0001
0010
0100
0000
,
1000
0010
0100
0010
,
1000
0000
0001
0010
0100
1000
0001
0000
,
1000
0010
0100
0000
0010
0000
1000
0000
,
0001
0000
1000
0010
0100
0001
1000
0000
,
0001
0010
0100
0000
0010
0000
0100
0000
,
1000
0000
0001
0100
0010
1000
0001
0000
,
1000
0010
0100
0000
0001
0000
0010
0000
,
0100
0000
1000
0100
0010
0001
1000
0000
,
0001
0010
0100
1000
0001
0000
0010
0000
,
0100
0000
0010
0100
0010
0001
1000
0000
,
0001
0100
0010
1000
,
0001
0000
0100
0010
0100
0001
1000
0000
,
0100
0010
0001
1000
,
0100
0000
0010
0100
0010
0001
1000
0000
,
0001
0100
0010
0100
,
0001
0000
1000
0001
1000
0100
0010
0000
,
0001
0000
0100
0000
1000
0000
0001
0010
,
0000
0100
1000
0000
0010
0100
0000
0000
,
0210
0000
0000
0000
0301
0000
1000
0100
,
0000
0010
0001
0000
0100
0010
0000
0000
,
0120
0000
0000
0000
1030
0000
0001
0010
,
0000
0100
1000
0000
0010
0100
0000
0010
,
0100
0000
0000
0000
1001
0010
0100
0200
,
0301
0000
0000
0000
;
