
//----- song ID: lapis -----//
#TITLE:Zirconia;
#ARTIST:Saiph;
#GENRE:ナムコオリジナル;
#MUSIC:Zirconia.ogg;
#BANNER:Zirconia.png;
#BACKGROUND:Zirconia-bg.png;
#CDTITLE:./CDTitles/NSD A3.png;
#SAMPLESTART:85.888;
#SAMPLELENGTH:15.000;
#SELECTABLE:YES;
#OFFSET:0.000;
#BPMS:0.000=190.000;
#STOPS:;
#BGCHANGES:;
#FGCHANGES:;

//--------------- dance-single - ----------------
#NOTES:
     dance-single:
     :
     Beginner:
     4:
     0,0,0,0,0:
0000
0000
0000
0000
,
0000
0000
0000
0000
,
0000
0000
0000
0000
,
0000
0000
0000
0000
,
0000
0000
0000
0000
,
0000
0000
0000
0000
,
0000
0000
0000
0000
,
0000
0000
0000
0000
,
0000
0000
0000
0000
,
0000
0000
0000
0000
,
1000
0000
0001
0000
,
0100
0000
0000
0000
,
0010
0000
0100
0000
,
0010
0000
0000
0000
,
1000
0000
0001
0000
,
0100
0000
0000
0000
,
1000
0000
0001
0000
,
0100
0000
0000
0000
,
1001
0000
0000
0000
,
0010
0000
0000
0000
,
0100
0000
0000
0000
,
1000
0000
0000
0000
,
0001
0000
0000
0000
,
0010
0000
0000
0000
,
0100
0000
0000
0000
,
1000
0000
0000
0000
,
0001
0000
0010
0100
,
0000
0000
0000
0000
,
1000
0000
0001
0010
,
0000
0000
0000
0000
,
0100
0000
0010
0100
,
0000
0000
0000
0000
,
0001
0000
1000
0001
,
0000
0000
0000
0000
,
0010
0000
0100
0000
,
1000
0000
0000
0000
,
0001
0000
1000
0000
,
0001
0000
0000
0000
,
0010
0000
0100
0000
,
0010
0000
0000
0000
,
1000
0000
0001
0000
,
0100
0000
0000
0000
,
0001
0000
0010
0000
,
0100
0000
0000
0000
,
1000
0000
0001
0000
,
0100
0000
0000
0000
,
0010
0000
0100
0000
,
0001
0000
0000
0000
,
1000
0000
0001
0000
,
0100
0000
0000
0000
,
0001
0000
0000
0000
,
1000
0000
0000
0000
,
0001
0000
0000
0000
,
0100
0000
0000
0000
,
1000
0000
0000
0000
,
0001
0000
0000
0000
,
0100
0000
0000
0000
,
0010
0000
0000
0000
,
1000
0000
0001
0000
,
0100
0000
0000
0000
,
0010
0000
0100
0000
,
0001
0000
0000
0000
,
1000
0000
0001
0000
,
0100
0000
0000
0000
,
0010
0000
0100
0000
,
1000
0000
0000
0000
,
1001
0000
0000
0000
,
0010
0000
0000
0000
,
1000
0001
0100
0000
,
0001
1000
0001
0000
,
0100
0010
0100
0000
,
1000
0001
0100
0000
,
0010
0000
0100
0000
,
0010
0000
0000
0000
,
1000
0000
0001
0000
,
0100
0000
0000
0000
,
1000
0000
0001
0000
,
0100
0000
0000
0000
,
0010
0000
0100
0000
,
0010
0000
0000
0000
,
1000
0000
0001
0000
,
0100
0000
0000
0000
,
0020
0000
0000
0000
,
0030
0000
0000
0000
,
0200
0000
0000
0000
,
0300
0000
0000
0000
,
0020
0000
0000
0000
,
0030
0000
0000
0000
,
0200
0000
0000
0000
,
0300
0000
0000
0000
,
1001
0000
0000
0000
;

//--------------- dance-single - ----------------
#NOTES:
     dance-single:
     :
     Easy:
     8:
     0,0,0,0,0:
0000
0000
0000
0000
,
0000
0000
0000
0000
,
0000
0000
0000
0000
,
0000
0000
0000
0000
,
0000
0000
0000
0000
,
0000
0000
0000
0000
,
0000
0000
0000
0000
,
0000
0000
0000
0000
,
0000
0000
0000
0000
,
0000
0000
0000
0000
,
1000
0000
0001
0000
,
0100
0000
0010
0000
,
1000
0000
0001
0000
,
0001
0000
0100
0000
,
1000
0000
0001
0000
,
0100
0000
0010
0000
,
1000
0001
0100
0010
,
2000
0000
3001
0000
,
0100
0000
0010
0000
,
0100
0000
1000
0001
,
0100
0000
0010
0000
,
0100
0000
1000
0001
,
0100
0000
0010
0000
,
0100
0000
0010
1000
,
0001
0000
0100
0000
,
0010
0000
0000
0000
,
1001
0100
0000
0010
,
0100
1000
0000
0001
,
1000
0001
0000
0100
,
0010
0100
0000
1000
,
0001
0100
0000
0010
,
0100
0001
0000
0010
,
0100
1000
0000
0001
,
1000
0100
0000
0000
,
1001
0000
0100
0000
,
0010
0100
1000
0001
,
0100
0000
0010
0000
,
0100
1000
0001
0000
,
0010
0000
0100
0000
,
1000
0001
0100
0000
,
0010
0000
0100
0000
,
1000
0100
0001
0100
,
1001
0010
0100
1000
,
0010
0100
1000
0001
,
0100
1000
0010
0001
,
0100
0010
1000
0001
,
0100
1000
0010
0001
,
0100
1000
0001
0010
,
0100
1000
0010
0001
,
1000
0001
0100
0010
,
2000
0000
0000
0000
,
3000
0000
0000
0000
,
0002
0000
0000
0000
,
0003
0000
0000
0000
,
2000
0000
0000
0000
,
3000
0000
0000
0000
,
0002
0000
0000
0000
,
0003
0000
0000
0000
,
1000
0000
0100
0000
,
0010
0000
0001
0000
,
1000
0000
0001
0000
,
0100
0000
0010
0000
,
0100
0000
1000
0000
,
0001
0000
0100
0000
,
0010
0100
1000
0000
,
0001
1000
0001
0000
,
0020
0000
0000
0000
,
0030
0000
0000
1000
,
1001
0100
0010
0100
,
1000
0001
0100
1000
,
0001
1000
0001
0100
,
0010
0000
0100
0001
,
1000
0001
0100
0010
,
0100
1000
0001
1000
,
0100
0010
0001
0100
,
1000
0001
0100
0010
,
1000
0100
0001
0010
,
0100
1000
0010
0100
,
1000
0100
0001
0010
,
0100
0010
1000
0001
,
0100
0010
1000
0001
,
0100
0010
0100
1000
,
0001
0000
1000
0000
,
0001
0000
0100
0000
,
0010
0000
0100
0000
,
1000
0000
0001
0000
,
0100
0000
0010
0000
,
1000
0000
0001
0000
,
0100
0000
0010
0000
,
0100
0000
1000
0000
,
1001
0000
0000
0000
;

//--------------- dance-single - ----------------
#NOTES:
     dance-single:
     :
     Medium:
     10:
     0,0,0,0,0:
0000
0000
0000
0000
,
0000
0000
0000
0000
,
0000
0000
0000
0000
,
0000
0000
0000
0000
,
0000
0000
0000
0000
,
0000
0000
0000
0000
,
0000
0000
0000
0000
,
0000
0000
0000
0000
,
0000
0000
0000
0000
,
0000
0000
0000
0000
,
1000
0010
0100
0001
,
1000
0001
0100
0010
,
1000
0001
0100
0010
,
1000
0001
0100
0010
,
1000
0001
0100
0000
0010
0000
0100
0000
,
1000
0001
0010
0000
0100
0000
0010
0000
,
0001
0010
0001
0000
1000
0010
0100
0000
,
0010
0100
1000
0001
,
1001
0000
0100
0000
1000
0001
0100
0000
,
0010
0000
0100
0000
1000
0001
0100
0000
,
0010
0000
0100
0000
1000
0001
0010
0100
,
1000
0000
0000
0101
0000
0010
0000
0100
,
1000
0000
0001
0010
0100
1000
0001
0000
,
0010
0100
1000
0001
0000
0010
0000
0100
,
0010
0100
1000
0001
0000
0010
0100
0010
,
1000
0000
0001
0100
1000
0001
0010
0100
,
1001
0000
0100
0000
1000
0010
0100
0000
,
0101
1000
0001
0100
,
1001
0000
0010
0000
0100
1000
0100
0000
,
0110
0000
1000
0000
0001
0100
0010
0000
,
0001
0100
1010
0001
,
0100
0000
0100
0000
0000
1000
0001
0000
,
0100
0000
0010
0100
0000
1001
0100
0000
,
0010
0100
0010
0000
1000
0001
0010
0000
,
0020
1000
0100
0100
,
1000
0100
0130
2000
,
3002
0000
0010
0000
0100
0000
0010
0100
,
0000
0100
0010
0000
0100
0000
2003
0000
,
3002
0000
0100
0000
0000
0100
0010
0000
,
2003
0000
0001
0000
0000
0100
0010
0000
,
3200
0000
0000
0000
0010
0010
0000
0000
,
0301
0000
0010
1000
0001
0000
0100
0000
,
0010
0000
1000
0000
0001
0100
0010
0000
,
0100
0000
1000
0000
0001
0100
0010
0000
,
0100
0010
1001
0100
,
0010
0100
1000
0001
,
0101
0000
1000
0000
0001
0100
0010
0000
,
0110
0000
1000
0000
0001
0100
0010
0000
,
0011
0000
1000
0000
0001
0100
0010
0000
,
0100
0000
1000
0001
0010
0000
0100
0000
,
2000
0000
0000
0000
,
3000
0000
0000
0000
,
0002
0000
0000
0000
,
0003
0000
0000
0000
,
0200
0000
0000
0000
,
0300
0000
0000
0000
,
0020
0000
0000
0000
,
0030
0000
0000
0000
,
1000
0000
0001
0000
,
0100
0000
0010
1000
,
0001
0000
0100
0000
,
0010
0000
1000
0001
,
0100
0010
1000
0001
,
0100
0010
1000
0001
,
0010
0100
1000
0000
0001
0100
1000
0000
,
1000
0001
0100
0000
0010
0000
1000
0000
,
2002
0000
3000
0000
,
1000
0000
0103
1001
,
0110
0000
1000
0001
0100
0000
0010
0000
,
0100
1000
0001
0000
0010
0000
1000
0000
,
0100
0001
1000
0001
0100
0000
1000
0000
,
0001
0100
0010
0000
0100
0000
1000
0000
,
0001
0100
0010
0000
1000
0000
0001
0000
,
0010
0100
1000
0001
0010
0100
1000
0001
,
0010
0100
1000
0000
0001
0000
0100
0000
,
0010
1000
0001
0000
0100
0000
0010
0000
,
0100
1000
0001
0000
0100
0000
0010
0000
,
1001
0000
0011
0000
0100
0010
1000
0000
,
0100
1000
0001
0000
1000
0000
0001
0000
,
0100
0010
0100
0000
1000
0000
0001
0000
,
0100
0010
0100
0000
1000
0000
0001
0000
,
0100
0010
1000
0000
0001
0000
0100
0000
,
1000
0000
0001
0000
,
0100
0000
1000
0000
,
0001
0000
0100
0000
,
1000
0000
0001
0000
,
0100
0000
0010
0000
,
1000
0000
0001
0000
,
0100
0000
0010
0000
,
1000
0000
0001
0000
,
2002
0000
0000
0000
,
0000
0000
0000
0000
,
0000
0000
0000
0000
,
0000
0000
0000
0000
,
3003
0000
0000
0000
;

//--------------- dance-single - ----------------
#NOTES:
     dance-single:
     :
     Hard:
     14:
     0,0,0,0,0:
0000
0000
0000
0000
,
0000
0000
0000
0000
,
0000
0000
0000
0000
,
0000
0000
0000
0000
,
0000
0000
0000
0000
,
0000
0000
0000
0000
,
0000
0000
0000
0000
,
0000
0000
0000
0000
,
0000
0000
0000
0000
,
0000
0000
0000
0000
,
0001
0010
0001
0010
,
0001
1000
0100
0010
,
0001
0100
0010
1000
,
0100
0010
0100
1000
,
0100
0010
0100
0010
0001
0100
0001
1000
,
0100
1000
0100
1000
0010
0100
0001
0010
,
0100
0001
1000
0000
0100
0000
1000
0000
0001
1000
0010
0000
0001
0000
1000
0000
,
0001
0010
1000
0000
0100
0001
0010
0000
0100
0000
1000
0000
0002
0000
0000
0000
,
1003
0100
0001
0020
0000
0130
1000
0001
,
0100
0010
1000
0200
0000
0310
0001
1000
,
0001
0010
0100
0002
0000
1003
0100
0020
,
0000
0230
0000
0301
0010
1000
0001
0100
,
0010
0100
1000
0001
0100
0020
0000
0031
,
1000
0001
0100
0002
0000
1003
0100
0001
,
0100
0010
1000
0001
0100
0010
0100
0002
,
0000
0000
1003
0100
0010
0000
0001
0000
0010
0100
1000
0000
0002
0000
0100
0000
,
1000
0103
0000
0110
0000
1000
0100
0001
,
0010
1000
0102
0000
1003
0100
0010
0001
,
1000
0001
0000
0110
0000
1001
0000
0101
,
0000
1000
0001
0100
0010
1000
0001
0100
,
0010
1000
0000
1001
0000
0110
0000
0101
,
0000
0001
1000
0001
0100
0010
0100
1000
,
0001
0010
0000
0101
0000
1010
0000
0110
,
0000
0000
1000
0000
0001
0000
0010
1000
0100
0000
1000
0000
0001
0000
0100
0000
,
0020
0000
0100
0001
0000
0000
0100
0000
,
0100
0001
0100
0000
0100
0000
2030
0000
,
3200
0000
0001
0000
0001
0010
0001
0000
,
0010
0000
0001
0000
0010
0001
0320
0000
,
2030
0000
0001
0000
0010
0100
0010
0000
,
3002
0000
0010
0000
0100
1000
0100
0000
,
0203
0000
0010
0000
0010
0001
0010
0000
,
0301
0000
0010
0000
0100
0000
1000
0010
0001
0000
0100
0000
0010
0000
0100
0000
,
1000
0100
1001
0000
0010
1000
0110
0000
,
1000
0100
0011
0000
0010
1000
0110
0000
,
1010
0000
0110
0000
0001
1000
0101
0000
,
0100
0001
1010
0000
1000
0010
0110
0000
,
0011
0000
1000
0001
0110
0000
1000
0001
,
1010
0000
0110
0001
1000
0010
0101
0000
,
0120
0000
1000
0001
0100
0000
0000
0100
,
1000
0100
0100
1030
,
0102
0000
0000
0000
,
0203
0000
0000
0000
,
0320
0000
0000
0000
,
2030
0000
0000
0000
,
3002
0000
0000
0000
,
0203
0000
0000
0000
,
0320
0000
0000
0000
,
2030
0000
0001
0000
,
3001
0010
1000
0001
,
0100
0010
0100
1000
,
0001
0100
0010
0100
,
1000
0001
0100
0010
,
1000
0001
0100
0010
0100
1000
0001
0010
,
0100
0001
0010
1000
0100
1000
0001
0010
,
0100
0001
1000
0000
0001
0000
1000
0000
0010
1000
0100
0000
0010
0000
0100
0000
,
1000
0010
0001
0000
0010
1000
0100
0000
1000
0010
0001
0000
0010
0000
0100
0000
,
2002
0000
0000
0000
,
3000
0000
1003
0110
,
0010
1000
0010
1000
0100
1000
0010
0100
,
0010
0000
0100
0000
0010
0000
1000
0000
0001
0000
1000
0000
0001
0000
0010
1000
,
0100
0010
0001
1000
0100
1000
0010
0100
,
0001
0000
0100
1000
0001
0000
0100
0000
0010
0000
1000
0000
0100
0000
1000
0001
,
0100
0000
0010
0000
0001
0000
1000
0000
0010
0000
0100
0000
0010
0000
1000
0100
,
0001
0000
0010
0000
0001
0000
1000
0000
0100
0000
0010
0000
0001
0000
1000
0010
,
0100
0000
1000
0001
0100
0000
0000
1000
0010
0000
0100
0000
0010
0000
1000
0000
,
0100
0000
0010
0000
0001
0000
1000
0000
0100
0000
0010
0000
0100
0000
1000
0100
,
0010
0000
1000
0000
0001
0000
0010
0000
0100
0000
0010
0000
0001
0000
1000
0100
,
0001
0000
0100
0000
0010
0000
1000
0000
0010
0000
0100
0000
0001
0000
1000
0100
,
0010
0000
1000
0000
0010
0000
0100
0000
0001
0000
0100
1000
0001
0000
0100
0000
,
0010
0000
1000
0000
0100
0000
0010
0000
0100
0000
0010
0000
0100
0000
1000
0001
,
0010
1000
0010
0100
0001
0010
0100
0010
,
0100
0000
1000
0001
0100
0000
1000
0000
0010
0000
0100
0000
0010
0000
0100
0000
,
2002
0000
3000
0000
,
0023
0000
0000
0230
,
2300
0000
0000
0000
,
3002
0000
0000
0203
,
2300
0000
0000
0000
,
3002
0203
0000
0000
,
0320
0000
0000
0000
,
2030
0000
0000
3000
,
2002
0000
0000
0000
,
0000
0000
0000
0000
,
0000
0000
0000
0000
,
0000
0000
0000
0000
,
3003
0000
0000
0000
;
