#TITLE:夢うつつカタルシス;
#ARTIST:NAMCO Sound Team "大木奏弥 feat. 愛原圭織";
#TITLETRANSLIT:Yume utsutsu catharsis;
#ARTISTTRANSLIT:NAMCO Sound Team "Kanaya Oki feat. Kaori Aihara";
#GENRE:ソニックリングショップ(夏);
#MUSIC:Yume utsutsu catharsis.ogg;
#BANNER:Yume utsutsu catharsis.png;
#BACKGROUND:Yume utsutsu catharsis-bg.png;
#CDTITLE:./CDTitles/NSD A3.png;
#SAMPLESTART:65.096;
#SAMPLELENGTH:15.000;
#SELECTABLE:YES;
#OFFSET:0.000;
#BPMS:0.000=105.498;
#STOPS:;
#BGCHANGES:;
#FGCHANGES:;

//--------------- dance-single - ----------------
#NOTES:
     dance-single:
     :
     Beginner:
     2:
     0,0,0,0,0:
0000
0000
0000
0000
,
0000
0000
0000
0000
,
0000
0000
0000
0000
,
0000
0000
0000
0000
,
1001
0000
0000
0000
0000
0000
0000
0010
,
0000
0000
0000
0100
,
0000
0000
0000
0000
0000
1000
0000
0000
,
0000
0000
0001
0000
,
0000
0000
0010
0000
,
0000
0000
0100
0000
0000
1000
0000
0000
,
0000
0000
0000
0000
0000
0010
0000
0000
,
0100
0000
0000
0010
0000
0000
0000
0000
,
0001
0000
0000
0100
,
0000
0010
0000
0000
0000
0000
0000
0000
,
0000
0000
0000
0000
1000
0000
0000
0001
,
0000
0000
0000
0000
0000
0010
0000
0000
,
0000
0000
0100
0000
0000
1000
0000
0000
,
0000
0001
0000
0000
,
1000
0000
0000
0010
0000
0000
0000
0000
,
0001
0000
0000
0100
,
0000
0010
0000
0000
0000
0000
0000
1000
,
0000
0000
0000
0000
0000
0000
0000
0000
0000
0000
0000
2002
0000
0000
0000
0000
,
0000
0000
0000
3003
,
0000
0000
0000
0000
0200
0000
0000
0020
0000
0000
0000
0000
0000
0000
0000
0000
,
0000
0000
0330
0000
,
2000
0000
0000
0020
0000
0000
0000
0000
0000
0000
0000
0000
0000
0000
0000
0000
,
0000
0000
0000
0000
3030
0000
0000
0000
0000
0000
0000
0000
0002
0000
0000
0200
,
0000
0000
0000
0000
0000
0000
0000
0000
0000
0000
0000
0000
0000
0000
0000
0303
,
0000
0000
0000
0000
0000
1001
0000
0000
,
1000
0000
0000
0000
0000
0000
0001
0000
0000
0000
0000
0100
0000
0000
0000
0000
,
0001
0000
0000
1000
0000
0000
0000
0000
0000
0000
0010
0000
0000
0000
0000
0000
,
0000
0100
0000
0000
0000
0001
0000
1000
,
0000
0010
0000
1000
,
0000
0000
0001
0000
0100
0000
0000
1000
,
0000
0000
0000
0001
0000
0000
0000
0010
,
0000
1000
0000
0000
0010
0000
0000
0000
,
0001
0000
0000
1000
0000
0000
0000
0000
0000
0000
0000
0000
0010
0000
0000
0000
,
0000
0100
0000
0000
0000
0001
0000
0000
,
0000
1000
0000
0000
0000
0110
0000
0000
0000
0000
0000
0000
0001
0000
0000
0000
,
0000
0010
0000
0100
,
2002
0000
0000
0000
,
0000
0000
0000
0000
,
0000
0000
0000
0000
0000
0000
0000
3003
0000
0000
0000
0010
0000
0000
0000
0100
,
0000
0000
0000
1000
0000
0000
0001
0000
1001
0000
0000
0000
0000
0000
0000
0000
,
0000
0000
0000
0000
0000
0000
0000
0100
0000
0000
0000
0010
0000
0000
0000
0100
,
0000
1000
0101
0000
0000
0000
0000
0000
,
0000
0000
0000
0010
0000
0000
0000
0100
0000
0000
0000
1000
0000
0000
0001
0000
,
0110
0000
0000
0000
0000
0000
0000
0000
0000
0000
0000
0000
0000
0000
0000
0200
,
0000
0000
0000
0010
0000
0000
0000
0002
0000
0000
0000
0000
0303
0000
0000
0000
,
0000
0000
0000
0000
,
0000
0000
1000
0000
,
0000
0000
0000
0001
0000
0000
0000
0000
,
0000
0000
0000
0000
0000
0000
0000
0000
0000
0220
0000
0000
0000
0000
0000
0000
,
0000
0000
0000
0000
0000
0000
0000
0000
0000
0000
0000
0000
0000
0330
0000
0000
;

//--------------- dance-single - ----------------
#NOTES:
     dance-single:
     :
     Easy:
     7:
     0,0,0,0,0:
0000
0000
0000
0000
,
0000
0000
0000
0000
,
0000
0000
0000
0000
,
0000
0000
0000
0000
,
1001
0000
0000
0100
0000
0000
0000
0010
,
0000
1000
0000
0100
,
0000
0001
0000
0000
0000
1000
0000
0000
,
0100
0000
0000
0000
0000
0000
0000
0000
0001
0000
0000
0100
0000
0000
2000
0000
,
0000
0000
3000
0000
0010
0000
0000
0001
,
0000
0000
0100
0000
0000
2000
0000
0000
,
0000
3001
0000
0000
0000
0010
0000
0000
,
0100
0000
0000
0020
0000
0000
0000
1030
,
0001
0000
0000
0100
0000
0000
0100
0000
,
0000
0020
0000
0000
0000
0031
1000
0000
,
0000
0001
0000
0000
1000
0000
0000
0002
,
0000
0000
0000
1003
0100
0010
0000
0001
,
0000
0000
0100
0000
0000
2000
0000
0000
,
3000
0000
0001
0000
0000
0010
0000
0000
,
1000
0000
0000
0020
0000
0000
0000
1030
,
0001
0000
0000
0001
0000
0000
0100
0000
,
0000
0010
0000
0000
0010
0000
0000
1000
,
0000
0000
0001
0000
0000
0000
0100
0000
0000
0000
0000
2002
0000
0000
0000
0000
,
0000
0000
0000
3003
,
0000
0000
0000
0000
0020
0000
0000
0200
0000
0000
0000
0000
0000
0000
0000
0000
,
0000
0000
0330
0000
,
0002
0000
0000
0200
0000
0000
0000
0000
0000
0000
0000
0000
0000
0000
0000
0000
,
0000
0000
0000
0000
0303
0000
0000
0000
0000
0000
0000
0000
2000
0000
0000
0020
,
0000
0000
0000
0000
0000
0000
0000
0000
0000
0000
0000
0000
0000
0000
0000
3030
,
0000
0000
0000
0000
0000
1001
0000
0000
,
1000
0000
0000
0000
0100
0000
0001
0000
0000
0000
0000
0100
0000
0000
0000
0000
,
0001
0000
1000
0000
0000
0010
0000
0001
,
0010
0100
0000
1000
0000
0001
0000
1000
,
0000
0000
0010
0000
0100
0001
2000
0000
,
0000
0000
3001
0000
0100
0000
0000
1000
,
0000
0100
0000
0001
1000
0000
0000
0010
,
0000
1000
0000
0000
0010
0000
1000
0100
,
0001
0000
0000
1000
0000
0000
0000
0000
0001
0000
0000
0000
0010
0000
0000
0000
,
0000
0100
0000
1000
0100
0001
0000
0000
,
0000
1000
0000
0000
0000
0110
0000
0000
0000
0000
0000
0000
0001
0000
0000
0000
,
1000
0001
0010
0000
0000
0000
0100
0000
,
2002
0000
0000
0000
,
0000
0000
3003
0110
,
1000
0000
0000
0001
0000
1000
0000
0001
0000
0000
0000
0010
0000
0000
0000
0100
,
0000
0000
0000
1000
0000
0000
0001
0000
1001
0000
0000
0010
0000
0000
0000
0100
,
0000
0000
0000
1000
0000
0000
0000
0100
0000
0000
0000
0010
0000
0000
0000
0100
,
0000
0000
1000
0000
0101
0000
0000
1000
0000
0000
0000
0001
0000
0000
0000
0100
,
0000
1000
0000
0010
0000
0000
0000
0100
0000
0000
0000
1000
0000
0000
0001
0000
,
0110
0000
0000
1001
0000
0000
0000
0010
0000
0000
0000
1000
0000
0000
0000
0200
,
0000
0000
0000
0310
0000
0000
0000
0001
0000
0000
0000
0000
1000
0000
0000
0000
,
0001
0000
0000
0000
0010
0000
1000
0000
0001
0000
0000
0000
0100
0000
0000
0010
,
0000
0000
0001
0000
0010
0000
0000
0100
1000
0000
0000
0000
0010
0000
0000
1000
,
0000
0000
0001
0100
0000
0000
0001
0000
1000
0000
0010
0000
0000
1000
0000
0001
,
0000
0100
0000
1000
0000
0000
0000
0000
0000
2002
0000
0000
0000
0000
0000
0000
,
0000
0000
0000
0000
0000
0000
0000
0000
0000
0000
0000
0000
0000
3003
0000
0000
;

//--------------- dance-single - ----------------
#NOTES:
     dance-single:
     :
     Medium:
     10:
     0,0,0,0,0:
0000
0000
0000
0000
,
0000
0000
0000
0000
,
0000
0000
0000
0000
,
0000
0000
0000
0000
,
1001
0000
0000
1000
0000
0000
0010
0000
0000
0000
0001
0000
1000
0000
0100
0000
,
0000
0100
0010
0000
0001
0000
0000
1000
0000
0001
0000
0000
0010
0000
0000
0100
,
0000
0000
1000
0000
0000
0000
0100
0000
0010
0000
0001
0000
0000
1000
0000
0100
,
0010
0001
0000
1000
0000
0001
0000
0000
1000
0000
0000
0010
0000
0000
0002
0000
,
0000
0000
1003
0010
0100
0001
0100
1000
,
0001
0000
0100
0000
0010
0000
0000
1000
0000
0000
0002
0000
0000
0000
0000
0000
,
0000
1003
0010
0001
1000
0100
0001
1000
,
0010
0000
0000
0001
0000
0000
0200
0000
0000
0000
0000
0000
0000
0000
0301
0000
,
1000
0000
0100
0000
1000
0000
0010
0000
1000
0000
0001
0000
0010
0000
0000
1000
,
0000
0200
0000
0000
0000
1300
0001
0010
,
0100
0000
1000
0000
0010
0000
0100
0000
0001
0000
0000
0010
0000
0000
2001
0000
,
0000
0000
0000
3001
0010
0100
0001
1000
,
0100
0000
0100
0000
0010
0000
0000
1000
0000
0000
0102
0000
0000
0000
0000
0000
,
1003
0000
0000
0010
1000
0000
0001
0000
1000
0000
0100
0000
0010
0000
1000
0000
,
0001
0000
0000
0010
0000
0000
1200
0000
0000
0000
0000
0000
0000
0000
0301
0000
,
1000
0000
0001
0000
0010
0000
1000
0000
0001
0000
1000
0000
0010
0000
0000
1000
,
0000
0000
0100
0000
0000
0001
0000
0000
0100
0000
0000
0000
1000
0000
0001
0000
,
0010
0000
1000
0000
0100
0000
0010
0000
0100
0000
0000
2002
0000
0000
0000
0000
,
0000
0000
0000
3003
,
0000
0000
0000
0000
2000
0000
0000
0020
0000
0000
0000
0000
0000
0000
0000
0000
,
0000
0000
3030
0000
,
0200
0000
0000
0020
0000
0000
0000
0000
0000
0000
0000
0000
0000
0000
0000
0000
,
0000
0000
0000
0000
0330
0000
0000
0000
0000
0000
0000
0000
0002
0000
0000
0200
,
0000
0000
0000
0000
0000
0000
0000
0000
0000
0000
0000
0000
0000
0000
0000
0303
,
0000
0000
0000
0000
0000
1001
0000
0100
,
0001
0000
1000
0000
0010
0000
1000
0000
0001
0000
0000
0010
0000
0000
0000
0000
,
1000
0000
0001
0000
0010
0100
0000
1000
,
0100
0010
1000
0001
0010
1000
0100
0001
,
0000
1000
0000
0001
0100
0000
1000
0000
0010
0000
1000
0000
0002
0000
0000
0000
,
0100
0000
1003
0100
0010
0000
1000
0002
,
0000
0013
0100
1000
0001
0010
1000
0100
,
0010
0001
1000
0001
0100
0000
0001
0010
,
1000
0000
0000
0001
0000
0000
0100
0000
1000
0000
0000
0000
0200
0000
0000
0000
,
0301
0010
0000
0001
0010
1000
0010
0100
,
1000
0001
0000
0000
0000
0120
0000
0000
0000
1030
0000
0000
1000
0000
0010
0000
,
0001
1000
0200
0000
0000
0301
0010
0000
,
2001
0010
0001
0010
,
0100
0001
3010
0110
,
0001
0000
0000
1000
0000
0001
0000
1000
0000
0000
0001
0100
0000
0000
0000
0110
,
0000
0000
0000
0001
0000
0000
1000
0000
1001
0000
0000
0100
0000
0001
0000
0010
,
0000
1000
0000
0001
0000
1000
0000
0010
0000
0000
0000
0100
0000
0000
0000
1010
,
0000
0000
0001
0000
1010
0000
0000
0001
0000
0100
0000
1000
0000
0100
0000
0010
,
0000
0001
0000
0100
0000
0000
0000
0110
0000
0000
0000
0001
0000
0000
1000
0000
,
0110
0000
0000
1001
0000
0000
0010
0100
0000
0000
1000
0001
0000
0000
0100
0020
,
0000
0000
0000
0130
0000
0001
0000
1000
0000
0010
1000
0000
0001
0000
0010
0000
,
1000
0001
0100
0001
1000
0100
0010
0100
,
0001
0000
1000
0000
0100
0000
1000
0010
0001
0000
0010
0000
0100
0000
1000
0001
,
0100
0000
1000
0010
0000
0100
1000
0000
0001
0000
0100
0000
1000
0001
0100
1000
,
0000
0010
0000
0001
0000
0000
0000
0000
0000
2002
0000
0000
0000
0000
0000
0000
,
0000
0000
0000
0000
0000
0000
0000
0000
0000
0000
0000
0000
0000
3003
0000
0000
;

//--------------- dance-single - ----------------
#NOTES:
     dance-single:
     :
     Hard:
     14:
     0,0,0,0,0:
0000
0000
0000
0000
,
0000
0000
0000
0000
,
0000
0000
0000
0000
,
0000
0000
0000
0000
,
1001
0000
0100
0000
0010
0000
0000
0001
0000
0100
1000
0000
0001
0000
1000
0000
,
0010
0000
1000
0000
0000
0001
0000
0010
0100
0000
1000
0000
0010
0000
0100
0000
,
0001
0000
0000
0100
0000
0001
0100
0000
0010
0000
1000
0000
0100
0001
1000
0000
,
0000
0001
1000
0000
0010
0000
0100
0000
0001
0000
0000
1000
0000
0000
1002
0000
,
0000
0000
0000
1003
0100
1000
0001
0100
,
0010
0000
1000
0000
0001
0000
0000
0100
0000
0000
2001
0000
0000
0000
0000
0000
,
0000
3001
0001
0100
0010
0100
0001
0100
,
0010
0000
0000
0100
0000
0000
1002
0000
0000
0000
0000
0000
0000
0000
1003
0000
,
0001
0000
0100
0000
0001
0000
0010
0000
0100
0000
1000
0000
0001
0000
0000
0100
,
0000
1002
0000
0000
0000
0103
0100
1000
,
0010
0000
0100
0000
0001
0000
1000
0000
0010
0000
0000
1010
0000
0000
1002
0000
,
0000
0000
0000
1003
0001
0010
0100
0010
,
0001
0000
0100
0000
0010
0000
0000
1000
0000
0000
1002
0000
0000
1003
0000
0000
,
0010
0000
0000
1000
0100
0000
0010
0000
0001
0000
0100
0000
0001
0000
0010
0000
,
1000
0000
0000
0001
0000
0000
0210
0000
0000
0000
0000
0000
0301
0000
1000
0000
,
0100
0000
0010
0000
0100
0000
1000
0000
0010
0000
1000
0000
0010
0000
0000
0100
,
0000
1020
0000
0000
0000
0031
0100
1000
,
0100
0000
0010
0000
0100
0000
1000
0000
0010
0000
0000
0220
0000
0000
0000
0000
,
0000
0000
0000
0330
,
0000
0000
0000
0000
2000
0000
0000
0002
0000
0000
0000
0000
0000
0000
0000
0000
,
0000
0000
3003
0000
,
0002
0000
0000
0100
0000
0000
0000
1000
0000
0000
0000
0100
0000
0000
1000
0000
,
0100
0000
0100
0000
1003
0000
0000
1000
0001
0000
0010
0000
2000
0000
0000
0010
,
0000
0000
0000
3001
0000
0100
0000
1000
0001
0100
1000
0001
0100
0010
0000
2002
,
0000
0000
0000
0000
3003
1001
0010
0100
,
0001
0000
0010
0000
0100
0000
0010
0000
0001
0000
0000
0120
0000
0000
0000
0000
,
1030
0000
0000
0001
0000
0000
1000
0000
0010
0000
1000
0000
0100
0000
0010
0000
,
0001
1000
0001
0010
0001
0100
0010
0100
,
0010
0100
0001
1000
0010
1000
0200
1000
,
0301
0100
0001
0100
0001
0010
0100
1000
,
0001
0010
0100
1000
0100
1000
0100
0010
,
0001
0110
0001
0100
0010
0100
0010
1000
,
0100
0000
0000
2001
0000
0000
0000
0000
3001
0000
0000
0200
0000
0000
0000
0000
,
0310
1000
0100
0010
0001
0100
0001
0100
,
0000
1000
0100
0000
0010
0001
1000
0000
0001
0000
1000
0000
0001
0000
0010
0000
,
0100
1000
0100
0010
0001
1000
0010
0100
,
0010
0100
0001
1000
0010
1000
0010
0100
,
0001
0000
1000
0000
0100
0000
1000
0000
0001
0000
1000
0000
0001
0000
0000
0101
,
0000
0000
0000
1000
0001
0000
0000
0100
0001
0000
1000
0110
0000
0000
0000
0101
,
0000
0000
0000
0110
0000
0000
1000
0000
0002
0000
0000
0100
0000
0100
0000
0010
,
0000
0000
0000
1003
0010
0000
0000
1010
0000
0000
0000
0110
0000
0000
0000
1001
,
0000
0100
0100
1000
0100
1000
0100
0010
,
0001
1000
0000
0010
0000
0000
0000
0110
0000
0000
0000
1001
0000
0000
0101
0000
,
0001
0000
1000
0001
0100
0000
1000
0000
0001
0000
1000
0010
0001
0000
0100
0000
,
0010
0000
0100
0000
0010
0001
0100
0000
0001
0000
1000
0100
0001
0000
0010
0000
,
0100
0000
1000
0001
0010
0000
1000
0000
0001
0000
1000
0100
0010
0000
0100
0000
,
0001
0000
0100
0001
0010
0000
1000
0000
0010
1000
0100
0000
0010
0000
0100
0010
,
0001
0000
0100
0000
0010
0001
1000
0000
0010
0000
0100
1000
0010
0000
0100
0000
,
0001
0010
1000
0100
0000
0000
0000
0000
0000
2002
0000
0000
0000
0000
0000
0000
,
0000
0000
0000
0000
0000
0000
0000
0000
0000
0000
0000
0000
0000
3003
0000
0000
;
