#TITLE:夢を見ようよ;
#ARTIST:駄々子 from Retropolitaliens;
#TITLETRANSLIT:Yume o Miyouyo;
#ARTISTTRANSLIT:Dadaco from Retropolitaliens;
#GENRE:けものフレンズ×NonStopDance -フレンズの歌の音楽-;
#MUSIC:Yume o Miyouyo.ogg;
#BANNER:Yume o Miyouyo.png;
#BACKGROUND:Yume o Miyouyo-bg.png;
#CDTITLE:./CDTitles/NSD A3.png;
#SAMPLESTART:70.327;
#SAMPLELENGTH:15.000;
#SELECTABLE:YES;
#OFFSET:-0.068;
#BPMS:0.000=222.000;
#STOPS:;
#BGCHANGES:;
#FGCHANGES:;

//--------------- dance-single - ----------------
#NOTES:
     dance-single:
     :
     Beginner:
     3:
     0,0,0,0,0:
0000
0000
0000
0000
,
0000
0000
0000
0000
,
0000
0000
0000
0000
,
0000
0000
0000
0000
,
0000
0000
0000
0000
,
0000
0000
0000
0000
,
0000
0000
0000
0000
,
0000
0000
0000
0000
,
0000
0000
0000
0000
,
0001
0000
0000
0000
,
0000
0000
0000
0000
,
1000
0000
0000
0000
,
0000
0000
0000
0000
,
1000
0000
0000
0000
,
0001
0000
0000
0000
,
0010
0000
0100
0000
,
0010
0000
0000
0000
,
1000
0000
0000
0000
,
0001
0000
0000
0000
,
0010
0000
0000
0000
,
0100
0000
0000
0000
,
0010
0000
0000
0000
,
0001
0000
0000
0000
,
1000
0000
0000
0000
,
0100
0000
0000
0000
,
0001
0000
0010
0000
,
0100
0000
0000
0000
,
1000
0000
0001
0000
,
0100
0000
0000
0000
,
0010
0000
0100
0000
,
1000
0000
0000
0000
,
0001
0000
0000
0000
,
1000
0000
0000
0000
,
0010
0000
0000
0000
,
0100
0000
0000
0000
,
0010
0000
0000
0000
,
0001
0000
0000
0000
,
1000
0000
0001
0000
,
0100
0010
0100
0000
,
1000
0000
0001
0000
,
0100
0000
0010
0000
,
0100
0000
0010
0000
,
0001
0000
1000
0000
,
0001
0000
0100
0000
,
1000
0000
0000
0000
,
0002
0000
0000
0000
,
0003
0000
0000
0000
,
1000
0000
0000
0000
,
0010
0000
0000
0000
,
0100
0000
0010
0000
,
0100
0000
0000
0000
,
0001
0000
1000
0000
,
0001
0000
0000
0000
,
0010
0000
0100
0000
,
1000
0000
0000
0000
,
0001
0000
0001
0000
,
0001
0000
0000
0000
,
1000
0000
1000
0000
,
1000
0000
0000
0000
,
0010
0000
0001
0000
,
0100
0000
1000
0000
,
1000
0000
0100
0000
,
0010
0000
0001
0000
,
0100
0000
0000
0000
,
0010
0000
0000
0000
,
1001
0000
0010
0000
,
0100
0000
1000
0000
,
0001
0000
0010
0000
,
0100
0000
0010
0000
,
0001
0000
0000
0000
,
1000
0000
0000
0000
,
0001
0000
0010
0000
,
0100
0000
0000
0000
,
1000
0000
0001
0000
,
0100
0000
0000
0000
,
0010
0000
0001
0000
,
1000
0000
0000
0000
,
0010
0000
0100
0000
,
0001
0000
1000
0000
,
0100
0000
0010
0000
,
0001
1000
0001
0000
,
0100
0000
0000
0000
,
0010
0000
0000
0000
,
0001
0000
0000
0000
,
1000
0000
0000
0000
,
0001
0000
0010
0000
,
0100
0000
0001
0000
,
1000
0000
0001
0000
,
0100
0000
0010
0000
,
1000
0001
0000
0010
,
0000
0100
0000
0001
,
0100
1000
0000
0001
,
0000
0010
0100
1000
,
0100
0001
0100
0000
,
0010
0000
0001
0000
,
1000
0000
0001
0000
,
0100
0000
0010
0000
,
0100
0000
0000
0000
,
0000
0000
0000
0000
,
0010
0000
0000
0000
,
0000
0000
0000
0000
,
0001
0000
0000
0000
,
1000
0000
0000
0000
,
0001
0000
0010
0000
,
0100
0000
1000
0000
,
0002
0000
0000
0000
,
0000
0000
0000
0003
,
1000
0000
0100
0000
,
0010
0000
0001
0000
,
0100
0000
0010
0000
,
0001
0000
1000
0000
,
0010
0000
0001
0000
,
0100
0000
0010
0000
,
1001
0000
0000
0000
;

//--------------- dance-single - ----------------
#NOTES:
     dance-single:
     :
     Easy:
     5:
     0,0,0,0,0:
0000
0000
0000
0000
,
0000
0000
0000
0000
,
0000
0000
0000
0000
,
0000
0000
0000
0000
,
0000
0000
0000
0000
,
0000
0000
0000
0000
,
0000
0000
0000
0000
,
0000
0000
0000
0000
,
0000
0000
0000
0000
,
0010
0100
0001
0000
,
0001
0010
0100
0000
,
0001
0100
0010
0000
,
0001
1000
0001
1000
,
0010
0100
0001
0000
,
0001
1000
0001
0000
,
0100
1000
0010
0000
,
1002
0000
0000
0000
,
0103
1000
0010
0000
,
0010
0100
0010
0000
,
0001
0010
0001
0000
,
0001
0100
0010
0100
,
0001
1000
0100
0000
,
0001
1000
0010
0000
,
0010
0100
0010
0000
,
0001
1000
0001
0100
,
0001
0010
0100
0000
,
0100
0010
0001
0000
,
0001
1000
0010
0000
,
0001
0010
0001
0000
,
2000
0000
0100
0000
,
3010
1000
0100
0000
,
0100
0010
0100
0000
,
0001
0100
0010
0000
,
0010
0100
0010
0000
,
0001
1000
0100
0000
,
0001
0010
0001
0000
,
0001
0100
0010
0000
,
0010
0100
0001
0000
,
0200
0000
0320
0000
,
0130
0010
0100
0010
,
0100
1000
0001
0010
,
0100
0010
0100
1000
,
0100
1000
0001
1000
,
0001
0000
0000
0000
0100
0000
0001
1000
,
0000
0100
0000
0001
0000
0000
0000
0000
,
2000
0000
0000
0000
0000
0000
0000
0000
0000
3000
0000
0000
0000
0000
0000
0000
0002
0000
0000
0000
0000
0000
0000
0000
,
0000
0003
0000
0000
2000
0000
0000
0000
,
3100
0000
0001
1000
,
0010
0100
0001
0010
,
0001
1000
0010
0100
,
0001
1000
0100
0010
,
0100
0010
0001
0010
,
0100
1000
0001
0010
,
0001
1000
0010
0100
,
0001
0100
0010
0100
,
0010
1000
0001
0100
,
0001
0010
0100
0010
,
0100
1000
0100
1000
,
0001
0010
0001
0010
,
0001
0000
0010
0000
,
0010
0000
0001
0010
,
0100
0000
0100
0000
,
0001
0100
0010
0000
,
0001
0100
0001
1000
,
0100
0010
0001
0000
,
0110
1000
0001
1000
,
0010
0100
0010
0100
,
0010
1000
0100
0010
,
0100
0010
0100
1000
,
0001
1000
0010
1000
,
0001
0100
0010
1000
,
0100
0010
0100
1000
,
0100
0010
2000
0100
,
3001
0010
0001
0010
,
0100
0010
0100
1000
,
1001
0100
0010
1000
,
0001
1000
0010
1000
,
0011
0100
0001
1000
,
0001
1000
0100
1000
,
0001
0000
0010
1000
0100
0000
1000
0000
,
0001
0000
1000
0000
0100
0001
0010
0000
,
0100
1000
0100
1000
,
0001
0000
0010
0000
0100
0000
1000
0001
,
0100
1000
0100
0010
,
0001
0000
1000
0000
0100
0000
1000
0001
,
0100
0010
0001
1000
,
0100
0000
1000
0000
0010
0000
1000
0100
,
0010
0000
0100
0000
0010
0000
1000
0001
,
0100
0000
1000
0000
0001
0000
1000
0010
,
0002
0103
0010
0100
,
0010
0100
0001
0010
,
0002
0013
0100
0010
,
0001
0000
0100
0000
0010
0000
1000
0100
,
0010
1000
0010
0100
,
0001
0010
0001
1000
,
0100
1000
0010
0100
,
0001
0100
0001
0010
,
0100
0000
0100
0000
,
0001
1000
0001
0000
,
1000
0000
0100
0000
,
0002
0000
0000
0000
,
0103
1000
0010
0100
,
0001
1000
0100
1000
,
0001
1000
0001
0100
,
0010
1000
0100
1000
,
0000
0000
0200
0000
,
0000
0000
0000
0300
,
0001
0100
0001
0010
,
0100
1000
0001
0100
,
0010
1000
0010
1000
,
0100
0010
0001
0100
,
0010
0100
0001
1000
,
0100
1000
0001
1000
,
0110
0000
0000
0000
;

//--------------- dance-single - ----------------
#NOTES:
     dance-single:
     :
     Medium:
     9:
     0,0,0,0,0:
0000
0000
0000
0000
,
0000
0000
0000
0000
,
0000
0000
0000
0000
,
0000
0000
0000
0000
,
0000
0000
0000
0000
,
0000
0000
0000
0000
,
0000
0000
0000
0000
,
0000
0000
0000
0000
,
0000
0000
0000
0000
,
0001
1000
0010
1000
,
0100
0000
0010
1000
0001
0000
0100
0000
,
0001
0000
1000
0000
0001
0000
0010
0001
,
0100
0000
1000
0000
0100
0000
1000
0100
,
0001
1000
0010
0100
,
0001
1000
0010
0000
0100
0000
1000
0000
,
0100
0000
1000
0010
0001
0000
0100
0000
,
0020
0000
0130
0000
,
0010
0100
0001
1000
,
0100
0000
0010
1000
0001
0000
1000
0000
,
0100
0000
1000
0000
0010
1000
0100
0000
,
0001
0000
1000
0000
0100
0001
1000
0000
,
0100
0000
1000
0000
0001
1000
0010
0000
,
0100
0010
0100
0010
,
0001
0100
0010
0100
,
0002
1000
0013
0100
,
1010
0100
0010
1000
,
0001
0100
0010
0100
,
0010
0100
0001
0010
,
0001
1000
0100
0010
,
0100
1000
0010
0000
0002
0000
0000
0000
,
0010
0100
0013
0100
,
0001
1000
0010
1000
,
0010
0000
0100
0000
0001
1000
0010
0000
,
0001
0000
0010
0000
0001
1000
0100
0000
,
0010
0000
1000
0000
0100
0000
1000
0001
,
0100
0000
1000
0000
0001
0000
0100
1000
,
0010
0100
0010
1000
,
0002
0010
0010
0010
,
0013
0000
0100
1000
0001
0000
1000
0000
,
0001
0100
0001
0100
,
0010
0000
0100
0000
0010
0000
1000
0001
,
0100
1000
0100
1000
,
0010
0000
0100
0010
0001
0000
1000
0000
,
0100
0000
1000
0000
0100
1000
0010
0001
,
0000
0100
0000
1002
0000
0000
0000
0000
,
1003
0000
0100
0000
1000
0000
0000
0000
0001
0000
0010
0000
,
0100
0010
0001
1000
,
0001
1000
0001
0010
,
0100
0010
0001
0010
,
0001
1000
0010
0100
,
0010
1000
0100
0010
,
0101
1000
0010
0100
,
0001
0010
1000
0000
0100
0000
1000
0000
,
1001
0010
0100
0010
,
0001
0100
1000
0000
0010
0000
0100
0000
,
0011
1000
0001
0010
,
0001
1000
0010
0000
0100
0000
0010
0000
,
0101
1000
0001
0010
,
0100
1000
0010
0000
0001
0000
0010
0000
,
0001
0100
0010
1000
,
0010
1000
0010
0100
,
0001
0010
0100
0010
,
0100
1000
0100
0010
,
0001
1000
0010
0000
0100
0001
0010
0000
,
0001
1000
0100
0000
0001
0000
0100
0000
,
1001
1000
0100
0010
,
0001
1000
0010
0000
0001
0000
1000
0000
,
0010
0001
1000
0000
0100
0000
0010
0000
,
0001
1000
0010
0000
0100
0000
0010
0000
,
0100
0010
1000
0000
0010
0000
1000
0000
,
0010
0001
0100
0000
0010
0000
1000
0000
,
0001
1000
0010
0000
0001
0000
0010
0000
,
0001
0010
1000
0000
0100
0001
1000
0000
,
0110
0000
1000
0000
0010
0000
0100
1000
,
0010
1000
0100
0010
,
0101
0000
1000
0000
0001
0000
1000
0100
,
0010
0100
0010
1000
,
0101
1000
0010
1000
,
0100
1000
0010
0000
0001
0000
0100
0000
,
0010
0100
1000
0000
0001
0000
0100
0000
,
0001
0010
1000
0000
0100
0001
0010
0000
,
1001
1000
0010
1000
,
0010
0100
0001
1000
,
0001
0100
0010
0100
,
0001
1000
0100
1000
,
0001
1000
0100
0000
0001
0000
0010
0000
,
0001
0010
1000
0000
0100
0000
1000
0000
,
0011
0100
1010
0100
,
0101
0010
1001
1000
,
0002
0103
0010
1000
,
0001
1000
0100
1000
,
0020
0130
0001
0010
,
0100
0000
1000
0000
0001
0010
0200
0000
,
0301
0100
0010
1000
,
0010
1000
0100
0000
0010
0000
1000
0000
,
0001
0010
0100
0000
0001
0010
1000
0000
,
0001
0010
0100
0000
0010
0100
1000
0000
,
0100
0001
0010
0000
0100
0000
1000
0000
,
0010
0100
0001
0010
,
0100
1000
0001
0010
,
0001
0100
0001
0010
,
0100
0001
1000
0000
0100
1000
0010
0000
,
0001
0100
1000
0000
0001
1000
0010
0000
,
0100
1000
0010
0000
0001
0100
1000
0000
,
0100
0001
0010
0000
0100
1000
0010
0000
,
2002
0000
0000
0000
,
0000
0000
0000
3003
,
0001
0010
0001
0100
,
0010
0100
0010
1000
,
0001
0010
0001
0010
,
0100
1000
0100
1000
,
0010
1000
0001
0100
,
0010
0100
0010
0100
,
2002
0000
0000
0000
,
0000
0000
0000
0000
,
0000
0000
0000
0000
,
3003
0000
0000
0000
;

//--------------- dance-single - ----------------
#NOTES:
     dance-single:
     :
     Hard:
     15:
     0,0,0,0,0:
0000
0000
0000
0000
,
0000
0000
0000
0000
,
0000
0000
0000
0000
,
0000
0000
0000
0000
,
0000
0000
0000
0000
,
0000
0000
0000
0000
,
0000
0000
0000
0000
,
0000
0000
0000
0000
,
0000
0000
0000
0000
,
0001
0010
0100
0000
1000
0000
0000
0001
,
0000
1000
0000
0001
0100
0000
1000
0100
,
0000
0000
1001
0000
0110
0000
0000
1000
,
0000
0001
0000
0100
0000
0100
0020
0000
,
0130
0001
0100
0010
0100
0001
0010
0001
,
0010
0100
0010
0001
0100
0001
0010
0001
,
0100
0010
1000
0010
1000
0010
0100
0001
,
2000
0000
3002
0000
,
1003
0001
1000
0010
,
1000
0000
0100
0000
1000
0000
0010
1000
,
0100
0000
0010
0000
0100
0001
0010
0000
,
1000
0000
0100
0000
0010
0001
0100
0000
,
0010
0000
0100
0000
0001
0000
0000
0000
1000
0000
0000
0010
0100
0000
0001
0000
,
1000
0000
0000
0000
0001
0000
0000
0000
0010
0000
1000
0000
0001
0000
0000
0010
,
0100
0000
0010
1000
0100
0000
0001
0000
,
1000
0100
0010
0001
1000
0001
0200
0000
,
1300
0000
0000
0000
0100
0000
1000
0000
0010
0000
0000
0001
0100
0000
1000
0000
,
0010
1000
0001
0000
1000
0000
0100
0000
,
0010
0000
0001
1000
0100
0000
0000
0000
0010
0000
0100
0000
0001
0000
0010
0000
,
1000
0001
0100
0001
0010
1000
0001
0100
,
2000
0000
0000
0000
,
3002
0000
0000
0000
,
1003
0000
0000
0001
1000
0000
0100
0000
0001
0000
0100
0000
0000
0000
2000
0000
,
0000
0000
0000
0000
3002
0000
0000
0103
0010
0000
1000
0000
0200
0000
0000
0000
,
0302
0000
2003
0000
3001
0100
0000
2000
,
0000
0000
3000
0000
,
0001
0000
0100
0000
0001
0010
0100
1000
,
0010
0000
0001
0100
1000
0000
0010
0000
,
1000
0001
0010
0100
,
0001
0000
1000
0100
0010
0000
0001
0010
0100
0000
0000
0000
2000
0000
0000
0000
,
3001
0010
0001
0010
0100
1000
0100
0010
,
0001
0100
0001
0100
0010
0100
0001
0010
,
0001
1000
0001
0010
0100
1000
0001
0100
,
0010
1000
0100
1000
0010
1000
0100
0010
,
0002
0000
1000
0000
0100
0000
0003
1000
,
0000
1001
0000
0110
0000
0000
0000
0000
,
0010
0000
0010
0000
0010
0000
0000
0000
0100
0000
0100
0000
,
0100
0000
0000
0000
0001
0000
1000
0100
0010
0000
0001
0100
0020
0000
0000
0000
,
2030
3002
0203
0302
,
0203
2300
3020
0032
,
0023
0230
2300
3000
,
0001
0200
2300
3002
,
1003
0100
1000
0010
0100
0000
1000
0000
,
0001
0100
0010
1000
0001
0000
1000
0000
,
0001
0010
0001
1000
0001
0000
0100
0000
,
0001
1000
0001
0100
0010
0000
1000
0000
,
1001
0110
1000
0001
,
0100
0010
0100
1000
,
0002
0010
0100
2003
,
0100
0000
3001
0000
0010
0100
0001
1000
,
0001
1000
0010
0000
0001
0000
1000
0100
,
0001
0000
0100
0000
0010
1000
0100
0000
,
0001
0010
0100
1000
0010
0000
1000
0000
,
0001
0010
0100
1000
0010
0000
1000
0000
,
0010
1000
0100
0001
0010
1000
0100
0001
,
0200
0000
0000
0300
,
1001
0000
0100
0010
0100
0010
0001
1000
,
0100
0010
0100
1000
0001
0100
0010
0000
,
1001
0000
0100
0010
0001
1000
0100
1000
,
0010
0100
0001
1000
0100
1000
0001
0000
,
0110
0000
0001
0100
0010
0100
0010
0100
,
0001
0010
0100
0010
0100
0010
0001
0000
,
0110
0000
0001
1000
0100
0010
0001
0010
,
0100
0010
0001
0100
0001
0100
0001
0000
,
1010
0000
0100
0010
0001
1000
0001
0100
,
0001
0100
0010
1000
0010
0100
0001
0000
,
0101
0000
0100
1000
0010
1000
0100
0010
,
0001
0100
0001
0010
0100
1000
0001
0000
,
0011
0000
1000
0100
0001
0010
0100
0010
,
0001
1000
0001
0010
0001
0100
0010
0000
,
0101
0000
1000
0100
0001
1000
0010
0100
,
0010
1000
0010
1000
0100
0010
0100
0000
,
1001
0000
0001
0100
0001
0100
0010
0100
,
0010
1000
0001
0100
0010
0100
0010
0000
,
1010
0000
0001
1000
0100
1000
0100
0010
,
0001
1000
0100
1000
0001
0010
0100
0000
,
1100
0000
0001
0010
0100
1000
0100
0010
,
0001
0100
0001
0010
0001
0010
0100
0000
,
0110
0000
0100
0010
0001
0010
0001
0100
,
0010
0000
1000
0010
0001
0000
0100
1000
0010
0000
0100
0001
1000
0000
0001
0000
,
0200
0000
0310
0001
0010
0001
1000
0100
,
0010
0100
0010
0001
1000
0001
0010
0001
,
0020
0000
1030
0001
0100
0010
0100
0001
,
0010
0000
0100
0000
1000
0000
0100
1000
0010
0000
0001
1000
0020
0000
0000
0000
,
0130
0010
0100
0001
0010
0001
1000
0001
,
0100
0010
0100
0001
0100
0001
1000
0010
,
0100
0001
0010
0100
0010
0001
0010
0100
,
1000
0010
0100
0010
1000
0010
1000
0001
,
1000
0010
0001
0100
,
1000
0001
0100
0010
,
0100
1000
0001
0100
,
0020
0000
0000
0030
,
0100
0001
1000
0000
0100
1000
0010
0000
,
0001
0100
1000
0000
0001
1000
0010
0000
,
0100
1000
0010
0000
0001
0100
1000
0000
,
0100
0001
0010
0000
0100
1000
0010
0000
,
2002
0000
0000
0000
,
0000
0000
0000
3003
,
0001
1000
0001
0100
,
0010
0100
0010
0100
,
0001
1000
0100
1000
,
0010
0100
0010
0100
,
0011
0000
1100
0000
,
0101
0000
0110
0000
,
2002
0000
0000
0000
,
0000
0000
0000
0000
,
0000
0000
0000
0000
,
0000
0000
0000
0000
,
3003
0000
0000
0000
;
