
//----- song ID: yexm -----//
#TITLE:エール・エクス・マキナ!;
#ARTIST:NAMCO Sound Team "坪井リヒト feat. まきな";
#TITLETRANSLIT:Yell EX Makina!;
#ARTISTTRANSLIT:NAMCO Sound Team "Rihito Tsuboi feat. Makina";
#GENRE:ナムコオリジナル;
#MUSIC:Yell EX Makina!.ogg;
#BANNER:Yell EX Makina!.png;
#BACKGROUND:Yell EX Makina!-bg.png;
#CDTITLE:./CDTitles/NSD A3.png;
#SAMPLESTART:70.359;
#SAMPLELENGTH:15.000;
#SELECTABLE:YES;
#OFFSET:0.000;
#BPMS:0.000=176.506
,373.000=165.000
,373.250=160.000
,373.500=155.000
,373.750=150.000
,374.000=145.000
,374.250=140.000
,374.500=135.000
,374.750=130.000
,375.000=125.000
,375.250=120.000
,375.500=115.000
,375.750=110.000
,376.000=105.000
,376.250=100.000
,376.500=95.000
,376.750=90.000
,377.000=85.000
,377.250=80.000
,377.500=75.000
,377.750=70.000
,378.000=65.000
,378.250=60.000
,378.500=55.000
,378.563=50.000
,378.625=45.000
,378.688=40.000
,378.750=35.000
,378.813=30.000
,378.875=25.000
,378.938=24.000
,379.000=20.000
;
#STOPS:327.750=0.344
,355.000=1.018
;
#DISPLAYBPM:176.000;
#BGCHANGES:;
#FGCHANGES:;

//--------------- dance-single - ----------------
#NOTES:
     dance-single:
     :
     Beginner:
     5:
     0,0,0,0,0:
0000
0000
0000
0000
,
0000
0000
0000
0000
,
0000
0000
0000
0000
,
0000
0000
0000
0000
,
0000
0000
0000
0000
,
0000
0000
0000
0000
,
0000
0000
0000
0000
,
1000
0000
0001
0000
0010
0000
0100
0001
,
0000
1000
0000
0100
0000
0100
0001
1000
,
0010
1000
0001
0010
,
2000
0000
0000
3001
,
1000
0001
0100
0000
,
1000
0100
0010
0000
,
0001
0010
0100
0000
,
1000
0000
0000
0000
0001
0000
0000
0000
0100
0000
0000
0100
0000
0000
0001
0000
,
0000
1000
0000
1000
,
0000
0001
0000
0001
,
0000
0010
0000
0010
,
0200
0020
0000
0330
,
1001
0000
0100
0000
,
0010
0001
0000
1000
,
0001
0000
0100
0000
,
0010
0000
0001
0010
,
0100
0000
1000
0000
,
0001
0000
0010
0000
,
0100
1000
0001
0000
,
0100
0100
0001
0000
,
0100
0000
1000
0000
,
0001
0100
0010
0000
,
0100
1000
0001
0000
,
0010
0000
0100
0010
,
0001
0000
0010
0000
,
0100
1000
0001
0000
,
0010
0010
0100
0100
,
0000
2002
0000
3003
,
0010
0000
0100
0100
,
0010
0000
1000
1000
,
0001
0000
1000
0001
,
0001
0000
0010
0010
,
0001
0000
1000
0000
,
0001
0010
0100
0000
,
1000
0000
0001
0000
,
0010
0100
1000
0000
,
1001
0000
0000
0000
,
0100
0000
0000
0000
,
0010
0000
0000
0000
,
0001
0000
0000
0000
,
0010
0000
0010
0000
,
0100
0000
0100
0000
,
1000
0001
1000
0001
,
1001
0000
0000
0000
,
0010
0000
0100
0000
,
1000
0001
0100
0000
,
1000
0001
0010
0000
,
0100
0010
0001
0000
,
1000
0000
0001
0000
,
0100
0010
0001
0000
,
1000
0000
0001
0010
,
0100
0000
1000
0000
,
0001
0100
0010
0000
,
1000
0000
0001
0000
,
0010
0000
0100
0000
,
1000
0000
0001
0000
,
0100
0010
0001
0000
,
1000
0000
0001
0000
,
0010
0000
0100
0000
,
1000
0001
0100
0000
,
0110
0000
0000
0000
,
1001
0000
0000
0000
,
0000
0000
0000
0000
,
2002
0000
0000
0000
,
0000
0000
0000
3003
,
0100
0000
0010
0000
,
0001
0010
0100
0000
,
1001
0000
0000
0000
,
0100
0000
0000
0000
,
0010
0000
0000
0000
,
0001
0000
0000
0000
,
1001
0000
0110
0000
,
0101
0000
0000
1010
0000
0000
0000
0000
,
0110
0000
1000
0000
,
0001
0010
0100
1000
,
1001
0000
0100
0000
,
0010
0000
1000
0001
,
0100
0010
0000
0100
,
0000
0010
0000
1000
,
0000
0001
0000
0100
,
0010
0100
0000
1000
,
0001
0100
0000
0110
,
0001
0000
1000
0000
,
0001
0100
0010
0000
,
0100
0100
0001
0000
,
0100
0100
0001
0000
,
2002
0000
0000
0000
,
0000
0000
0000
3003
;

//--------------- dance-single - ----------------
#NOTES:
     dance-single:
     :
     Easy:
     7:
     0,0,0,0,0:
0000
0000
0000
0000
,
0000
0000
0000
0000
,
0000
0000
0000
0000
,
0000
0000
0000
0000
,
0000
0000
0000
0000
,
0000
0000
0000
0000
,
0000
0000
0000
0000
,
0001
0000
1000
0000
0100
0000
0010
1000
,
0000
0001
0000
0010
0000
0010
1000
0001
,
0100
0001
1000
0100
,
0002
0000
0000
1003
,
0100
0000
1000
0001
0010
0000
1000
0000
,
0010
0000
1000
0000
0100
0001
0010
0000
,
0100
0000
1000
0000
0010
0100
1000
0000
,
0100
0000
0000
0000
0010
0000
0000
0000
0100
0000
0000
0100
0000
0000
0001
0000
,
1000
0000
0010
1000
0001
0000
1000
0000
,
0001
0010
0100
0000
0010
0000
1000
0000
,
0010
0001
0100
0000
0001
1000
0010
0000
,
0200
0020
0000
0330
,
2000
0000
0200
3300
,
0002
0000
0200
0303
,
2000
0000
0200
3300
,
0002
0000
0200
0303
,
0010
0000
0000
1000
0100
0000
0000
0000
,
0010
0001
0100
0000
,
1000
0010
1000
0001
,
0100
0100
0001
0000
,
0011
0000
1000
0000
0200
0000
0000
0010
,
0000
0010
0000
0010
0310
0000
0001
0000
,
0010
0000
1000
0001
0100
1000
0001
0000
,
0010
0000
0001
0000
0100
0010
1000
0000
,
0001
0000
0100
0000
0010
1000
0010
0000
,
1000
0000
0100
0000
0010
0001
0010
0000
,
0001
0010
1000
0010
,
0000
0220
0000
0330
,
0001
0000
0010
0010
,
0001
0000
0010
0100
,
1000
0000
0010
0100
,
0001
0000
1001
0000
,
1000
0000
0100
0100
,
1000
0000
0010
0100
,
0001
0000
0010
0100
,
1000
0000
2001
0000
,
3001
0000
0000
0000
,
0100
0000
0000
0000
,
1000
0000
0000
0000
,
0001
0000
0000
0000
,
0010
0000
0100
0000
,
1000
0000
0001
0000
,
0010
0100
1000
0001
,
0110
0000
0000
0000
,
1001
0000
0110
0000
,
0001
1000
0100
1000
0010
1000
0001
1000
,
0010
0000
0001
0100
1000
0001
0010
0100
,
1000
0001
0100
0001
0010
0001
1000
0001
,
0010
0000
1000
0001
0010
0000
1000
0001
,
0010
0001
0010
0001
1000
0010
1000
0010
,
0001
0010
0001
0010
1000
0100
1000
0001
,
0010
0001
1000
0010
0001
1000
0100
0001
,
0020
0000
0000
0000
0000
0030
1000
0100
,
0010
0001
1000
0010
1000
0001
1000
0100
,
0020
0000
0130
0000
1002
0000
0000
1003
,
0010
0100
0001
1000
0001
0010
0001
0100
,
0001
0000
0100
0000
0001
0000
0100
1000
,
0010
1000
0010
1000
0001
0010
0001
0010
,
1000
0010
1000
0010
0001
0100
0001
1000
,
0010
1000
0001
0010
1000
0001
0100
1000
,
0020
0000
0000
0030
,
2002
0000
0000
0000
,
3003
0000
0000
0000
,
1000
0000
0100
0000
,
0010
0000
0001
1000
,
0001
0000
0010
0000
0100
1000
0001
0010
,
0100
0000
0000
0000
,
1000
0000
0100
0000
,
0010
0000
0001
0010
,
0100
0000
1000
0000
,
0001
0000
0000
0000
,
0110
0000
1001
0000
,
0110
0000
0000
1001
0000
0000
0010
0000
,
0100
1000
0001
0100
,
1000
0001
0010
0000
0100
1000
0001
0000
,
0001
0010
1000
0100
1000
0001
0010
0001
,
1000
0010
0001
1000
0100
0001
0020
0000
,
0000
0000
0000
0030
1000
0100
0010
0001
,
1000
0010
1000
0001
1000
0100
0020
0000
,
0130
0000
1002
0000
0000
1003
0010
0100
,
0001
1000
0001
0010
0001
0100
0001
0000
,
0100
0000
0001
0000
0100
1000
0001
0000
,
1000
0000
0100
0000
0001
1000
0010
0000
,
0100
1000
0001
0000
0010
0001
1000
0000
,
0100
0000
0010
0000
1000
0001
0010
0000
,
0100
1000
0001
0000
0010
0100
1000
0001
,
0220
0000
0000
0000
,
0000
0000
0000
0000
0000
0330
1001
0000
;

//--------------- dance-single - ----------------
#NOTES:
     dance-single:
     :
     Medium:
     13:
     0,0,0,0,0:
0000
0000
0000
0000
,
0000
0000
0000
0000
,
0000
0000
0000
0000
,
0000
0000
0000
0000
,
0000
0000
0000
0000
,
0000
0000
0000
0000
,
0000
0000
0000
0000
,
1000
0000
0001
0000
0100
0000
0010
0001
,
0000
1000
0000
0010
0000
0010
0001
1000
,
0100
0000
1000
0000
0001
0000
0100
2000
,
0000
0000
0000
3001
,
0010
0010
1000
0100
0000
0010
0001
0100
,
0010
0101
0010
1100
,
0010
1001
0100
1001
,
0010
0000
0100
0000
0010
0000
1000
0000
0100
0000
0000
0100
0000
0000
0002
0000
,
1000
0000
1000
0000
1003
0010
0001
2000
,
0001
3000
0100
0000
1000
0001
0100
0000
,
1000
0010
1000
0001
0010
0001
0100
0010
,
1000
0001
0100
0010
1000
0000
0110
0000
,
1001
0000
0100
1000
0000
0001
0100
0000
,
1000
0000
0001
0100
0001
1000
0001
1000
,
0010
0000
0100
0001
0010
0100
0000
0001
,
1000
0010
0000
0100
0010
0000
1000
0000
,
0001
0010
0100
0001
0010
0000
0100
0000
,
1000
0001
0010
0100
1000
0000
0001
0000
,
0010
0100
1000
0000
0001
0010
1000
0001
,
0100
0100
0001
0000
,
1001
0000
0100
1000
0001
0000
0100
0000
,
0010
0001
0010
0100
1000
0001
0010
0000
,
0100
0000
1000
0001
0010
0100
1000
0001
,
0000
0010
0100
0001
0010
1000
0001
0000
,
0010
0100
1000
0001
0010
0000
0100
0000
,
0001
0010
0001
0000
0010
0000
0100
1000
,
0001
0010
0100
1000
0010
0001
0100
0001
,
0010
0220
0000
0330
,
1100
0000
0000
1000
0100
0000
0010
0000
,
0001
0010
0001
0010
0001
0000
1000
0000
0001
0000
1000
0000
0001
0000
1000
0000
,
0100
0000
0000
0000
0001
0000
0100
0000
1100
0000
0000
0101
0000
0000
0101
0000
,
0001
0100
0000
1000
0100
0000
0110
0000
,
1001
0000
0010
0100
1000
0100
0010
0000
,
0001
1000
0001
1000
0001
0000
1000
0000
0100
0000
0010
0000
0011
0000
0000
0000
,
0001
0000
0000
0010
0000
0000
0001
0000
0000
0100
0000
0000
0101
0000
0000
0000
,
1000
0000
0000
0010
0000
0000
1000
0000
0000
0100
0000
0000
1100
0000
0000
0000
,
2002
0000
0003
0000
,
3200
0000
0010
0000
,
0320
0000
0000
0000
,
0032
0000
1000
0000
,
1003
0000
0100
0000
0000
0001
0010
0000
,
0100
0000
1000
0000
0000
0001
0010
0000
,
0100
1000
0001
0000
0010
0100
1000
0000
,
2002
0000
0000
3003
,
0010
0100
0010
0000
,
0001
1000
0100
1000
0010
1000
0001
1000
,
0010
0000
0001
0100
1000
0001
0000
0100
,
1000
0001
0100
0001
0010
0001
1000
0001
,
0011
0000
1001
0001
0010
0000
1000
0001
,
0010
0001
0010
0001
1000
0010
1000
0010
,
0001
0010
0001
0010
1000
0100
1000
0001
,
0010
0001
1000
0010
0001
1000
0100
0001
,
0020
0000
1000
0000
0100
0030
1000
0100
,
0010
0001
1000
0010
1000
0001
1000
0100
,
0020
0000
0130
0000
1002
0000
0000
1003
,
0010
0100
0001
1000
0001
0010
0001
0100
,
0101
0000
1100
0000
1001
0000
0100
1000
,
0010
1000
0010
1000
0001
0010
0001
0010
,
1000
0010
1000
0010
0001
0100
0001
1000
,
0010
1000
0001
0010
1000
0001
0100
1000
,
0020
0000
0000
1030
,
2002
0000
0000
0000
,
3003
0000
0000
0000
,
0010
0100
1000
0000
,
0001
0010
0100
0000
,
1000
0001
0100
0000
0001
0010
0100
0000
,
1000
0000
0000
0000
,
1002
0000
0023
0000
,
0230
0000
1300
0100
,
0001
0000
0000
0000
0100
1000
0001
0000
,
0001
0000
0100
0010
,
1001
0000
0110
0000
,
1001
0000
0000
0110
0000
0000
0001
0000
,
0010
1000
0100
1000
0001
0010
0001
0010
,
0100
1000
0001
0010
0100
0001
0010
0100
,
0001
0010
1000
0100
1000
0001
0010
0001
,
1000
0010
0001
1000
0100
0001
0020
0000
,
0000
0000
0000
0030
1000
0100
0010
0001
,
1000
0010
1000
0001
1000
0100
0020
0000
,
0130
0000
1002
0000
0000
1003
0010
0100
,
0001
1000
0001
0010
0001
0100
0001
0000
,
0100
0000
0001
0000
0100
1000
0001
0000
,
0010
0001
0100
0000
0010
0000
0100
0001
0010
0000
0100
0000
0010
0001
0100
0000
,
0010
1000
0100
0000
0010
0000
0100
1000
0010
0000
1000
0000
0001
0000
0010
0000
,
0100
1000
0001
0000
0100
0000
0001
1000
0100
0000
0010
0000
0100
1000
0001
0000
,
0100
0001
1000
0000
0100
0000
1000
0010
0100
0000
0001
0000
1000
0000
0100
0000
,
2002
0000
0000
0000
,
0000
0000
0000
0000
0000
3003
1001
0000
;

//--------------- dance-single - ----------------
#NOTES:
     dance-single:
     :
     Hard:
     16:
     0,0,0,0,0:
0000
0000
0000
0000
,
0000
0000
0000
0000
,
0000
0000
0000
0000
,
0000
0000
0000
0000
,
0000
0000
0000
0000
,
0000
0000
0000
0000
,
0000
0000
0000
0000
,
1000
0000
0001
0000
0010
0000
0100
0001
,
1000
0000
0001
0000
0100
0000
0001
1000
,
0010
1000
0000
0100
0001
0000
0010
2000
,
0000
0000
0000
3001
,
0010
0000
1000
0000
0001
0000
0010
0001
0010
0000
0100
0000
1000
0000
0100
0010
,
0100
0000
0010
0000
0001
0000
1000
0000
0001
0000
0010
0000
0100
0000
0010
0001
,
0010
0000
0100
0000
1000
0000
0001
0100
0001
0000
0100
0000
0010
0000
1000
0000
,
0001
0000
0100
0000
1000
0000
0001
0000
0100
0000
0000
0100
0000
0000
0001
0000
,
0010
0000
1000
0000
0001
0000
0010
0001
0010
0000
0100
0000
1000
0000
0100
0010
,
0100
0000
0010
0000
0001
0000
0001
0010
0001
0000
0010
0000
0100
0000
0010
0001
,
0010
0000
0100
0000
1000
0000
0001
0100
0001
0000
0100
0000
0010
0000
1000
0000
,
0001
0000
0100
0000
1000
0000
0001
0010
0100
0000
0000
0100
0000
0000
0001
0000
,
1001
0000
0001
0000
0100
0000
1000
0100
0000
0000
0010
0000
1000
0000
0010
0000
,
0000
0000
1000
0000
0100
0000
1000
0100
0000
0000
0010
0000
0001
0000
1000
0000
,
0100
0000
0000
1000
0000
0000
0001
0000
0000
0000
0100
0000
0001
0000
0000
0000
,
0010
0000
0100
0000
1000
0100
0001
1000
,
0001
0100
0010
1000
0000
0100
1000
0001
,
0010
0100
1000
0001
0010
0000
0010
0001
,
0010
0000
0000
0100
0000
0000
0100
0000
0010
0000
0100
0000
0010
0000
1000
0000
,
0100
0100
0001
0100
,
1000
0000
0001
0000
0100
0000
1000
0100
0000
0000
0010
0000
1000
0000
0010
0000
,
0001
0000
1000
0000
0100
0000
1000
0100
0000
0000
0010
0000
0001
0000
1000
0000
,
0100
0000
0000
1000
0010
0000
0001
0000
1000
0000
0000
0010
0001
0000
1000
0000
,
0001
0000
0010
0001
0100
0000
0010
0000
1000
0000
0010
0000
0001
0000
1000
0010
,
0001
0000
0100
0000
0010
0000
1000
0001
0000
0001
0100
0000
1000
0000
0001
0000
,
0010
0000
0100
0000
1000
0000
0001
0000
0010
1000
0000
0001
0010
0000
0001
0000
,
0010
0000
0000
0100
0000
0000
0100
0000
0010
0000
0100
0000
0010
0000
1000
0100
,
0010
0000
0000
0000
0001
0100
1000
0000
0010
0001
0100
0000
0001
0100
0000
0000
,
0100
0000
0000
0000
0010
0001
0010
0100
0010
0100
0010
0100
1000
0100
1000
0000
,
1000
0001
1000
0001
1000
0001
1000
0001
1000
0000
0100
0000
0110
0000
0000
0000
,
0001
0000
0100
0000
2000
0000
0000
0000
0100
0000
0000
0010
0000
0000
0001
0000
,
3001
0100
0001
0100
2000
0000
3100
0000
,
0101
0000
0000
0000
0010
1000
0001
1000
0100
1000
0001
1000
0100
1000
0001
0000
,
1000
0001
0100
0001
1000
0001
0100
0001
1000
0000
0001
0000
1000
0000
0010
0000
,
1000
0000
0100
0001
0000
0100
1000
0000
0100
0010
0000
0001
0010
0000
1000
0000
,
0010
0000
0001
0010
0000
1000
0010
0000
0001
0010
0000
0001
1000
0010
0001
0010
,
2000
0000
0001
0000
,
3200
0000
0010
0000
,
0320
0000
1000
0000
,
0032
0000
0100
0010
,
1003
0000
0100
0001
1000
0000
0001
1000
,
0100
0000
0010
0000
1000
0010
0001
0000
,
0100
1000
0001
0010
0100
1000
0001
0100
,
0020
0000
0000
0000
,
2030
3200
0320
0031
,
1100
0000
0001
1000
0010
0000
1000
0000
0100
0010
0001
0000
0001
0010
0100
0000
,
1100
0000
0000
0000
1000
0000
0100
0000
0001
0000
0100
0000
1001
0000
0001
1000
,
0010
0000
1000
0001
0010
0000
0001
0000
0100
0010
1000
0000
1000
0010
0100
0000
,
0101
0000
0000
0000
0011
0000
0001
0010
0100
0000
0001
0000
1000
0000
0100
0010
,
0002
0000
0000
0000
1003
0000
0010
0100
0002
0000
0000
0000
0103
0000
0010
1000
,
0200
0000
0000
0000
1300
0000
0001
0010
1000
0000
0100
0000
1000
0000
1000
0010
,
1000
0000
0001
1000
0001
0000
0010
0001
0010
0000
0100
0010
0001
0010
0100
1000
,
0020
0000
0000
0000
0100
0000
0000
0000
1030
0001
0100
0010
0000
0000
0010
0100
,
0001
0000
1000
0001
0010
0000
0001
0000
0100
0010
1000
0000
1000
0010
0100
0000
,
0002
0000
0000
0000
0010
0000
0000
0000
0103
0000
0000
0000
1001
0000
1000
0001
,
0010
0000
0001
1000
0010
0000
1000
0000
0100
0010
0001
0000
0001
0010
0100
0000
,
1100
0000
0000
0000
1010
0000
0000
0000
0210
0000
0000
0000
0301
0000
0100
0010
,
1000
0000
0100
0000
0001
0000
0010
0100
1000
0000
0001
0000
0100
0000
0010
0001
,
0100
0000
1000
0000
0001
0000
1000
0010
0100
0000
1000
0000
0001
0000
0001
0010
,
0001
0000
1000
0001
1000
0000
0010
1000
0010
0000
0100
0010
1000
0010
0100
0001
,
0020
0000
0000
0130
,
2002
0000
0000
3003
,
0001
1000
0000
0001
0100
0000
1000
0001
0100
0000
0001
0000
0010
0000
0100
0000
,
1000
0100
0010
0001
,
1000
0001
0010
0200
,
0310
0000
1000
0000
0001
0000
0100
0000
0010
0000
0100
0000
1000
0001
1000
0100
,
0010
0000
0000
0000
,
2000
0000
3200
0000
,
0320
0000
0031
1000
,
0001
0000
0100
0000
,
0010
0100
1000
0000
,
2002
3003
0220
0330
,
2002
0000
3003
0220
0000
0330
1000
0000
,
0100
0010
1000
0001
0010
0100
1000
0001
,
0010
1000
0000
0001
0100
0000
1000
0100
0010
0000
0001
0010
0100
0000
1000
0001
,
1010
0000
0010
0100
0002
0000
0000
0000
0103
0000
0010
1000
0200
0000
0000
0000
,
1300
0000
0001
0010
1000
0000
0100
0000
1000
0000
1000
0010
1000
0000
0001
1000
,
0001
0000
0010
0001
0010
0000
0100
0010
0001
0010
0100
1000
0010
0000
1000
0010
,
0001
1000
0100
0000
1000
0001
0100
0010
0000
0000
0010
0100
0001
0000
1000
0001
,
0010
0000
0001
0000
0100
0010
1000
0000
1000
0010
0100
0000
0001
0000
0100
0001
,
0010
0000
1000
0000
0100
0000
0001
0000
0100
0000
1000
0001
0010
0000
0001
1000
,
0010
0000
1000
0000
0100
0010
0001
0000
0001
0010
0100
0000
1100
0000
0000
0000
,
0010
0100
0010
0000
0001
0000
0010
0100
0010
0000
0001
0000
1000
0010
1000
0000
,
0001
0010
0001
0000
0100
0000
0010
0100
0010
0000
1000
0000
0100
0000
0010
0000
,
0001
0100
0001
0000
1000
0000
0100
0010
0100
0000
0010
0000
0001
1000
0001
0000
,
0100
0010
0100
0000
0010
0000
1000
0100
1000
0000
0001
0000
0100
0000
0010
0000
,
2002
0000
0000
0000
,
0000
0000
0000
0000
0000
0000
0000
0000
0000
0000
0000
3003
1001
0000
0000
0000
;
