
//----- song ID: yuma -----//
#TITLE:YUM-YUM GIRL'S;
#ARTIST:NAMCO Sound Team "Band Geeks" feat. アリス;
#ARTISTTRANSLIT:NAMCO Sound Team "Band Geeks" feat. Alice;
#GENRE:ナムコオリジナル;
#MUSIC:YUM-YUM GIRL'S.ogg;
#BANNER:YUM-YUM GIRL'S.png;
#BACKGROUND:YUM-YUM GIRL'S-bg.png;
#CDTITLE:./CDTitles/NSD A3.png;
#SAMPLESTART:42.766;
#SAMPLELENGTH:15.000;
#SELECTABLE:YES;
#OFFSET:0.000;
#BPMS:0.000=216.000;
#STOPS:;
#BGCHANGES:;
#FGCHANGES:;

//--------------- dance-single - ----------------
#NOTES:
     dance-single:
     :
     Beginner:
     4:
     0,0,0,0,0:
0000
0000
0000
0000
,
0000
0000
0000
0000
,
0000
0000
0000
0000
,
0000
0000
0000
0000
,
0000
0000
0000
0000
,
0000
0000
0000
0000
,
0000
0000
0000
0000
,
0000
1000
0000
0000
,
0000
1000
0000
0000
,
0000
0001
0000
0000
,
0000
0001
0000
0000
,
0000
0010
0000
0000
,
0000
0100
0000
0000
,
0000
1000
0000
0000
,
0000
0001
0000
0000
,
0000
0010
0000
0000
,
0000
0000
0000
0000
,
0000
0100
0000
0000
,
0000
0000
0000
0000
,
0000
0001
0000
0000
,
0000
0001
0000
0000
,
0000
1000
0000
0000
,
0000
1000
0000
0000
,
0000
0010
0000
0000
,
0000
0100
0000
0000
,
0000
0010
0000
0000
,
0000
0100
0000
0000
,
0000
1000
0000
0000
,
0000
1000
0000
1000
,
0000
1000
0000
0000
,
0000
0001
0000
0001
,
0000
0001
0000
0000
,
0000
0010
0000
0010
,
0000
0010
0000
0000
,
0000
0100
0000
0100
,
0000
0200
0000
0000
,
0000
0000
0000
0000
,
0300
0020
0000
0000
,
0000
0030
0000
0000
,
0000
1001
0000
0000
,
0000
0100
0000
0000
,
0000
0001
0000
0000
,
0000
0010
0000
0000
,
0000
1000
0000
0001
,
0000
0100
0000
0000
,
0000
0010
0000
1000
,
0000
0001
0000
0000
,
0000
0010
0000
0000
,
0000
0100
0000
0000
,
0000
1000
0000
0000
,
0000
0001
0000
0000
,
0000
0010
0000
0100
,
0000
1000
0000
0000
,
0000
0001
0000
0000
,
0000
0001
0000
0000
,
0000
1000
0000
0000
,
0000
0000
0000
0000
,
0000
0001
0000
0000
,
0000
0000
0000
0000
,
0000
0010
0000
0000
,
0000
0100
0000
0000
,
0000
1001
0000
0000
,
0000
0000
0000
0000
,
0000
0010
0000
0000
,
0000
1000
0000
0000
,
0000
0001
0000
0000
,
0000
0010
0000
0000
,
0000
0100
0000
0000
,
0000
1000
0000
0000
,
0000
0001
0000
0010
,
0000
0100
0000
1000
,
0000
0001
0000
0100
,
0000
0010
0000
0000
,
0000
1001
0000
0000
,
0000
0110
0000
0000
,
0000
0001
0000
0000
,
0000
0010
0000
0000
,
0000
1000
0000
0001
,
0000
0100
0000
0000
,
0000
0010
0000
0001
,
0000
1000
0000
0000
,
0000
0010
0000
0000
,
0000
0100
0000
0000
,
0000
1000
0000
0000
,
0000
0001
0000
0000
,
0000
0010
0000
0000
,
0000
0100
0000
0000
,
0000
0001
0000
1000
,
0000
0001
0000
0000
,
0000
0010
0000
0000
,
0000
0100
0000
0000
,
0000
1000
0000
0000
,
0000
0001
0000
0000
,
0000
0010
0000
0000
,
0000
0100
0000
0000
,
0000
1000
0000
0000
,
0000
0001
0000
0000
,
0000
0010
0000
0100
,
0000
1000
0000
0000
,
0000
0001
0000
0000
,
0000
1000
0000
0000
,
0000
0001
0000
0000
,
0000
0010
0000
0000
,
0000
0100
0000
1000
,
0000
0001
0000
0000
,
0000
0000
1001
0000
0000
0000
0000
0000
0000
0000
0000
0000
;

//--------------- dance-single - ----------------
#NOTES:
     dance-single:
     :
     Easy:
     7:
     0,0,0,0,0:
0000
0000
0000
0000
,
0000
0000
0000
0000
,
0000
0000
0000
0000
,
0000
0000
0000
0000
,
0000
0000
0000
0000
,
0000
0000
0000
0000
,
0000
0000
0000
0000
,
0000
0110
0001
1000
,
0001
0100
1000
0001
,
0010
1000
0010
0001
,
1000
0100
1000
0001
,
0000
0010
1000
0001
,
0000
0010
0100
0010
,
0000
1000
0001
0100
,
0000
0010
1000
0001
,
0000
0001
1000
0010
,
0000
1000
0001
0010
,
0000
0001
1000
0010
,
0001
1000
0001
1000
,
0000
0100
0001
1000
,
0000
0010
0000
1000
,
0000
0001
1000
0010
,
0001
0100
0010
1000
,
0100
0001
1000
0010
,
0000
0100
1000
0001
,
0000
1000
0010
0001
,
1000
0010
1000
0100
,
0001
1000
0000
1000
,
0000
0001
1000
0001
,
0000
0010
0000
0010
,
0000
0100
0001
0100
,
1000
0001
0000
1000
,
0000
0100
0001
0010
,
1000
0001
0000
1000
,
0000
0001
0010
0100
,
1000
0020
0000
0000
,
0000
1000
0000
1000
,
0030
0200
0000
0010
,
0000
0301
0000
0000
,
0000
1001
0001
0100
,
0000
0010
0001
0010
,
0000
1000
0010
0001
,
0000
0100
1000
0001
,
0000
0100
1000
0010
,
0000
0001
1000
0010
,
0000
0100
0001
1000
,
0000
0001
1000
0100
,
0001
0010
0000
0001
,
0000
1000
0010
0001
,
0000
0100
1000
0010
,
1000
0001
0000
1000
,
0000
0001
0010
0100
,
1000
0010
0000
0001
,
0000
0010
1000
0100
,
0001
1000
0000
0010
,
0000
1001
0000
0100
,
0000
0010
1000
0001
,
0000
0010
0000
0100
,
0001
1000
0010
0001
,
0000
0100
1000
0010
,
1000
0001
0000
0000
,
0000
0000
1001
0000
0000
0000
0000
0000
0000
0010
0000
0000
,
0000
0100
1000
0001
,
0000
1000
0001
0100
,
0000
0010
0000
0001
,
0000
0010
1000
0001
,
0000
0100
0000
0010
,
0000
0001
1000
0001
,
0000
0100
0000
0010
,
0000
0002
0000
1000
,
0003
2000
0000
0001
,
3000
0020
0000
1000
,
0030
0200
0000
0300
,
0000
0001
0000
0010
,
1000
0001
0000
0010
,
0100
0010
0000
1000
,
0100
0001
0010
0100
,
0000
1000
0010
0001
,
1000
0010
0001
0100
,
1000
0001
1000
0001
,
0000
0100
0010
1000
,
0000
1001
0000
0100
,
1000
0001
0010
0100
,
0000
1000
0010
0001
,
0000
0100
0010
0001
,
0000
1000
0010
0001
,
0010
0100
0001
1000
,
0000
0001
1000
0001
,
0010
0100
0001
0100
,
0010
1000
0000
0001
,
0000
0100
0000
0010
,
0000
1001
0000
0100
,
1000
0010
0001
1000
,
0010
0001
0000
0100
,
0010
1000
0010
0001
,
1000
0100
0010
1000
,
0000
0001
0100
0010
,
0001
2000
3000
0200
,
0300
0020
0030
0002
,
0003
1000
0010
0001
,
1000
0100
0001
0100
,
0001
1000
0000
0001
,
1000
0100
0010
1000
,
0010
0001
0000
0100
,
1000
0010
0000
0000
,
0000
0000
1001
0000
0000
0000
0000
0000
0000
0000
0000
0000
;

//--------------- dance-single - ----------------
#NOTES:
     dance-single:
     :
     Medium:
     11:
     0,0,0,0,0:
0000
0000
0000
0000
,
0000
0000
0000
0000
,
0000
0000
0000
0000
,
0000
0000
0000
0000
,
0000
0000
0000
0000
,
0000
0000
0000
0000
,
0000
0000
0000
0000
,
0000
1010
0001
0100
,
0010
1000
0001
0100
,
0010
1000
0001
0100
,
0010
0000
0000
1000
0000
0001
0000
0000
1000
0001
0000
0000
,
0010
1001
0100
0010
,
0000
1000
0001
0100
,
0010
1000
0001
0010
,
0000
0100
0001
0100
,
0000
0000
0000
0010
0000
0000
0000
0000
1000
0000
0000
0000
,
0001
0000
0000
1000
0000
0001
0000
0000
0010
1000
0000
0000
,
0010
0100
1000
0001
,
0100
0000
1000
0200
0000
0000
0000
0000
0302
0000
0000
0000
,
1003
0000
0000
0010
0000
0100
1000
0000
0001
0000
0000
0000
,
0100
0000
1000
0100
0000
0001
0010
0000
2000
0000
0000
0000
,
3001
2000
3200
0320
,
0032
2003
3001
0010
,
0100
0000
0000
1000
0000
0010
0001
0000
0000
0100
0000
0000
,
0010
0000
0000
1000
0000
0010
0001
0000
0000
0010
0000
0100
,
1000
0000
0001
1000
0000
0000
1000
0000
0000
0001
0000
0010
,
0000
0000
0001
0100
0000
0000
1000
0000
0001
1000
0000
0000
,
0100
0010
1000
0001
,
0100
0010
1000
1001
,
0100
0010
0001
0010
,
0100
1000
0001
0010
,
0110
0000
0000
1000
0000
0001
1000
0000
0000
0100
0000
1000
,
0001
0000
0000
0010
0000
1000
0001
0000
0000
0100
0000
0000
,
0010
1000
0001
0100
,
0010
0100
1000
0001
,
0010
0200
0000
0000
,
0000
0010
0000
0310
,
1000
0000
0000
0001
0000
1000
0000
0000
1000
0001
0000
0000
,
1000
0000
0010
0001
0000
0000
0100
0000
0000
1000
0000
0000
,
0001
1001
0100
0010
,
1000
0000
0010
0001
0000
0000
0100
0000
0000
0010
0000
0000
,
0001
0000
1000
0020
0000
0000
0000
0000
0130
0000
0000
0000
,
1000
0000
0001
1000
0000
0000
0000
0000
0110
0000
0000
0000
,
0001
0000
1000
0001
0000
0000
1000
0000
0001
1000
0000
0000
,
0100
0000
0000
0010
0000
0000
0100
0000
1000
0000
0000
0010
,
0001
0000
0000
0010
0000
0000
0100
0000
1000
0010
0000
0001
,
0000
0000
1000
0010
0000
0000
0001
0000
0000
0010
0000
0000
,
1000
0000
0000
0001
0000
1000
0001
0000
0000
0010
0000
0000
,
0100
0000
0000
1000
0000
0001
0010
0000
0000
0100
0000
1000
,
0001
0000
0000
2000
0000
0000
0000
0000
3002
0000
0000
0000
,
0103
0000
0000
2000
0000
0000
0000
0000
3002
0000
0000
0000
,
0013
0000
0000
1000
0000
0010
0001
0000
0000
1000
0000
0000
,
0001
0000
0010
0100
0000
0001
1000
0000
0010
0000
0000
1000
,
0001
0000
1000
0002
0000
0000
0000
0000
0000
0023
0000
0000
,
0000
0000
1030
0000
0000
0001
1000
0000
0010
0001
0000
0010
,
1000
0000
0001
0000
0000
0000
1000
0000
0000
0010
0000
0000
,
0100
0000
0000
1000
0000
0010
0001
0000
0000
0100
0000
0001
,
0010
1000
0001
0100
,
0010
0000
0000
1000
0000
0100
0001
0000
0000
0100
0000
1000
,
0010
0000
0000
0001
0000
0000
0010
0000
0000
0100
0000
0001
,
1000
0000
0000
1001
0000
0000
0000
0000
0010
0000
0000
1000
,
0001
0000
1000
0000
0000
0000
0010
0000
0000
1000
0000
0000
,
0001
0100
0010
1000
,
0001
0000
0000
0110
0000
0000
0001
0000
0010
0100
0000
0000
,
1000
0000
0000
0010
0000
0000
1000
0000
0000
0001
0000
0100
,
1000
0000
0000
0010
0000
0000
1000
0000
0000
0001
0000
0010
,
1000
0100
1000
0010
,
1000
0000
0010
0001
0000
0000
1000
0000
0000
0001
0000
0000
,
1000
0000
0000
0100
0000
1000
0001
0000
0000
0010
0000
0000
,
1000
0000
0000
0001
0000
0000
0100
0000
1000
0000
0000
0001
,
0100
0000
0000
1000
0000
0000
0100
0000
0001
0000
0000
1000
,
0010
0000
0000
0010
0000
0000
1000
0000
0001
0000
0000
0100
,
0010
0220
0000
0330
,
0000
1001
0010
0000
,
1000
1001
0010
0000
,
0100
0010
0100
1000
,
0000
0001
0010
0100
,
0001
1000
1000
0001
,
0000
0010
0001
0100
,
0010
0001
1000
0001
,
0000
0100
0010
1000
,
0010
1001
0100
0010
,
1000
0000
0010
0001
0000
0000
0100
0000
0000
0010
0000
0000
,
0001
0000
1000
0020
0000
0000
0000
0000
0130
0000
0000
0000
,
1000
0000
0001
1000
0000
0000
0000
0000
0110
0000
0000
0000
,
0001
0000
1000
0001
0000
0000
1000
0000
0001
1000
0000
0000
,
0100
0000
0000
0010
0000
0000
0100
0000
1000
0000
0000
0010
,
0001
0000
0000
0010
0000
0000
0100
0000
1000
0010
0000
0000
,
0001
0000
1000
0010
0000
1000
0001
0000
1000
0010
0000
0000
,
1000
0000
0000
0101
0000
0000
0000
0000
0000
0000
0000
1000
,
0001
0000
0000
1001
0000
0000
0000
0000
0000
0000
0000
0010
,
0001
0000
2000
0000
0000
0000
0010
0000
3000
0002
0000
0000
,
0103
0000
0000
2000
0000
0000
0000
0000
3002
0000
0000
0000
,
0013
0000
0000
1000
0000
0010
0001
0000
0000
1000
0000
0000
,
0001
0000
0000
0100
0000
0001
1000
0000
0010
0000
0000
1000
,
0001
0000
1000
0001
0000
0000
1000
0000
0000
0010
0000
0000
,
0100
0000
1000
0000
0000
0001
1000
0000
0010
0001
0000
0010
,
1000
0000
0001
0010
0000
0000
1000
0000
0000
0010
0000
0000
,
0100
0000
0000
1000
0000
0010
0001
0000
0000
0100
0000
0001
,
0010
1000
0001
0100
,
0010
0000
0000
1000
0000
0100
0001
0000
0000
0100
0000
1000
,
0010
0000
0000
0001
0000
0000
0010
0000
0000
0100
0000
0001
,
1000
0000
0000
1001
0000
0000
0000
0000
0010
0000
0000
1000
,
0001
0000
1000
0001
0000
0000
0010
0000
0000
0100
0000
0001
,
1000
0000
0000
0010
0000
0000
0000
0000
0001
0000
0000
0100
,
0010
0000
1001
0000
0000
0000
0000
0000
0000
0000
0000
0000
;

//--------------- dance-single - ----------------
#NOTES:
     dance-single:
     :
     Hard:
     15:
     0,0,0,0,0:
0000
0000
0000
0000
,
0000
0000
0000
0000
,
0000
0000
0000
0000
,
0000
0000
0000
0000
,
0000
0000
0000
0000
,
0000
0000
0000
0000
,
0000
0000
0000
0000
,
0000
0000
0000
1010
0000
0001
0010
0000
0000
0100
0000
1000
,
0100
0000
0000
0001
0000
1000
0010
0000
0000
0100
0000
0001
,
0010
0000
0000
1000
0000
0001
1000
0000
0000
0010
0000
0100
,
1000
0000
0000
0001
0000
1000
0010
0000
0001
0000
0000
1000
,
0001
0000
0000
1001
0000
0001
1000
0000
0001
0000
0000
0100
,
1000
0000
0001
0010
0000
1000
0001
0000
0020
0000
0000
0000
,
1030
0000
0000
0001
0000
1000
0001
0000
0010
0100
0000
1000
,
0100
0000
0001
0100
0000
1000
0000
0000
0020
0000
0000
0000
,
0130
0000
0000
2000
0000
0000
0010
0000
3002
0000
0000
0000
,
1003
0000
0000
0010
0000
0000
1000
0000
0001
0100
0000
0000
,
1000
0000
0000
0010
0000
0000
0100
0000
0001
0100
0000
0000
,
1000
0000
0001
0200
0000
0000
0000
0000
2300
0000
0000
0000
,
3002
0000
0000
0013
0000
1000
0001
0000
0100
0000
0000
1000
,
0001
0000
0010
0200
0000
0000
0000
0000
2300
0000
0000
0000
,
3001
0002
0023
0230
,
2300
3020
0032
2003
,
3200
0000
0000
0320
0000
0000
0031
0000
1000
0001
0000
0100
,
0000
0000
0000
0000
2001
0000
0000
0000
0000
0000
0000
0000
3000
0000
0000
0001
0000
0000
0010
0000
0000
0000
0000
0000
,
1000
0000
0001
0100
0000
0000
1000
0000
0000
0001
0000
1000
,
0000
0000
0100
0010
0000
0000
1000
0000
0000
0001
0000
0000
,
1010
0000
0000
0202
0303
0000
0220
0330
0000
2002
3003
0000
,
0202
0303
0000
2200
3300
0000
0220
0330
0000
0202
0303
0000
,
2002
3003
0000
0220
0330
0000
0202
0303
0000
2002
3003
0000
,
0220
0330
0000
2002
3003
0000
0220
0330
0000
2002
3003
0000
,
0202
0303
0000
0100
0000
1000
0001
0000
0000
0100
0000
0010
,
1000
0000
0000
0001
0000
1000
0100
0000
0000
2002
0000
0000
,
3003
0100
1000
0001
,
1000
0001
0100
0010
,
1000
0000
0000
0001
0000
1000
0001
0000
0010
0100
0000
0001
,
1000
0000
0001
1000
0000
0100
0001
0000
0010
0100
0000
1000
,
0100
0000
0010
0001
0010
0001
0010
0001
0010
0001
0010
0001
,
0010
0001
0010
0001
0000
0000
0020
0000
0000
0230
0000
0000
,
1300
0000
0000
1001
0000
1000
0001
0000
1000
0000
0000
0010
,
0001
0000
1000
0100
0000
0001
1000
0000
0200
0000
0000
0000
,
0301
0000
0000
1000
0000
0001
1000
0000
0100
0010
0000
0001
,
0010
0000
1000
0010
0000
0001
0000
0000
0200
0000
0000
0000
,
0310
0000
0000
0001
0000
0010
0100
0000
0000
1000
0000
0100
,
0001
0000
0000
0100
0000
0010
0001
0000
1000
0010
0000
0100
,
0001
0000
0000
0100
0000
0000
0010
0000
1000
0010
0000
0000
,
0001
0000
1000
0010
0000
0000
0002
0000
0000
0023
0000
0000
,
2030
0000
0000
3010
0000
0001
1000
0000
0010
0000
0000
0001
,
1000
0000
0100
0010
0000
1000
0001
0000
0100
0001
0000
0100
,
1000
0000
0000
0002
0000
0000
0000
0000
2003
0000
0000
0000
,
3100
0000
0100
0020
0000
0000
0000
0000
0032
0000
0000
0000
,
1003
0000
0000
1001
0000
0001
1000
0000
0001
0000
0000
0100
,
1000
0000
0001
0010
0000
1000
0001
0000
0020
0000
0000
0000
,
1030
0000
0000
0001
0000
1000
0001
0000
0010
0100
0000
1000
,
0100
0000
0001
0100
0000
1000
0000
0000
0020
0000
0000
0000
,
0130
0000
0000
2000
0000
0000
0010
0000
3002
0000
0000
0000
,
1003
0000
0000
0010
0000
0000
1000
0000
0001
0100
0000
0000
,
1000
0000
0000
0010
0000
0000
0100
0000
0001
0100
0000
0000
,
1000
0000
0001
0200
0000
0000
0000
0000
2300
0000
0000
0000
,
3002
0000
0000
0013
0000
1000
0001
0000
0100
0000
0000
1000
,
0001
0000
0010
0200
0000
0000
0000
0000
2300
0000
0000
0000
,
3001
0000
0010
0000
0000
0001
0010
0000
0000
0100
0000
1000
,
0100
0000
0000
0001
0000
1000
0010
0000
0100
0000
0000
0001
,
0010
0000
0001
1000
0000
0001
1000
0000
0000
0010
0000
0100
,
1000
0000
0000
0001
0000
1000
0010
0000
0001
0000
0000
1000
,
0001
0000
0100
1000
0000
0001
0010
0000
0000
0100
0000
1000
,
0100
0000
0000
0001
0000
1000
0010
0000
0000
0100
0000
0001
,
0010
0000
0000
1000
0000
0001
1000
0000
0000
0010
0000
0100
,
1000
0000
0000
0001
0000
1000
0010
0000
0001
0000
0000
1000
,
0001
0000
0000
0001
0010
0001
0010
0001
0010
0001
0010
0001
,
0010
0000
0000
1000
0100
1000
0100
1000
0100
1000
0100
1000
,
0100
0000
0000
0001
1000
0001
1000
0001
1000
0001
1000
0001
,
1000
0001
1000
0001
0000
0000
0200
0000
0000
2300
0000
0000
,
3001
0000
0000
2002
0000
0000
0000
0000
0000
3003
0000
0010
,
0100
0000
0000
0202
0000
0000
0000
0000
0303
0000
0000
1000
,
0001
0000
0000
0010
0000
0100
1000
0000
0001
1000
0000
0001
,
1000
0000
0100
0010
0000
1000
0001
0000
1000
0001
0000
0000
,
0020
2030
3002
1003
,
0001
0000
1000
0001
0000
0001
0100
0000
0110
0000
0000
0001
,
0100
0000
1000
0001
0000
0000
0010
0000
0000
1000
0000
0000
,
0001
0000
0100
0000
0000
0000
2000
0000
0000
3200
0000
0000
,
0320
0000
0000
1030
0000
1000
0001
0000
1000
0000
0000
0010
,
0001
0000
1000
0100
0000
0001
1000
0000
0200
0000
0000
0000
,
0301
0000
0000
1000
0000
0001
1000
0000
0100
0010
0000
0001
,
0010
0000
1000
0010
0000
0001
0000
0000
0200
0000
0000
0000
,
0310
0000
0000
0001
0000
0010
0100
0000
0000
1000
0000
0100
,
0001
0000
0000
0100
0000
0010
0001
0000
1000
0010
0000
0100
,
0001
0000
0000
0100
0000
0000
0010
0000
1000
0010
0000
0000
,
0001
0000
1000
0010
0000
0000
0002
0000
0000
0023
0000
0000
,
2030
0000
0000
3020
0000
0000
0000
0000
0000
0130
0000
0001
,
1000
0000
0001
0100
0000
0000
0000
0000
1000
0000
0000
1000
,
0001
0000
0100
0001
0000
0000
0010
0000
0000
1000
0000
0000
,
0100
0000
0100
0020
0000
0000
0000
0000
0032
0000
0000
0000
,
1003
0000
0000
1001
0000
0001
1000
0000
0001
0000
0000
0100
,
1000
0000
0001
0010
0000
1000
0001
0000
0020
0000
0000
0000
,
1030
0000
0000
0001
0000
1000
0001
0000
0010
0100
0000
1000
,
0100
0000
0001
0100
0000
1000
0000
0000
0020
0000
0000
0000
,
0130
0000
0000
2000
0000
0000
0010
0000
3002
0000
0000
0000
,
1003
0000
0000
0010
0000
0000
1000
0000
0001
0100
0000
0000
,
1000
0000
0000
0010
0000
0000
0100
0000
0001
0100
0000
0000
,
1000
0000
0001
0200
0000
0000
0000
0000
2300
0000
0000
0000
,
3002
0013
1000
0001
,
0100
0000
0000
1000
0000
0001
0010
0000
0000
0100
0000
0001
,
1000
0000
0000
0010
0000
0000
1000
0000
0001
0010
0000
1000
,
0001
0000
0010
0100
0000
0000
0000
0000
0001
0100
0000
1000
,
0001
0000
1001
0000
0000
0000
0000
0000
0000
0000
0000
0000
;
