
//----- song ID: exhe -----//
#TITLE:X Hearts;
#ARTIST:NAMCO Sound Team "DJ Monty meets AJURIKA UNDERGROUND";
#GENRE:ナムコオリジナル;
#MUSIC:X Hearts.ogg;
#BANNER:X Hearts.png;
#BACKGROUND:X Hearts-bg.png;
#CDTITLE:./CDTitles/NSD A3.png;
#SAMPLESTART:90.960;
#SAMPLELENGTH:15.000;
#SELECTABLE:YES;
#OFFSET:-0.317;
#BPMS:0.000=180.000
,176.000=120.000
,177.000=122.000
,178.000=90.000
,179.000=120.000
,180.000=90.000
,182.000=71.000
,183.000=90.000
,198.000=360.000
,198.500=180.000
,199.000=90.000
,211.000=180.000
,276.000=360.000
,287.000=180.000
,295.000=360.000
,298.000=180.000
;
#STOPS:177.000=1.005
,197.500=0.154
,198.000=0.083
,198.500=0.168
,276.000=0.080
,276.500=0.254
,277.000=0.165
,295.000=0.167
,296.000=0.167
,297.000=0.081
,297.500=0.254
;
#DISPLAYBPM:180.000:360.000;
#BGCHANGES:;
#FGCHANGES:;

//--------------- dance-single - ----------------
#NOTES:
     dance-single:
     :
     Beginner:
     3:
     0,0,0,0,0:
0000
0000
0000
0000
,
0000
0000
0000
0000
,
0000
0000
0000
0000
,
0000
0000
0000
0000
,
0000
0000
0000
0000
,
0000
0000
0000
0000
,
0000
0000
0000
0000
,
0000
0000
0000
0000
,
0000
0000
0000
0000
,
0000
0000
0000
0000
,
0100
0000
0001
0000
,
0100
0000
0010
0000
,
1000
0000
0001
0000
,
0100
0000
0010
0000
,
1000
0000
0001
0000
,
0100
0000
0010
0000
,
0100
0000
1000
0000
,
0001
0000
0100
0000
,
1000
0000
0001
0000
,
0100
1000
0001
0000
,
0100
0000
0010
0000
,
0100
1000
0001
0000
,
0100
0000
0010
0000
,
1000
0000
0001
0000
,
0010
0100
0001
1000
,
0002
0000
0023
0000
,
0030
0000
0000
0000
,
0010
0100
1000
0000
,
0010
0000
1000
0000
,
0001
1000
0001
0000
,
0100
0000
0000
0000
1000
0001
0000
0100
,
0000
1000
0000
0001
,
0100
0000
0000
0000
1000
0000
0000
0001
,
0000
0100
0000
1000
0000
0000
0000
0000
,
0001
0000
0000
0000
1000
0001
0000
0100
,
0000
0000
0010
0100
,
1000
0000
0001
0000
,
0100
0010
0001
0000
,
0010
0000
0000
0000
0100
0010
0000
0100
,
0000
0000
1000
0001
,
0100
0000
1000
0000
,
0001
0000
0010
0000
,
0100
0000
0000
0000
1000
0000
0000
0001
,
0000
0100
1000
0000
0001
0000
0100
0000
,
0010
0110
1000
0001
,
1000
0000
0000
0020
,
0000
0030
0000
0200
,
0000
0300
0000
0020
,
0000
0030
0000
2000
,
3000
0000
0000
0010
0100
1000
0001
0000
,
0100
1000
0001
0010
,
0100
0010
1000
0001
,
0100
0010
1000
0001
,
0010
0100
1000
0001
,
0000
0000
0000
1000
,
0000
0000
0000
0001
,
0000
0000
0000
0100
,
0000
0010
0000
1000
,
0000
0001
0000
1001
,
0000
0100
0000
1000
,
0001
0100
0000
0010
,
0000
0000
1000
0000
0000
0001
0000
0000
,
0000
0100
1000
0001
,
0000
0000
0010
0000
0000
0100
0000
1000
,
0000
0010
0000
1000
,
0000
0000
0001
0000
0000
0100
0000
0010
,
1000
0001
0100
1000
,
0000
0001
0000
0010
,
0100
0010
0000
2000
,
0000
0000
3000
0000
,
0001
0010
0000
0100
,
0000
1000
0000
0001
,
0000
0100
0000
0001
,
1000
0001
0000
0020
,
0000
0000
0000
0000
0030
0000
0100
1000
,
0000
0010
0000
0100
0000
1001
0000
0000
;

//--------------- dance-single - ----------------
#NOTES:
     dance-single:
     :
     Easy:
     7:
     0,0,0,0,0:
0000
0000
0000
0000
,
0000
0000
0000
0000
,
0000
0000
0000
0000
,
0000
0000
0000
0000
,
0000
0000
0000
0000
,
0000
0000
0000
0000
,
0000
0000
0000
0000
,
0000
0000
0000
0000
,
0000
0000
0000
0000
,
0000
0000
0000
0000
,
0010
1000
0100
0010
,
0001
0000
0010
1000
0001
0000
0010
0000
,
0100
1000
0001
0100
,
0001
0000
1000
0000
0010
0001
0100
0000
,
0001
0100
0010
0100
,
0001
1000
0010
0000
0001
0000
0100
0000
,
0001
1000
0010
0000
0100
0000
0010
0000
,
0100
1000
0100
1000
,
0001
0010
1000
0001
,
1000
0010
0100
0010
,
0100
0010
1000
0100
,
0010
0001
1000
0001
,
0010
0100
1000
0010
,
0100
0010
1000
0100
,
1000
0010
0100
0001
,
0020
0000
0000
0000
,
0130
0000
0000
0000
,
1000
0100
0010
0001
,
1001
0001
0100
0010
,
0100
0000
0001
0000
0100
0000
0010
0100
,
1000
0000
0001
0000
1000
0000
0000
0001
,
0000
1000
0100
0000
0010
0000
0001
0000
,
0100
0000
0001
0000
1000
0000
0001
1000
,
0000
0100
0010
0000
0100
0000
0001
0000
,
0100
0010
0100
0001
,
1000
0001
0100
0010
,
0100
0010
1000
0001
,
1000
0100
1000
0010
,
0100
0000
0010
0000
1000
0000
0001
1000
,
0010
0000
0000
0000
0001
0000
0000
0000
0100
0000
0000
0001
0000
0000
0010
0000
,
0100
0010
0100
0001
,
0010
0001
1000
0001
,
0010
0100
1000
0100
,
0010
0100
1000
0010
,
1000
0000
1001
0000
0010
0000
0200
0300
,
2000
3000
0000
0000
0000
0000
1002
0000
,
1000
0100
0010
1000
,
0100
0010
0100
2003
,
0100
0010
0001
0100
,
3001
0000
0000
0110
0001
1000
0001
0000
,
1000
0000
0001
0010
0100
0000
1000
0000
,
0001
0000
0010
0100
1000
0000
0001
0000
,
1000
0010
0100
1000
,
0001
0100
1000
0002
,
0000
0000
0000
1003
,
0000
0100
0000
1000
,
0000
0001
0000
0100
,
0000
1000
0000
0001
,
0010
0100
1000
1001
,
0100
0010
0100
1000
,
0001
0100
0010
0100
,
0010
0000
0100
0000
1000
0001
0100
0000
,
1000
0001
0100
0010
,
0100
0001
0010
0100
,
0010
1000
0001
0100
,
0010
0000
1000
0001
0000
0100
0000
0010
,
1000
0010
0100
1010
,
0100
0010
0001
0010
,
0100
0010
1000
0100
,
0001
1000
0010
0000
0100
0000
0000
0000
,
1000
0001
0000
0100
,
0000
0010
0000
0100
,
1000
0001
0100
0010
,
0100
1000
0001
0100
,
0100
0000
0001
1000
0000
0000
0010
0100
,
0000
1000
0000
0001
0000
1001
0000
0000
;

//--------------- dance-single - ----------------
#NOTES:
     dance-single:
     :
     Medium:
     11:
     0,0,0,0,0:
0000
0000
0000
0000
,
0000
0000
0000
0000
,
0000
0000
0000
0000
,
0000
0000
0000
0000
,
0000
0000
0000
0000
,
0000
0000
0000
0000
,
0000
0000
0000
0000
,
0000
0000
0000
0000
,
0000
0000
0000
0000
,
0000
0000
0000
0000
,
1001
0000
0000
0100
0010
0000
1000
0000
,
0001
0000
0100
1000
0000
0000
0010
0000
,
0100
0000
0001
1000
0100
0000
0010
0000
,
1000
0000
0000
0001
0100
0000
0100
1000
,
0100
0000
0000
0001
0010
0100
1000
0000
,
0010
0000
0100
1000
0001
0000
0100
0000
,
1000
0000
0000
0001
0010
0000
0100
0000
,
1000
0000
0000
0010
0001
0000
1000
0000
,
0001
0100
0010
0100
,
1000
0001
0010
0100
,
0010
1000
0001
0100
,
0010
1000
0001
0100
,
1000
0001
0100
0000
1000
0100
0001
0000
,
0100
0001
1000
0000
0001
1000
0001
0000
,
0100
1000
0001
0100
0010
1000
0001
0100
,
2000
0000
0000
0000
,
3001
0000
0000
0000
,
0010
0100
1000
1001
,
0001
0100
0010
0100
,
0001
0000
0100
1000
0001
0000
1000
0000
,
0001
0000
0100
0001
1000
0001
0000
0100
,
0000
1000
0001
0010
1000
0001
0100
0001
,
0001
0000
1000
0000
0100
0001
0000
0100
,
0000
1000
0010
0001
1000
0010
0100
0001
,
0010
0000
1000
0000
0001
0100
0000
0010
,
0000
1000
0001
0000
0100
0010
0100
0000
,
1001
0001
1000
0010
,
1000
0001
0010
0000
1000
0000
0100
0000
,
0010
0001
0100
0000
1000
0100
0000
0001
,
0000
0000
1000
0000
0010
0000
0000
0000
0100
0000
0000
0001
0000
0000
0010
0000
,
0100
0000
0010
0000
1000
0000
0001
0100
,
1000
0000
0010
0000
0100
0000
0001
1000
,
0010
0001
0010
0001
,
1000
0001
0100
0000
1000
0000
0001
0000
,
0100
1001
0010
1001
,
0110
0000
0000
1002
,
0100
1000
0103
2000
,
0100
0000
0010
0000
3001
0010
0002
0000
,
0010
0000
0100
0000
1003
0001
2000
0000
,
0010
0000
3100
1001
0010
0100
1001
0010
,
1000
0001
0010
0100
1000
0001
0010
0100
,
1000
0100
1000
0100
0010
0001
0010
0001
,
0010
0100
1000
0100
0010
0001
0100
0001
,
1000
0000
0001
0010
0100
0000
1000
0100
,
0020
0000
0000
1030
,
0000
0001
0000
0100
,
0000
0010
0000
1000
,
0000
0001
0000
0110
,
1001
0110
1000
0001
,
0100
0000
1000
0000
0010
1000
0100
0000
,
0001
1000
0001
0100
,
0010
0000
1000
0001
0000
1000
0000
0010
,
0100
1000
0001
0010
0100
1000
0100
0000
,
0010
0000
0001
1000
0001
0000
0100
0000
,
0010
0000
0100
0001
1000
0000
0001
0000
,
0100
0000
1000
0001
0000
0010
0000
0100
,
1000
0000
0001
0000
0100
0000
1000
0001
,
0100
0010
0100
0001
,
0010
0100
1000
0001
,
0100
1000
0010
0000
0100
0000
0000
0000
,
1000
0010
0001
0100
,
0000
1000
0000
0001
,
0100
1000
0001
0010
,
0100
0001
0100
0010
,
1000
0000
0001
1000
0100
0000
0010
0100
,
1000
0001
0000
0100
0000
2002
0000
0000
,
0000
0000
0000
0000
,
0000
0000
0000
0000
,
3003
0000
0000
0000
;

//--------------- dance-single - ----------------
#NOTES:
     dance-single:
     :
     Hard:
     15:
     0,0,0,0,0:
0000
0000
0000
0000
,
0000
0000
0000
0000
,
0000
0000
0000
0000
,
0000
0000
0000
0000
,
0000
0000
0000
0000
,
0000
0000
0000
0000
,
0000
0000
0000
0000
,
0000
0000
0000
0000
,
0000
0000
0000
0000
,
0000
0000
0000
0000
,
1001
0000
0010
0100
2000
0000
3001
0000
,
0010
0100
0000
1000
0200
0000
0310
0000
,
0002
0000
0000
0013
0100
1000
0200
0000
,
0302
0000
1003
0100
0020
0000
1030
0100
,
0020
0000
0031
0100
1000
0100
0020
0000
,
0031
0010
1000
0010
0200
0000
0301
0000
,
0020
0000
1030
0000
0010
1000
0100
0000
,
0001
0000
1000
0100
0001
0010
0100
1000
,
0100
1000
0100
1000
0010
0100
0010
1000
,
0100
1000
0010
1000
0010
0100
0010
0100
,
0001
0010
0100
0010
0100
0010
0001
1000
,
0100
1000
0001
1000
0010
0100
0010
0100
,
0010
1000
0001
0100
0010
0100
0010
1000
,
0001
0100
0001
0010
0001
0100
0010
1000
,
0001
0010
0100
0000
1000
0001
0100
0000
0010
0100
1000
0000
0001
0100
0010
0000
,
0010
0100
0001
0100
0010
0100
0001
0010
0200
0000
0000
0000
0000
0000
0000
0000
,
0320
0000
0000
0000
,
0130
0110
1001
0110
,
0010
0100
0010
1000
0010
1000
0001
1000
,
0001
0000
0100
0000
0001
0000
1000
0000
0100
0000
0010
0000
0001
0000
1000
0001
,
0100
0010
0001
0100
0001
0010
0001
1000
,
0100
0000
0010
0000
0100
0000
1000
0000
0100
0000
0010
0000
0001
0000
1000
0001
,
0100
1000
0001
0010
0001
0100
0010
1000
,
0100
0010
0001
1000
0001
1000
0001
0010
,
0100
0000
0110
0000
0110
1000
0000
1001
,
0000
0000
0100
0000
1000
0000
0010
0000
0001
0000
0100
0000
0001
0000
0010
1000
,
0100
0010
0100
0010
0001
1000
0010
0100
,
0001
0000
0100
0000
0010
0000
1000
0000
0100
0000
0010
0000
0001
0000
0010
1000
,
0100
1000
0001
0100
0001
1000
0100
1000
,
0100
0000
0010
0000
0100
0000
0010
0000
0001
0000
0000
1000
0010
0000
1000
0001
,
0100
1000
0001
1000
0001
0100
0001
1000
,
0010
0100
0010
1000
0001
0100
0010
1000
,
0011
0000
1100
0000
0010
0100
0000
1001
,
0000
0000
0001
0010
0100
0000
0010
0000
0100
0000
0010
0000
0100
0000
0001
0000
,
0110
1001
0110
1001
,
0220
0000
0330
0002
,
0010
0000
1000
0000
0100
1000
0010
0000
,
0100
0000
0010
0000
0100
1000
0100
0000
,
0010
0100
1000
0100
,
0010
0000
0000
0000
0100
0003
1000
0000
0001
0000
1000
0000
0001
0010
0100
1000
,
0001
0100
0001
0100
0010
1000
0100
0010
0001
0100
0001
0010
0100
1000
0100
0010
,
0001
0010
0100
1000
0100
0010
0100
1000
0010
0100
0001
0100
0010
0100
0001
1000
,
0010
0100
0001
0010
0001
0010
0001
1000
0100
0010
0100
0010
0100
1000
0100
0000
,
0001
0010
0100
0000
1000
0001
0100
0000
1000
0100
0001
0000
0010
1000
0100
0000
,
0020
0000
0130
0000
,
0001
0000
1000
0000
,
0010
0000
0100
0000
,
1000
0000
0001
0010
,
0110
0000
1001
0000
0110
0000
0100
0010
,
0100
0001
0100
0001
1000
0001
1000
0010
,
1000
0000
0001
0000
0010
0000
0100
0000
1000
0000
0001
1000
0010
0000
0100
0000
,
1000
0010
1000
0100
1000
0001
0010
0100
,
0010
0000
0001
0000
0010
0000
0100
0000
1000
0000
0001
1000
0010
0000
0001
0000
,
1000
0100
1000
0010
0100
0001
0010
0100
,
1000
0001
1000
0001
1000
0100
0010
0000
,
0110
0000
0110
0001
0000
1001
0000
0010
,
0001
0000
0100
0000
1000
0000
0010
0000
1000
0000
0100
0001
0010
0000
0100
0000
,
0010
0100
1000
0001
0100
0010
1000
0010
,
0100
0000
0001
0000
0010
0000
0100
0000
1000
0000
0100
0001
0010
0000
0001
0000
,
1000
0010
1000
0000
1001
0000
0000
0000
,
0001
0010
0100
1000
,
0001
0000
0010
0000
0100
0000
1000
0010
,
0010
0000
0001
0000
0010
0000
0100
0000
0010
0000
0100
0000
1000
0000
0000
0001
,
0100
0000
0001
1000
0010
0000
0001
0000
1000
0000
0001
0000
1100
0000
0000
0000
,
0011
0000
0000
0000
0100
0000
0010
0000
1001
0000
0000
0000
1000
0100
0010
0000
,
0100
0010
0100
0010
1000
0220
0000
0000
,
0000
0000
0330
0000
;

//--------------- dance-single - ----------------
#NOTES:
     dance-single:
     :
     Challenge:
     17:
     0,0,0,0,0:
0000
0000
0000
0000
,
0000
0000
0000
0000
,
0000
0000
0000
0000
,
0000
0000
0000
0000
,
0000
0000
0000
0000
,
0000
0000
0000
0000
,
0000
0000
0000
0000
,
0000
0000
0000
0000
,
0000
0000
0000
0000
,
0000
0000
0000
0000
,
0010
1000
0001
0010
0200
0000
0301
0010
,
0100
1000
0001
0010
0100
0010
0100
1000
,
0001
1000
0100
0010
2000
0000
3001
1000
,
0100
1000
0010
0100
0010
1000
0010
1000
,
0100
0010
0100
1000
0002
0000
0013
0100
,
0001
0100
0010
1000
0100
1000
0001
0100
,
0010
1000
0100
0000
0010
0000
1000
0000
0100
0001
1000
0000
0100
0000
0010
0000
,
0100
0001
1000
0000
0001
0000
0100
0000
0010
0100
1000
0000
0010
0000
1000
0000
,
0100
0000
0000
0000
0000
0000
0000
0000
0102
0000
0000
0000
0000
0000
0000
0000
0000
0000
0000
0000
0000
0000
0000
0000
1000
0000
0000
0000
0000
0000
0000
0003
1002
0000
0000
0000
0000
0000
0000
0000
0000
0000
0000
0000
0000
0000
0000
0000
0010
0000
0000
0000
0000
0000
0000
0003
1002
0000
0000
0000
0000
0000
0000
0000
,
0000
0000
0000
0000
0000
0000
0000
0000
0100
0000
0000
0000
0000
0000
0000
0003
1002
0000
0000
0000
0000
0000
0000
0000
0000
0000
0000
0000
0000
0000
0000
0000
0100
0000
0000
0000
0000
0000
0000
0003
0012
0000
0000
0000
0000
0000
0000
0000
0000
0000
0000
0000
0000
0000
0000
0000
2003
0000
0000
0000
0000
0000
0000
0000
,
0100
0000
0000
0000
0000
0000
0000
3000
2100
0000
0000
0000
0000
0000
0000
0000
0000
0000
0000
0000
0000
0000
0000
0000
0001
0000
0000
0000
0000
0000
0000
3000
2001
0000
0000
0000
0000
0000
0000
0000
0000
0000
0000
0000
0000
0000
0000
0000
0010
0000
0000
0000
0000
0000
0000
3000
2001
0000
0000
0000
0000
0000
0000
0000
,
0000
0000
0000
0000
0000
0000
0000
0000
0100
0000
0000
0000
0000
0000
0000
3000
2001
0000
0000
0000
0000
0000
0000
0000
0000
0000
0000
0000
0000
0000
0000
0000
0100
0000
0000
0000
0000
0000
0000
3000
2010
0000
0000
0000
0000
0000
0000
0000
3010
0000
0000
0000
0100
0000
0000
0000
0020
0000
0000
0000
0000
0000
0000
0000
,
1000
0000
0000
0000
0000
0000
0000
0030
1020
0000
0000
0000
0000
0000
0000
0000
0000
0000
0000
0000
0000
0000
0000
0000
0100
0000
0000
0000
0000
0000
0000
0030
0120
0000
0000
0000
0000
0000
0000
0000
0000
0000
0000
0000
0000
0000
0000
0000
0001
0000
0000
0000
0000
0000
0000
0030
0021
0000
0000
0000
0000
0000
0000
0000
,
0000
0000
0000
0000
0000
0000
0000
0000
0001
0000
0000
0000
0000
0000
0000
0030
0120
0000
0000
0000
0000
0000
0000
0000
0000
0000
0000
0000
0000
0000
0000
0000
0001
0000
0000
0000
0000
0000
0000
0000
1030
0000
0000
0000
0001
0000
0000
0000
0100
0000
0000
0000
0010
0000
0000
0000
0200
0000
0000
0000
0000
0000
0000
0000
,
0010
0000
0000
0000
0000
0000
0000
0300
0201
0000
0000
0000
0000
0000
0000
0000
0000
0000
0000
0000
0000
0000
0000
0000
0010
0000
0000
0000
0000
0000
0000
0300
1200
0000
0000
0000
0000
0000
0000
0000
0000
0000
0000
0000
0000
0000
0000
0300
0210
0000
0000
0000
0000
0000
0000
0300
0201
0000
0000
0000
0000
0000
0000
0000
,
0000
0000
0000
0000
0000
0000
0000
0300
0201
0000
0000
0000
0000
0000
0000
0300
1200
0000
0000
0000
0000
0000
0000
0000
0000
0000
0000
0000
0000
0000
0000
0300
0110
0000
0000
0000
0000
0000
0000
0000
1001
0000
0000
0000
0000
0000
0000
0000
0000
0000
0000
0000
0000
0000
0000
0000
0000
0000
0000
0000
0000
0000
0000
0000
,
0110
0000
1001
0000
,
0110
0011
0011
1001
,
0010
0000
0100
0001
0010
0000
1000
0000
0010
0000
1000
0000
0001
0010
1000
0000
,
0001
0000
0100
0000
0001
0000
1000
0010
0100
0000
0010
0000
0001
0000
1000
0001
,
0100
0000
0010
0000
0001
0000
0100
1000
0001
0000
0010
0000
0001
0000
1000
0000
,
0100
0000
0010
0001
0100
0000
1000
0000
0100
0000
0010
0000
0001
0000
1000
0001
,
0100
1000
0001
0010
0001
0100
0010
1000
,
0100
0000
0010
1000
0001
0000
1000
0100
0001
0000
1000
0010
0001
0000
0010
0000
,
0100
0000
0110
0000
0110
1000
0000
1001
,
0000
0000
0100
0000
1000
0000
0010
0000
0001
0000
0100
1000
0001
0000
0010
1000
,
0100
0000
0010
0000
0100
0000
0010
0000
0001
0000
1000
0100
0010
0000
0100
0000
,
0001
0000
0100
0001
0010
0000
1000
0000
0100
0000
0010
0000
0001
0000
0010
1000
,
0100
0000
1000
0000
0001
0000
0100
0000
0001
0000
1000
0010
0100
0000
1000
0000
,
0100
0000
0010
0000
0100
0001
0010
0000
0001
0000
0000
1000
0010
0000
1000
0001
,
0100
0000
1000
0000
0001
0000
1000
0000
0001
0000
0100
0000
0011
0000
1000
0100
,
0010
0000
0100
0000
0010
0000
1000
0000
0001
0000
0100
0000
0010
0100
1000
0000
,
0011
0000
1100
0000
0010
0100
0000
1001
,
0000
0000
0001
0010
0100
0000
0010
0000
0100
0000
1010
0000
0100
0000
0001
0000
,
0110
1001
0110
1001
,
0220
0000
0000
0000
0000
0000
0000
0000
0330
0000
0000
0000
0010
0100
0001
0100
,
0001
0010
0001
1000
0100
0010
0001
1000
0010
0100
0001
0000
0010
1000
0100
1000
,
0010
0100
0010
0100
0001
1000
0010
0100
0010
0100
0010
0000
0100
1000
0001
0100
,
0001
0100
0001
0010
0100
1000
0010
0100
0001
0100
0010
1000
0010
0000
0001
0100
,
0010
1000
0100
0010
0100
0010
1000
0000
0011
0000
0011
0000
0010
1000
0100
0010
,
0001
0100
0001
1000
0100
1000
0100
1000
0010
0100
0010
1000
0001
1000
0100
1000
,
0100
0010
0100
0010
0001
0010
0100
1000
0010
0100
0001
0010
0100
0010
0001
0010
,
0001
0100
0001
0100
0010
1000
0001
0100
0001
1000
0010
1000
0001
0010
0001
0000
,
1000
0100
1000
0000
0001
1000
0001
0000
0010
0100
0010
0000
0002
0000
0000
0000
,
0000
1000
0103
1000
,
0001
0100
1000
0001
,
0010
1000
0100
0001
,
1000
0100
0001
0010
,
0110
0000
0000
0000
1001
0000
0000
0000
0110
0000
0000
0000
0010
0000
0100
0001
,
0010
0000
1000
0000
0010
0000
1000
0000
0001
0010
1000
0000
0001
0000
0100
0000
,
0001
0000
1000
0010
0100
0000
0010
0000
0001
0000
1000
0001
0100
0000
0010
0000
,
0001
0000
0100
1000
0001
0000
0010
0000
0001
0000
1000
0000
0100
0000
0010
0001
,
0100
0000
1000
0000
0100
0000
0010
0000
0001
0000
1000
0001
0100
0000
1000
0000
,
0001
0000
0010
0000
0001
0000
0100
0000
0010
0000
1000
0000
0100
0000
0010
1000
,
0001
0000
1000
0100
0001
0000
1000
0010
0001
0000
0010
0000
0100
0000
0000
0000
,
0110
0000
0110
1000
0000
1001
0000
0100
,
1000
0000
0010
0000
0001
0000
0100
1000
0001
0000
0010
1000
0100
0000
0010
0000
,
0100
0010
1000
0010
1000
0001
0100
0010
,
0100
0010
0100
0001
1000
0100
0001
0000
,
1001
0110
1001
0000
0011
0000
0000
0000
,
0011
0011
0011
0011
,
0011
0000
0011
0000
0011
0000
0100
1000
,
0001
0000
1000
0000
0001
0000
0100
0000
0011
0000
1000
0100
0010
0000
0100
0000
,
0010
0000
1000
0000
0001
0000
0100
0000
0010
0100
1000
0000
0011
0000
0000
0000
,
1100
0000
0011
0110
1001
0000
0100
0010
,
0001
2000
0000
3000
0000
2002
0000
0000
,
0000
0000
3003
0000
;
